#TITLE:Soda Pop;
#SUBTITLE:;
#ARTIST:Saja Boys;
#TITLETRANSLIT:;
#SUBTITLETRANSLIT:;
#ARTISTTRANSLIT:;
#GENRE:;
#CREDIT:;
#BANNER:AV.avi;
#BACKGROUND:bg.png;
#LYRICSPATH:;
#CDTITLE:;
#MUSIC:audio.ogg;
#OFFSET:-0.179000;
#SAMPLESTART:62.961063;
#SAMPLELENGTH:15.000002;
#SELECTABLE:YES;
#BPMS:0.000000=125.999992
;
#STOPS:
;
#BGCHANGES:0.000=MV.avi=1.400=1=0=0=StretchNoLoop==CrossFade==,
9.000=MV.avi=1.000=0=0=1=====,
99999=-nosongbg-=1.000=0=0=0 // don't automatically add -songbackground-
;
#KEYSOUNDS:;
#ATTACKS:;

//---------------dance-single - ----------------
#NOTES:
     dance-single:
     :
     Challenge:
     14:
     0.625501,0.699026,0.519484,0.209143,0.317088,649.000000,572.000000,77.000000,31.000000,0.000000,0.000000,0.625501,0.699026,0.519484,0.209143,0.317088,649.000000,572.000000,77.000000,31.000000,0.000000,0.000000:
// measure 0
0000
0000
0000
0000
,  // measure 1
0000
0000
0000
0000
,  // measure 2
0000
0000
0000
0000
,  // measure 3
0000
0000
0000
0000
,  // measure 4
0000
0000
0000
0000
,  // measure 5
0100
0000
0010
1000
0100
0000
0010
0000
1000
0000
0010
0000
0001
0000
0100
0000
,  // measure 6
0010
0000
1000
0100
0001
0000
0100
0000
0010
0000
0001
0000
1000
0000
0010
0000
,  // measure 7
0100
0000
0001
0100
1000
0000
0100
0000
0010
0000
1000
0000
0100
0000
0010
0000
,  // measure 8
0011
0011
1010
1010
1001
1001
0020
0000
,  // measure 9
1030
0010
0100
0001
1000
0010
0100
1000
,  // measure 10
0200
0000
0301
0010
0100
0010
0001
2000
,  // measure 11
0000
3100
0010
1000
0010
0001
0100
0010
,  // measure 12
0100
0001
0010
0100
1000
0001
0100
0020
,  // measure 13
0000
0000
1030
0001
0100
0000
0001
1000
0010
0000
0100
0000
0001
0000
0100
0010
,  // measure 14
1000
0000
0001
0010
0100
0000
0010
0000
0001
0000
0100
0000
0010
0000
0002
0000
,  // measure 15
0013
0100
0001
2000
3001
0010
0100
2000
,  // measure 16
3001
0100
1000
0100
0001
0010
0002
0000
,  // measure 17
1003
0001
0100
0000
0010
0000
1000
0100
0001
0100
1000
0000
0010
0000
1000
0000
,  // measure 18
0001
0100
0010
0000
0100
0000
0010
0100
1000
0100
0010
0000
1000
0000
0001
0000
,  // measure 19
0010
0001
0100
0010
1000
0000
1001
0000
0100
1000
0100
1000
0100
0010
0000
0000
,  // measure 20
0001
0100
0000
0100
1000
0000
0101
0000
0010
0001
0010
0001
0010
0100
0000
0000
,  // measure 21
1000
0000
1000
0100
0010
0001
1000
0010
,  // measure 22
0100
0001
0100
0020
1030
0000
0010
0200
,  // measure 23
0301
0000
0010
0001
0100
0000
1001
0000
,  // measure 24
1000
0000
0000
1000
0000
0000
1000
0000
0001
0010
0000
0100
1000
0000
0001
0000
,  // measure 25
0200
0000
0310
0000
0020
0000
0130
0001
,  // measure 26
1000
0100
0010
0002
0000
0003
0100
0001
,  // measure 27
0020
0000
0031
0000
0002
0000
0013
0100
,  // measure 28
1000
0010
0100
0002
0000
1003
0010
0100
,  // measure 29
0001
0000
0010
0100
1000
0000
0001
0000
0100
0000
0010
0000
1000
0000
0100
0000
,  // measure 30
0001
0000
0100
0010
0001
0000
1000
0000
0010
0000
0100
0000
0001
0000
2000
0000
,  // measure 31
0010
0000
3100
0002
0010
0000
0103
0000
,  // measure 32
1000
0000
0001
0010
0100
0000
1000
0000
0010
0100
0010
0000
1001
0000
0000
0000
,  // measure 33
0110
0000
0001
1000
0100
0000
1000
0000
0002
0000
0100
0003
1100
0000
0000
0000
,  // measure 34
1001
0000
0010
1000
0001
0000
1000
0000
0020
0000
0100
0030
1001
0000
0000
0000
,  // measure 35
0110
0000
1001
0001
0100
1000
0110
0000
,  // measure 36
1000
0100
1000
0001
0010
0000
0001
0000
1000
0000
0011
0000
0011
0000
1001
0000
,  // measure 37
0010
0000
0100
0010
1000
0000
0001
0000
0020
0000
0100
0030
1001
0000
0000
0000
,  // measure 38
0101
0000
0001
0010
1000
0000
0010
0000
0200
0000
1000
0300
0011
0000
0000
0000
,  // measure 39
1010
0000
0101
0010
0100
0001
0011
0000
,  // measure 40
0100
0010
1000
0010
0100
0000
0001
0000
0010
0000
0000
0000
1001
0000
0000
0000
,  // measure 41
1000
0001
1000
0001
0200
0000
0010
0000
0301
0000
0010
0000
0100
0000
0001
0000
,  // measure 42
0010
0100
0010
0100
0020
0000
0100
0000
0031
0000
0100
0000
0010
0000
1000
0000
,  // measure 43
0001
0100
0001
0100
0002
0000
1000
0000
0103
0000
0010
0000
0100
0000
0001
0000
,  // measure 44
0001
0010
0100
1000
0010
0000
0100
0000
0010
0000
0000
0000
1001
0000
0000
0000
,  // measure 45
1010
0000
0000
0000
0001
0010
0001
0010
0100
0000
1000
0001
0000
0000
0100
0001
,  // measure 46
0100
0000
0010
0100
1000
0000
0100
0001
0000
0000
0001
0000
1000
0100
0010
0000
,  // measure 47
0100
0000
1000
0001
0010
0000
0100
0000
1000
0010
0000
0000
1000
0000
0100
0001
,  // measure 48
0100
0000
1000
0000
0010
0000
0100
0001
0000
0000
0000
0000
0001
0000
0100
0000
,  // measure 49
1000
0100
0001
1000
0010
0001
0010
1000
,  // measure 50
0001
0010
1000
0010
0100
1000
0010
0100
,  // measure 51
0001
0000
1000
0000
0010
0000
0100
0000
1000
0000
0001
0000
0010
0000
0100
0001
,  // measure 52
1000
0001
0010
0000
0001
1000
0100
0000
,  // measure 53
1100
0000
0000
0010
0000
0000
1001
0000
0000
0000
0001
0000
0100
0000
0001
0010
,  // measure 54
0100
0000
0000
1000
0000
0000
1010
0000
0000
0000
1000
0000
0100
0000
0010
0000
,  // measure 55
1001
0000
0000
0100
0000
0000
1010
0000
0000
0000
1000
0000
0001
0000
0010
0001
,  // measure 56
0100
0000
0000
0010
0000
0000
1001
0000
0000
0000
0100
0000
0010
0000
0100
0000
,  // measure 57
0011
0000
0000
0010
0000
0000
0110
0000
0000
0000
0010
0000
0001
0000
1000
0100
,  // measure 58
0010
0000
0000
0001
0000
0000
0101
0000
0000
0000
1000
0000
0001
0000
0100
0000
,  // measure 59
1010
0000
0000
0010
0000
0000
1100
0000
0000
0000
1000
0000
0010
0000
0100
0000
,  // measure 60
1001
0000
0000
0010
0000
0000
1001
0000
0000
0000
0100
0000
0001
0000
0010
0000
,  // measure 61
1001
0000
0000
0010
0000
0000
0110
0000
0010
0000
1000
0000
0001
0000
0010
0001
,  // measure 62
0100
0000
0000
0010
0000
0000
0001
1000
0100
0000
1000
0001
0010
0000
0100
0000
,  // measure 63
1100
0000
0000
0011
0000
0000
1010
0000
0001
0000
0100
0000
2002
0000
0000
0000
,  // measure 64
0000
0000
0000
0000
0000
0000
0000
3003
,  // measure 65
0011
0000
0110
0000
1001
0000
0010
0000
0200
0000
0001
0300
0011
0000
0000
0000
,  // measure 66
1100
0000
0101
0000
1010
0000
0100
0000
0002
0000
0010
0003
1001
0000
0000
0000
,  // measure 67
1010
0000
1100
0001
0010
0100
1001
0000
,  // measure 68
0010
0100
0001
0100
0010
0000
0100
0000
0001
0000
1100
0000
1100
0000
0011
0000
,  // measure 69
1001
0000
1100
0000
0011
0000
0100
0000
0002
0000
0010
0003
1100
0000
0000
0000
,  // measure 70
1001
0000
0110
0000
1100
0000
0001
0000
0020
0000
0100
0030
1001
0000
0000
0000
,  // measure 71
0011
0000
1010
0001
1000
0100
0011
0000
,  // measure 72
0001
1000
0100
1000
0010
0000
0100
0000
0001
0000
1000
0000
1001
0000
0000
0000
,  // measure 73
0001
0100
0010
1000
0010
0100
0001
0010
0100
0000
1000
0000
1010
0000
0010
0000
,  // measure 74
1000
0010
0100
0001
0100
0010
1000
0100
0010
0000
0001
0000
0011
0000
0010
0000
,  // measure 75
0001
0010
0001
0010
0100
0000
1000
0000
0010
1000
0010
1000
0100
0000
0001
0000
,  // measure 76
0100
1000
0100
0010
0100
0000
0010
0000
0001
0100
0010
0000
1100
0000
0000
0000
;

//---------------dance-single - ----------------
#NOTES:
     dance-single:
     :
     Hard:
     10:
     0.501172,0.517797,0.148424,0.249622,0.111318,520.000000,498.000000,22.000000,37.000000,0.000000,0.000000,0.501172,0.517797,0.148424,0.249622,0.111318,520.000000,498.000000,22.000000,37.000000,0.000000,0.000000:
0000
0000
0000
0000
,
0000
0000
0000
0000
,
0000
0000
0000
0000
,
0000
0000
0000
0000
,
0000
0000
0000
0000
,
2000
0000
3001
0100
0001
1000
0100
0000
,
0110
0000
0001
0100
0001
1000
0100
0010
,
0200
0000
1300
0010
0100
0001
0010
0000
,
1000
1100
0001
0101
1000
0100
1100
0000
,
0010
0100
0001
0010
1000
0010
0001
0100
,
0020
0000
1030
0100
1000
0002
0000
0103
,
0010
0100
0001
0010
0100
1000
0010
0200
,
0000
0301
1000
0100
1000
0001
0100
0020
,
0000
0130
0001
0010
0100
2000
0000
3001
,
0100
0010
0100
0001
0010
0100
1000
0020
,
0000
1030
0100
2000
0000
3001
0100
0020
,
0000
0130
0001
0010
0001
1000
0100
0000
,
1000
0100
0010
0000
0100
0000
0010
0000
0001
0010
0100
0000
0010
0000
0000
0000
,
0010
0001
0100
0000
0001
0000
1000
0000
0010
1000
0100
0000
0010
0000
0000
0000
,
0001
0000
0100
0000
0001
0000
1000
0000
0100
0010
0001
0000
1000
0000
0000
0000
,
0010
0100
0001
0000
0010
0000
0100
0000
1000
0001
1000
0000
0010
0000
0000
0000
,
1100
0000
0001
0010
0100
0010
0100
1000
,
0010
0001
0010
0100
0000
0001
0010
0100
,
0000
1000
0001
1000
0001
0100
0010
0000
,
1000
0100
1000
0010
0200
0000
0301
0100
,
0002
0000
0013
0000
0020
0000
0031
0100
,
0010
1000
0100
0020
0030
0000
0100
0001
,
0200
0000
0301
0000
2000
0000
3001
0100
,
0010
0100
0001
0020
0000
0031
0010
0100
,
1000
0100
0010
0002
0000
0103
0010
0100
,
0001
0010
0100
2000
0000
3010
1000
0010
,
0200
0000
0310
0100
0002
0000
0013
0000
,
1001
0000
0001
0100
0010
0000
1001
0000
,
0001
0010
0100
1000
0020
0030
0110
0000
,
0001
1000
0010
0100
0002
0003
1001
0000
,
1100
0000
0001
0100
1000
0100
0001
0000
,
1000
0100
0001
0100
2000
0010
0010
3010
,
1000
0100
0010
0001
0200
0300
0101
0000
,
0001
1000
0010
0100
0002
0003
0011
0000
,
1100
0000
1000
0100
0010
0001
0101
0000
,
1000
0010
0100
0001
0010
0000
1001
0000
,
0001
0000
1000
0010
0100
0000
0001
0000
0010
0000
0100
0000
1000
0000
0010
0000
,
0100
0000
0001
0010
0100
0000
1000
0000
0001
0000
0100
0010
1000
0000
0010
0000
,
0100
0000
0010
1000
0001
0000
1000
0000
0100
0000
1000
0000
0001
0000
0100
0000
,
0010
0000
0100
0001
0010
0000
0100
0000
1000
0000
0000
0000
0110
0000
0000
0000
,
1001
0000
0000
0000
0010
0100
0001
0000
0010
0000
0001
0000
1000
0000
0000
0000
,
1000
0100
0010
0000
0100
0000
1000
0000
0010
0000
0000
0000
0100
0000
0001
0010
,
0100
0000
0010
0000
0001
0000
1000
0100
1000
0000
0010
0000
0100
0000
0001
0000
,
1000
0000
0010
0000
0100
0000
0001
0010
0000
0000
0000
0000
1000
0000
0100
0000
,
0010
0100
1000
0010
1000
0001
0100
0010
,
1000
0001
0010
0100
0010
0001
0100
0010
,
1000
0100
0001
0100
1000
0010
0100
0001
,
0010
0100
0010
0000
0001
1000
0010
0000
,
1000
0000
0000
1000
0000
0000
1000
0000
0000
0000
0001
0000
0100
0000
0010
0000
,
0100
0000
0000
0100
0000
0000
0100
0000
0000
0000
0001
0000
0010
0000
0100
0000
,
1000
0000
0000
1000
0000
0000
0001
0000
0000
0000
1000
0000
0010
0000
0100
0000
,
0001
0000
0000
0001
0000
0000
1000
0000
0001
0000
0010
0000
0100
0000
1000
0000
,
0010
0000
0000
0100
0000
0000
0010
0000
0100
0000
0001
0000
0010
0000
0001
0000
,
1000
0000
0000
1000
0000
0000
0100
0000
1000
0000
0010
0000
0100
0000
0001
0000
,
0010
0000
0000
0010
0000
0000
0001
0000
0100
0000
0001
0000
0010
0000
0100
0000
,
1000
0000
0000
1000
0000
0000
0010
0000
0000
0000
0100
0000
0001
0000
1000
0000
,
0010
0000
0000
1000
0000
0000
0010
0000
0100
0000
0001
0000
0010
0000
0100
0000
,
0010
0000
0000
0010
0000
0000
0001
0000
0100
0000
0010
0000
1000
0000
0100
0000
,
1000
0000
0000
0010
0000
0000
0100
0000
0001
0000
0100
0000
0020
0000
0000
0000
,
0000
0000
0000
0030
,
1100
0100
0010
0100
2000
0010
3001
0000
,
0100
0010
0100
0001
0020
0100
0031
0000
,
1001
0000
0010
1000
0001
0100
0020
0000
,
0130
0001
0010
0100
2000
0001
0010
3001
,
0100
0010
0100
0001
0020
0100
0031
0000
,
1000
0010
0001
0010
2000
0100
3010
0000
,
1001
0000
0001
0010
0100
0010
0002
0000
,
0103
0010
1000
0100
0010
0000
1100
0000
,
0001
1000
0010
0000
0100
0000
0001
0000
0020
0000
0100
0000
0031
0000
0100
0000
,
0010
1000
0100
0000
0010
0000
0001
0000
1000
0000
0010
0000
0200
0000
0010
0000
,
1300
0000
0100
0010
1000
0000
0100
0000
0010
0000
0001
0000
0200
0000
0000
0000
,
0301
0010
0100
0010
0001
0000
1000
0000
0010
0000
0100
0000
1001
0000
0000
0000
;

//---------------dance-single - ----------------
#NOTES:
     dance-single:
     :
     Medium:
     7:
     0.395155,0.440128,0.141677,0.296848,0.000000,410.000000,389.000000,21.000000,44.000000,0.000000,0.000000,0.395155,0.440128,0.141677,0.296848,0.000000,410.000000,389.000000,21.000000,44.000000,0.000000,0.000000:
0000
0000
0000
0000
,
0000
0000
0000
0000
,
0000
0000
0000
0000
,
0000
0000
0000
0000
,
0000
0000
0000
0000
,
1000
0000
0001
0100
0002
0000
0013
0000
,
0100
0000
1000
0010
2000
0000
3010
0000
,
0100
0000
0001
0010
0002
0000
0103
0000
,
0010
1000
0010
1000
0010
0000
0100
0000
,
0001
0000
1000
0100
1000
0000
0010
0000
,
0100
0001
0010
0001
0200
0000
0310
0000
,
1000
0100
1000
0000
0010
0100
0001
0000
,
0010
0100
1000
0001
0200
0000
0310
0000
,
0100
0001
0010
0001
2000
0000
3010
1000
,
0100
0010
0001
0000
0100
0010
0100
0000
,
0001
0010
0100
0000
1000
0010
0100
0000
,
0001
0100
0001
0100
0020
0000
1030
0000
,
1000
0100
0010
0100
2000
0000
3010
0000
,
1000
0001
1000
0001
0200
0000
0310
0000
,
0100
0000
0001
0010
0200
0000
1300
0000
,
0001
1000
0020
0130
,
0001
0010
0100
0000
1000
0010
1000
0001
,
0200
0000
0310
0000
1000
0100
0010
0000
,
0001
0000
1000
0010
2000
0000
3100
0000
,
1000
0001
1000
0001
0000
0000
0100
0001
,
0200
0301
0002
0103
,
0001
0010
0100
0000
,
2000
3010
0020
1030
,
0001
0100
0010
0000
,
1000
0000
1000
0000
0001
0000
0100
0001
,
0100
0000
0001
0000
0010
0000
0100
1000
,
0200
1300
2000
3010
,
0100
0000
0010
0000
,
1100
0000
0001
0100
0020
0000
0130
0000
,
0011
0000
0001
1000
0020
0000
0130
0000
,
1100
0000
0101
0000
0010
1000
0001
0000
,
0010
0100
1000
0010
0200
0000
0310
0000
,
0011
1001
0020
0130
,
1100
0011
0002
0103
,
1010
0000
1000
0100
0010
0100
2000
0000
,
3001
0100
0010
0100
0002
0000
0013
0000
,
0001
0100
0002
0000
1000
0000
0103
0000
,
0010
0100
0020
0000
1000
0000
0130
0000
,
0001
1000
0200
0000
0010
0000
1300
0000
,
0001
0100
0001
1000
0010
0000
1000
0000
,
0001
1000
0001
0000
0100
0000
0010
0000
,
1000
0100
0010
0000
0001
0000
1000
0010
,
1000
0001
0100
0001
0010
0001
0100
0010
,
1000
0100
0010
0100
2000
0000
3010
1000
,
0010
0100
0002
0000
0013
0100
1000
0010
,
1000
0001
0200
0000
0310
1000
0001
0010
,
0100
0010
0001
0000
1000
0010
1000
0000
,
0100
1000
0010
0100
0001
0000
1001
0000
,
2000
0000
3001
0000
0100
0001
0100
0000
,
0020
0000
0130
0000
0001
0010
0100
0000
,
2000
0000
3010
0000
1000
0100
0010
0000
,
0002
0000
0103
0000
0010
1000
0100
0000
,
2000
0000
3100
0000
1000
0100
0010
0000
,
0002
0000
0103
0000
0010
0100
0001
0000
,
2000
0000
3100
0000
1000
0010
0100
0000
,
0002
0000
0013
0000
0001
0100
0010
0000
,
2000
0000
3100
0000
1000
0010
0100
0000
,
0100
0000
0010
0000
1000
0001
0100
0000
,
0020
1030
2000
3001
,
0002
0000
0100
0103
,
1100
0000
0011
0000
0001
0100
0010
0000
,
1010
0000
0101
0000
0001
0010
0100
0000
,
1001
0000
0010
1000
0100
0010
0001
0000
,
0100
0001
0010
0100
1000
0000
0010
0000
,
1010
0000
0101
0000
0001
0010
0100
0000
,
1001
0000
0110
0000
0001
1000
0010
0000
,
1100
0000
0001
0100
0010
1000
0100
0000
,
1000
0100
0010
0001
1000
0000
1010
0000
,
0001
0100
0001
0010
0100
1000
0010
0100
,
0001
1000
0010
1000
0100
0010
0001
1000
,
0010
1000
0010
0100
0001
0100
0001
0010
,
0100
1000
0001
0100
0010
0100
0001
0000
;

//---------------dance-single - ----------------
#NOTES:
     dance-single:
     :
     Easy:
     4:
     0.229383,0.335472,0.026986,0.148424,0.000000,238.000000,234.000000,4.000000,22.000000,0.000000,0.000000,0.229383,0.335472,0.026986,0.148424,0.000000,238.000000,234.000000,4.000000,22.000000,0.000000,0.000000:
0000
0000
0000
0000
,
0000
0000
0000
0000
,
0000
0000
0000
0000
,
0000
0000
0000
0000
,
0000
0000
0000
0000
,
1000
1000
1000
0000
,
0001
0100
0001
0000
,
0010
0100
0010
0000
,
0001
1000
0001
1000
,
0010
0100
0010
0000
,
1000
0100
0010
0000
,
0001
0100
0010
0000
,
1000
0100
1000
0000
,
0001
0100
0001
0010
,
0100
0010
0010
1000
,
0001
0100
0010
1000
,
0100
1000
0001
0000
,
0100
0100
0001
0001
,
0100
0100
0010
0010
,
1000
0100
1000
0010
,
1000
0001
0100
0100
,
0001
0010
0001
0001
,
1000
0100
1000
0010
,
0100
0100
0001
1000
,
0010
1000
0100
0000
,
2000
0000
3001
0000
,
0002
0000
0000
0000
,
0203
0000
0320
0000
,
2030
0000
0000
0000
,
3001
0100
0001
0000
,
0010
0001
1000
0000
,
0020
0000
1030
0000
,
2000
0000
3010
0000
,
1000
1000
2000
0000
,
3001
0001
0002
0000
,
0103
0010
0200
0000
,
0310
1000
0020
0000
,
1030
0001
0200
0000
,
0301
0010
0200
0000
,
1300
0001
2000
0000
,
3010
0100
0002
0000
,
1003
1000
0001
0001
,
0100
0100
0010
0010
,
1000
1000
0001
0001
,
0010
0100
1000
0000
,
0010
1000
0001
0000
,
0100
0001
1000
0000
,
0010
1000
0100
0000
,
1000
0001
0100
0000
,
0010
0010
0100
0100
,
0001
0001
1000
1000
,
0010
1000
0100
1000
,
0002
0000
0103
0000
,
0100
0100
0100
0000
,
0010
1000
0010
0000
,
1000
1000
1000
0000
,
0001
0100
0010
0000
,
0100
0100
0100
0000
,
0001
0010
0100
0000
,
0010
0010
0001
0000
,
1000
0100
1000
0000
,
0010
0100
0001
0000
,
0010
0100
1000
0000
,
0001
1000
0001
1000
,
0020
0000
0130
0000
,
0001
0010
0002
0103
,
0001
1000
0200
1300
,
0010
0010
0100
0100
,
0001
0010
0200
1300
,
0001
0100
0020
1030
,
0100
0010
0002
1003
,
0010
1000
0100
0100
,
1000
1000
0001
0000
,
1000
0010
1000
1000
,
0001
0100
0001
0001
,
0010
0011
0010
0110
,
0100
1100
1001
0000
;

//---------------dance-single - ----------------
#NOTES:
     dance-single:
     :
     Beginner:
     1:
     0.118546,0.180639,0.000000,0.040479,0.000000,123.000000,123.000000,0.000000,6.000000,0.000000,0.000000,0.118546,0.180639,0.000000,0.040479,0.000000,123.000000,123.000000,0.000000,6.000000,0.000000,0.000000:
0000
0000
0000
0000
,
0000
0000
0000
0000
,
0000
0000
0000
0000
,
0000
0000
0000
0000
,
0000
0000
0000
0000
,
1000
0000
1000
0000
,
0001
0000
0001
0000
,
0100
0000
0100
0000
,
0010
0000
0010
0000
,
1000
0000
1000
0000
,
0001
0000
0001
0000
,
0100
0000
0100
0000
,
0010
0000
0010
0000
,
1000
0000
1000
0000
,
0001
0000
0001
0000
,
0010
0000
0010
0000
,
0001
0000
0100
0000
,
0001
0000
1000
0000
,
0010
0000
1000
0000
,
0100
0000
1000
0000
,
0001
0000
0100
0000
,
0001
0000
0001
0000
,
0010
0000
0010
0000
,
0100
0000
0100
0000
,
1000
0000
1000
0000
,
0002
0000
0000
0000
,
0003
0000
0000
0000
,
2000
0000
0000
0000
,
3000
0000
0000
0000
,
0020
0000
0000
0000
,
0030
0000
0000
0000
,
0200
0000
0000
0000
,
0300
0000
0000
0000
,
0010
0000
0010
0000
,
1000
0000
1000
0000
,
0001
0000
0001
0000
,
0100
0000
0100
0000
,
0001
0000
0001
0000
,
0010
0000
0010
0000
,
0100
0000
0100
0000
,
1000
0000
1000
0000
,
0001
0000
0001
0000
,
0100
0000
0100
0000
,
0001
0000
0001
0000
,
0010
0000
0010
0000
,
0001
0000
0000
0000
,
1000
0000
0000
0000
,
0001
0000
0000
0000
,
0010
0000
0000
0000
,
0001
0000
0001
0000
,
0001
0000
1000
0000
,
1000
0000
1000
0000
,
0010
0000
0000
0000
,
0100
0000
0100
0000
,
0100
0000
0000
0000
,
0001
0000
0001
0000
,
0001
0000
0000
0000
,
1000
0000
1000
0000
,
1000
0000
0000
0000
,
0010
0000
0010
0000
,
0010
0000
0000
0000
,
0100
0000
0100
0000
,
0100
0000
0000
0000
,
0001
0000
1000
0000
,
0001
0000
0000
0000
,
0200
0000
0310
0000
,
0020
0000
1030
0000
,
0001
0000
1000
0000
,
0010
0000
1000
0000
,
0001
0000
0001
0000
,
0100
0000
0100
0000
,
0010
0000
0010
0000
,
1000
0000
0000
0000
,
0001
1000
0001
0000
,
0100
0001
0010
0000
,
0001
1000
0010
0000
,
1000
0000
1000
0000
;
