#TITLE:Shooting Star;
#SUBTITLE:;
#ARTIST:Kep1er;
#TITLETRANSLIT:;
#SUBTITLETRANSLIT:;
#ARTISTTRANSLIT:;
#GENRE:;
#CREDIT:;
#BANNER:AV.avi;
#BACKGROUND:bg.png;
#LYRICSPATH:;
#CDTITLE:;
#MUSIC:audio.ogg;
#OFFSET:-0.257000;
#SAMPLESTART:56.103046;
#SAMPLELENGTH:14.999997;
#SELECTABLE:YES;
#BPMS:0.000000=178.000000
;
#STOPS:299.000000=1.018000
;
#BGCHANGES:0.000=MV.avi=1.400=1=0=1===CrossFade==,
4.000=MV.avi=1.000=0=0=1=====,
99999=-nosongbg-=1.000=0=0=0 // don't automatically add -songbackground-
;
#KEYSOUNDS:;
#ATTACKS:;

//---------------dance-single - ----------------
#NOTES:
     dance-single:
     :
     Challenge:
     15:
     0.581548,0.742495,0.278043,0.905423,0.131892,571.000000,532.000000,39.000000,127.000000,0.000000,0.000000,0.581548,0.742495,0.278043,0.905423,0.131892,571.000000,532.000000,39.000000,127.000000,0.000000,0.000000:
0000
0000
0000
0000
,
0000
0000
0000
0000
,
0000
0000
0000
0000
,
0000
0000
0000
0000
,
0000
0000
0000
0000
,
0000
0000
0000
0000
,
0000
0000
0000
0000
,
0000
0000
0000
0000
,
0000
0000
0000
0000
,
0000
0000
0000
0000
0001
1000
0010
0000
,
0100
0000
0001
1000
0001
0010
0100
0000
,
1000
0000
0010
0000
0100
0010
1000
0000
,
0001
0010
0100
1001
,
1001
0000
1001
0000
0010
1000
0100
0000
,
0010
0000
0001
0100
0001
0010
0100
0000
,
1000
0000
0001
0100
0001
0020
0000
0130
,
1000
0002
0000
1003
0010
0200
0000
0301
,
0000
0001
0100
0010
1000
0001
0010
0000
,
0110
0000
0000
0000
0001
1000
0001
0000
0010
0000
0000
0000
0001
0000
0001
0000
,
1000
0100
0000
0010
0001
1000
0010
0000
,
1001
0000
0000
0000
0100
0001
0010
0000
0001
0000
1000
0000
0100
0000
0100
0000
,
1000
0001
0000
1000
0100
1000
0020
0000
,
0230
0000
0302
0000
0103
0010
2000
0000
,
3200
0000
0320
0000
0031
0000
1000
0010
,
1000
0100
0000
0100
0010
0000
0010
0010
,
0001
0000
1000
0000
0001
0010
0001
0000
2000
0000
0000
0000
3000
0000
0000
0000
,
2002
3003
0000
0202
0303
0000
0220
0330
,
0000
0000
0002
0023
0230
0000
0300
0000
,
2020
3030
0000
0202
0303
0000
2002
3003
,
0000
0010
0100
0010
0100
0010
0000
0000
,
2002
3003
0000
0220
0330
0000
0202
0303
,
0000
0000
2000
3200
0320
0000
0030
0000
,
0010
0000
0100
0010
0001
0100
0000
0010
,
0100
0010
1000
0000
0010
0100
0001
0000
,
2100
3010
0210
0301
,
0021
0000
0130
1000
0020
0000
0130
0000
,
2001
3010
0102
0013
,
0010
0100
0010
0100
1000
0100
1000
0000
,
1200
0310
1002
1003
,
0210
0000
0301
0100
0020
0030
1001
0000
,
0001
0010
1000
0010
0001
0100
0001
0100
,
0010
1000
0001
0000
1000
0000
2001
0000
,
3001
0100
0001
0010
0200
0000
1300
0010
,
0100
0000
0010
0000
0001
0000
0010
0000
0100
0010
1000
0000
0001
0000
0000
0000
,
1000
0001
0010
0001
1000
0100
0001
0100
,
1000
0000
0010
0000
0100
0001
0100
0000
0020
0000
0000
0000
2030
0000
0000
0000
,
3001
0100
1000
0100
0002
0000
1003
0100
,
1000
0000
0010
0000
0100
0010
0100
0000
0010
0000
0100
0000
0001
0000
0000
0000
,
0010
1000
0010
0001
0100
0010
0100
0001
,
0010
0000
0100
0000
1000
0000
0010
0000
1000
0001
1000
0001
0100
0000
0000
0000
,
0001
2000
3010
2000
3001
2000
3010
2000
,
3100
0000
0010
0000
0001
1000
0100
0000
1000
0000
0001
0000
0010
0000
0000
0000
,
0001
0200
0301
0020
0031
0200
0301
2000
,
3001
0000
0020
0000
0031
0000
1000
0000
0001
0100
0010
0000
0100
0000
0000
0000
,
0001
0200
1300
0200
0301
0200
0320
0230
,
0301
0000
0200
0000
1300
0000
0100
0000
0001
0010
0001
0000
1000
0000
0010
0000
,
1000
0200
0000
0310
0002
0000
1003
0100
,
0001
0000
0100
0000
0010
0000
0001
0000
1000
0001
1000
0001
0200
0000
0000
0000
,
0000
0000
0000
0301
1000
0002
0000
2003
,
0000
3002
0000
0000
0000
0203
0000
0000
,
0000
0000
0301
0010
0100
2000
0000
3002
,
0000
0203
0000
0000
0000
0000
0320
0000
,
0000
0000
1030
0100
0010
0001
2000
0000
,
0000
0000
0000
0000
3002
0000
0000
0000
0000
0000
0000
0203
0000
0000
0000
0000
,
0000
0000
0000
0000
0000
0302
0000
0000
,
0000
0000
0000
0000
0000
0000
1003
0001
,
1000
0010
0001
0010
0100
0001
0010
0001
,
0100
1010
1010
1001
,
0010
1000
0100
0000
1000
0100
0010
0000
,
1001
0000
0000
0000
0110
0000
0000
0000
1001
0000
0000
0000
1000
0000
0000
0001
,
0000
0000
0100
0000
0010
0000
0000
1000
0000
0000
0001
0000
0010
0000
0000
0100
,
0000
0000
0010
0000
0001
0000
0000
1000
0000
0000
0010
0000
0200
0000
0000
0000
,
0301
0010
0002
0000
0010
0000
0013
0100
,
1000
0001
0010
0001
1000
0000
0100
0000
,
0000
0000
0000
0000
,
2002
3003
0000
2002
3003
0000
0220
0330
,
0000
0000
2000
3020
0230
0000
0300
0000
,
2002
3003
0000
0220
0330
0000
0202
0303
,
0000
1000
0100
1000
0100
1000
0000
0000
,
2002
3003
0000
0202
0303
0000
2020
3030
,
0000
0000
2000
3200
0320
0000
0030
0000
,
0001
0010
0100
1000
0010
0100
0000
0002
,
0000
0000
0203
0300
0100
0000
0001
0010
,
0001
0010
0100
1000
0100
1000
0100
0010
,
0100
0000
0010
0000
0010
0001
0010
0001
0010
0100
0010
0100
1000
0000
0000
0000
,
0010
1000
0010
0100
0001
1000
0100
0001
,
0100
0000
0010
0000
0001
0100
0001
1000
0020
0000
0000
0000
2030
0000
0000
0000
,
3001
0010
1000
0010
0002
0000
0103
1000
,
0100
0000
0001
0000
1000
0000
0100
0000
0010
0001
0010
0000
0100
0000
0000
0000
,
1000
0001
0100
0010
1000
0100
1000
0001
,
0010
0000
0100
0000
0010
0001
0010
0001
1000
0100
1000
0100
1000
0000
0000
0000
,
1000
0020
0031
0020
1030
0200
0310
2000
,
3010
0000
0200
0000
1300
0100
0010
0100
1000
0000
0001
0000
1000
0000
0000
0000
,
1000
0020
0031
0020
0130
0002
0013
0200
,
0301
0000
0200
0000
1300
0100
0010
0100
1000
0000
0010
0000
1000
0000
0000
0000
,
1000
0002
0103
0020
0130
2000
3001
0200
,
1300
0000
0001
0000
0010
0100
0010
0100
1000
0000
0010
0000
1000
0000
0010
0000
,
0100
0002
0000
1003
0200
0000
0310
0001
,
1000
0000
0010
0000
0100
0000
0010
0000
1000
0001
1000
0001
0020
0000
0000
0000
,
0000
0000
0000
0030
0000
0000
0000
0000
0000
0000
0000
0000
0000
0000
0000
0000
;

//---------------dance-single - ----------------
#NOTES:
     dance-single:
     :
     Hard:
     11:
     0.418592,0.566067,0.021388,0.556086,0.014259,411.000000,408.000000,3.000000,78.000000,0.000000,0.000000,0.418592,0.566067,0.021388,0.556086,0.014259,411.000000,408.000000,3.000000,78.000000,0.000000,0.000000:
// measure 0
0000
0000
0000
0000
,  // measure 1
0000
0000
0000
0000
,  // measure 2
0000
0000
0000
0000
,  // measure 3
0000
0000
0000
0000
,  // measure 4
0000
0000
0000
0000
,  // measure 5
0000
0000
0000
0000
,  // measure 6
0000
0000
0000
0000
,  // measure 7
0000
0000
0000
0000
,  // measure 8
0000
0000
0000
0000
,  // measure 9
0000
0000
0000
0000
1000
0001
0200
0000
,  // measure 10
0320
0000
0130
0000
0001
0010
0002
0000
,  // measure 11
2003
0000
3010
0000
1000
0001
0200
0000
,  // measure 12
0320
0230
0302
1003
,  // measure 13
1000
0000
1000
0000
0010
0100
0002
0000
,  // measure 14
2003
0000
3001
0000
0100
0001
0200
0000
,  // measure 15
0320
0000
1030
0010
0001
0010
0000
0100
,  // measure 16
0001
0010
0000
0001
1000
0001
0100
0010
,  // measure 17
0100
0001
1000
0010
0100
0000
1001
0000
,  // measure 18
0001
0000
0100
0001
0010
0000
0010
0001
,  // measure 19
0010
0100
0000
0010
0100
0010
0001
0000
,  // measure 20
0110
0000
0010
0100
0001
0000
1000
0010
,  // measure 21
0100
0001
0000
0001
0010
0100
2000
0000
,  // measure 22
3002
0000
0203
0000
0301
0010
0002
0000
,  // measure 23
2003
0000
3020
0000
0130
0000
0010
1000
,  // measure 24
0010
1000
0100
0000
1000
0000
0100
1000
,  // measure 25
0100
1000
0001
0100
0020
0000
0030
0000
,  // measure 26
2000
3000
0000
0020
0030
0000
2000
3000
,  // measure 27
0000
0000
0002
0000
0203
0300
0000
0000
,  // measure 28
0020
0030
0000
2000
3000
0000
0020
0030
,  // measure 29
0000
2000
0000
3000
,  // measure 30
0002
0003
0000
0020
0030
0000
0200
0300
,  // measure 31
0000
0020
0031
0000
,  // measure 32
0001
0200
0000
0301
,  // measure 33
1000
0020
0000
1030
,  // measure 34
0001
0100
0010
1000
,  // measure 35
0001
0000
0100
0010
0200
0000
0301
0000
,  // measure 36
1000
0001
0010
0100
,  // measure 37
0010
0000
0001
1000
0002
0000
0103
0000
,  // measure 38
0001
1000
0010
0100
,  // measure 39
0001
0000
0100
1000
0100
0000
0001
0000
,  // measure 40
1000
0010
1000
0010
0100
0001
0010
0100
,  // measure 41
1000
0100
0010
0000
0000
0000
1001
0000
,  // measure 42
0001
0000
0000
0100
0001
0000
1000
0000
,  // measure 43
0010
1000
0000
1000
0010
0100
0010
0000
,  // measure 44
1000
0000
0000
0010
1000
0000
0010
1000
,  // measure 45
0001
0100
0000
0100
0001
0000
1000
0000
,  // measure 46
0010
0000
0000
0001
1000
0000
0001
0100
,  // measure 47
0010
0100
0000
0100
0001
0000
1000
0000
,  // measure 48
0100
0010
0000
0010
0001
0000
0100
0001
,  // measure 49
1000
0100
0010
0001
1000
0010
0100
0000
,  // measure 50
0100
0001
0100
0010
0100
0001
0100
0010
,  // measure 51
0100
0001
2000
0000
3200
0000
0310
0000
,  // measure 52
0001
0100
0001
0010
0001
1000
0001
0100
,  // measure 53
0001
0010
0002
0000
2003
0000
3010
0000
,  // measure 54
1000
0100
0010
0100
1000
0100
0010
0100
,  // measure 55
1000
0100
0020
0000
0032
0000
2003
0000
,  // measure 56
3010
0100
0000
0100
0001
0000
1000
0001
,  // measure 57
0100
0010
2000
0000
3002
0000
0023
0000
,  // measure 58
0000
0000
0000
0230
,  // measure 59
0000
0000
0000
0000
0000
2300
0000
0000
,  // measure 60
0000
0000
0000
0000
0000
3002
0000
0000
,  // measure 61
0000
0000
0000
0203
,  // measure 62
0000
0000
0000
0302
,  // measure 63
0000
0000
0000
0000
0000
0023
0000
0000
,  // measure 64
0000
0000
0000
0000
0000
0032
0000
0000
,  // measure 65
0000
0000
0000
0000
0000
0000
1003
0001
,  // measure 66
0010
0001
0100
0010
0100
0001
1000
0010
,  // measure 67
0100
0000
0001
0010
0001
0000
0001
0100
,  // measure 68
0010
1000
0001
0100
0001
0010
0100
0010
,  // measure 69
0001
0000
0000
0000
1000
0000
0010
0000
1000
0000
0000
0000
0001
0000
0000
0001
,  // measure 70
0000
0000
0001
0000
1000
0000
0000
1000
0000
0000
1000
0000
0010
0000
0000
0010
,  // measure 71
0000
0000
0010
0000
0100
0000
0000
0100
0000
0000
0100
0000
0001
0000
0000
0000
,  // measure 72
0100
0000
0001
0000
0010
0000
0001
0100
,  // measure 73
0001
1000
0010
1000
0100
0000
0010
0000
,  // measure 74
0000
0000
0000
0000
,  // measure 75
0002
0003
0000
2000
3000
0000
0020
0030
,  // measure 76
0000
0000
2000
3020
2030
3000
0000
0000
,  // measure 77
0200
0300
0000
2000
3000
0000
0002
0003
,  // measure 78
0000
0200
0000
0300
,  // measure 79
0002
0003
0000
0002
0003
0000
0020
0030
,  // measure 80
0000
0000
0200
0000
2300
3000
0000
0000
,  // measure 81
0000
0000
0000
0000
,  // measure 82
0000
0000
0000
0002
,  // measure 83
0000
0000
0000
2003
,  // measure 84
0000
0000
0000
3010
,  // measure 85
1000
0000
0000
0010
1000
0000
0001
1000
,  // measure 86
0100
0010
0001
0100
0010
1000
0100
0000
,  // measure 87
1000
0000
0000
0001
0100
0000
0001
0000
,  // measure 88
1000
0010
0000
0010
1000
0000
0001
0000
,  // measure 89
0100
0001
0010
0001
1000
0010
0001
0010
,  // measure 90
1000
0100
0010
0100
1000
0001
0010
0000
,  // measure 91
0001
0010
0100
0010
0001
1000
0010
1000
,  // measure 92
0001
0010
0200
0000
0320
0000
0031
0000
,  // measure 93
1000
0100
0010
0100
1000
0001
1000
0010
,  // measure 94
1000
0100
0020
0000
0230
0000
0310
0000
,  // measure 95
0001
0100
0010
0100
0001
0010
1000
0010
,  // measure 96
0001
0100
0020
0000
0230
0000
0301
1000
,  // measure 97
0010
1000
0000
1000
0001
0000
0100
0001
,  // measure 98
0010
0100
1000
0001
2000
0000
3020
0000
,  // measure 99
0000
0030
0000
0000
;

//---------------dance-single - ----------------
#NOTES:
     dance-single:
     :
     Medium:
     6:
     0.314708,0.495309,0.014259,0.477664,0.000000,309.000000,307.000000,2.000000,67.000000,0.000000,0.000000,0.314708,0.495309,0.014259,0.477664,0.000000,309.000000,307.000000,2.000000,67.000000,0.000000,0.000000:
0000
0000
0000
0000
,
0000
0000
0000
0000
,
0000
0000
0000
0000
,
0000
0000
0000
0000
,
0000
0000
0000
0000
,
0000
0000
0000
0000
,
0000
0000
0000
0000
,
0000
0000
0000
0000
,
0000
0000
0000
0000
,
0000
0000
0000
0000
1000
0010
0100
0000
,
0001
0000
0100
0000
0001
0010
0100
0000
,
0010
0000
0001
0000
1000
0010
1000
0000
,
0001
0000
0100
0000
0001
0010
0100
0000
,
1000
0000
0001
0000
1000
0010
1000
0000
,
0001
0000
0100
0000
0010
0100
0001
0000
,
1000
0000
0001
0000
0010
0100
0010
0000
,
0001
1000
0001
0000
0100
0010
0100
0000
,
0001
1000
0001
0000
1000
0000
0001
0000
,
0001
0000
1000
0010
1000
0000
0100
0000
,
0010
0000
0001
0000
0100
0000
0001
1000
,
0001
0010
0100
0000
0010
0000
0001
1000
,
0010
1000
0100
0010
0001
0000
0100
0000
,
0100
0101
0001
0010
,
0010
0000
0011
0000
0001
0000
1000
0010
,
1000
0000
0100
0010
0100
0000
0010
0000
,
0001
1000
0010
0000
,
0001
0000
0000
0001
0000
0000
1000
0000
,
0000
0020
0000
0030
,
0100
0000
0000
0100
0000
0000
0100
0000
,
0000
0020
0000
0030
,
1000
0000
0000
0001
0000
0000
1000
0000
,
0000
0002
0000
0103
,
0000
0000
0000
0000
,
0000
0000
0000
1000
,
0001
1000
0010
0100
,
0001
0020
0000
0031
,
1000
0010
0100
0001
,
1000
0020
0000
1030
,
0001
0010
0001
0100
,
0010
2000
0000
3010
,
0010
1000
1000
0001
,
0100
0001
0000
2000
,
0000
3002
0000
0000
0023
0000
0000
0032
,
0000
0203
0000
0310
,
0010
0000
1000
0000
1000
0000
0001
0100
,
0010
0100
0001
0020
,
0000
0032
0000
0000
0203
0000
0000
0320
,
0000
2030
0000
3001
,
0100
0000
0001
0100
0001
0000
0010
0000
,
0100
0000
1000
0100
1000
0000
0001
0000
,
1000
0020
0000
2030
0000
3002
0000
0203
,
0000
0310
0200
0000
0320
0000
1030
0000
,
0001
0020
0000
0032
0000
0203
0000
0320
,
0000
1030
0002
0000
2003
0000
3001
0000
,
0100
0020
0000
0230
0000
0302
0000
2003
,
0000
3010
0200
0000
0301
0000
1000
0000
,
0001
0100
0000
0100
0010
0000
1000
0000
,
0001
0000
0010
0001
0010
0000
0200
0000
,
0000
0000
0000
0000
,
0000
0000
0000
0000
0000
2300
0000
0000
,
0000
0000
0000
0000
,
0000
0000
0000
3002
,
0000
0000
0000
0203
,
0000
0000
0000
0302
,
0000
0000
0000
0000
0000
2003
0000
0000
,
0000
0000
0000
3010
,
0100
0000
0001
0000
0010
0000
0001
1000
,
0010
1000
0000
0001
,
0100
0000
0010
0000
1000
0000
0100
1000
,
0100
0010
0000
0001
,
0100
0010
1000
0001
,
0010
1000
0010
0002
,
0000
0103
0000
0100
,
0010
0000
0100
0001
1000
0000
0020
0000
,
0000
0000
0000
0030
,
0001
0000
0000
0100
0000
0000
0001
0000
,
0000
1000
1000
0000
,
0010
0000
0000
0010
0000
0000
0100
0000
,
0000
0002
0000
0003
,
1000
0000
0000
0010
0000
0000
0001
0000
,
0000
0100
0000
0000
,
0000
0000
0000
0000
,
0000
0000
0000
0002
,
0000
0000
0000
2003
,
0000
0000
0000
3010
,
0100
0000
0001
0100
0001
0000
0010
0000
,
0100
0000
1000
0001
1000
0000
0020
0000
,
0000
0230
0000
0000
0302
0000
0000
2003
,
0000
3020
0000
0130
,
0001
0000
0100
0010
0100
0000
0001
0000
,
1000
0000
0001
1000
0010
0000
1000
0000
,
0001
0200
0000
0320
0000
2030
0000
3002
,
0000
0103
0002
0000
0013
0000
0100
0000
,
0010
0002
0000
2003
0000
3020
0000
0230
,
0000
0301
0200
0000
0302
0000
0013
0000
,
0100
0020
0000
0032
0000
2003
0000
3020
,
0000
0130
0002
0000
0013
0000
0001
0000
,
0001
1000
0000
1000
0010
0000
0100
0001
,
0100
0010
1000
0000
0002
0000
0023
0000
,
0000
0030
0000
0000
;

//---------------dance-single - ----------------
#NOTES:
     dance-single:
     :
     Easy:
     3:
     0.206750,0.318413,0.000000,0.192491,0.000000,203.000000,203.000000,0.000000,27.000000,0.000000,0.000000,0.206750,0.318413,0.000000,0.192491,0.000000,203.000000,203.000000,0.000000,27.000000,0.000000,0.000000:
0000
0000
0000
0000
,
0000
0000
0000
0000
,
0000
0000
0000
0000
,
0000
0000
0000
0000
,
0000
0000
0000
0000
,
0000
0000
0000
0000
,
0000
0000
0000
0000
,
0000
0000
0000
0000
,
0000
0000
0000
0000
,
0000
0000
0000
1000
,
0001
0100
0000
0001
,
0010
0100
0000
1000
,
0001
1000
0010
0100
,
0001
0010
0000
0001
,
0100
0001
0000
1000
,
0100
1000
0000
0001
,
1000
0010
0100
0001
,
0010
0100
0010
0001
,
1000
0010
1000
0100
,
0010
0001
0000
1000
,
0010
1000
0010
0100
,
0001
0010
0000
0010
,
1000
0100
0010
0001
,
1000
0010
0000
1000
,
0001
0100
0010
1000
,
1000
0001
0000
0200
,
0000
0000
0000
0300
,
0000
0000
0000
0002
,
0000
0000
0000
0003
,
0000
0000
0000
2000
,
0000
0000
0000
3000
,
0000
0000
0000
0002
,
0000
0000
0000
0000
,
0000
0000
0000
0103
,
0000
0001
0000
0100
,
0010
0100
0000
1000
,
0000
0001
0000
0100
,
0001
0100
0000
0010
,
0000
1000
0000
0001
,
1000
0100
0000
0020
,
0000
0000
0000
0032
,
0000
0003
0000
0200
,
0000
0310
0000
2000
,
0000
3001
0000
0100
,
0001
0010
0001
2000
,
0000
3010
0000
0200
,
0000
0301
0000
0002
,
0000
0103
0000
0010
,
1000
0001
0010
0100
,
1000
0001
0000
0100
,
0010
0100
0001
1000
,
0010
0200
0000
0301
,
1000
0010
0100
0001
,
1000
0020
0000
1030
,
0001
0010
0100
1000
,
0001
0200
0000
0320
,
0000
1030
0000
0002
,
0000
0103
0000
2000
,
0000
0000
0000
0000
,
0000
0000
0000
3002
,
0000
0000
0000
0000
,
0000
0000
0000
0203
,
0000
0000
0000
0000
,
0000
0000
0000
0320
,
0000
0000
0000
0000
,
0000
0000
0000
1030
,
0000
1000
0000
0001
,
0000
0001
0000
0100
,
0000
0100
0000
0010
,
0000
0010
0000
1000
,
0001
1000
0001
0100
,
0010
0100
0010
2000
,
0000
3001
0000
0001
,
0000
0001
0000
0100
,
0000
0000
0000
0000
,
0010
0000
0000
0000
,
0000
0000
0000
0001
,
0000
0000
0000
0000
,
0000
0000
0000
0010
,
0000
0000
0000
0000
,
0000
0000
0000
0100
,
0000
0000
0000
0000
,
0000
0000
0000
0002
,
0000
0000
0000
0000
,
0000
0000
0000
1003
,
0001
0100
0001
0010
,
0010
0001
0000
1000
,
0010
0100
0001
1000
,
0010
0100
0000
0001
,
0010
0100
0010
0001
,
0100
0020
0000
1030
,
0001
0100
0001
1000
,
0010
0200
0000
0301
,
1000
1000
1000
0001
,
1000
0020
0000
1030
,
0001
0100
0001
0010
,
0001
2000
0000
3010
,
0100
0001
0010
0100
,
1000
0001
0100
0020
,
0000
0030
0000
0000
;

//---------------dance-single - ----------------
#NOTES:
     dance-single:
     :
     Beginner:
     1:
     0.099810,0.176896,0.000000,0.121198,0.000000,98.000000,98.000000,0.000000,17.000000,0.000000,0.000000,0.099810,0.176896,0.000000,0.121198,0.000000,98.000000,98.000000,0.000000,17.000000,0.000000,0.000000:
0000
0000
0000
0000
,
0000
0000
0000
0000
,
0000
0000
0000
0000
,
0000
0000
0000
0000
,
0000
0000
0000
0000
,
0000
0000
0000
0000
,
0000
0000
0000
0000
,
0000
0000
0000
0000
,
0000
0000
0000
0000
,
0000
0000
0000
1000
,
0000
0000
0000
0001
,
0000
0000
0000
0100
,
0000
0100
0000
0010
,
0000
0010
0000
1000
,
0000
0000
0000
0001
,
0000
0000
0000
0100
,
0000
0001
0000
0100
,
0000
0010
0000
1000
,
0000
1000
0000
0001
,
0000
0001
0000
0100
,
0000
0010
0000
1000
,
0000
1000
0000
0001
,
0000
0001
0000
0100
,
0000
0100
0000
0010
,
0000
1000
0000
0002
,
0000
0000
0000
0103
,
0000
0000
0000
0000
,
0000
0000
0000
0100
,
0000
0000
0000
0000
,
0000
0000
0000
0010
,
0000
0000
0000
0000
,
0000
0000
0000
0010
,
0000
0000
0000
0000
,
0000
0000
0000
0100
,
0000
0100
0000
0100
,
0000
0000
0000
0010
,
0000
0010
0000
0010
,
0000
0000
0000
1000
,
0000
1000
0000
1000
,
0000
0000
0000
0001
,
0000
0100
0000
0001
,
0000
0000
0000
2000
,
0000
0000
0000
3001
,
0000
0000
0000
0002
,
0000
0000
0000
0103
,
0000
0000
0000
0200
,
0000
0000
0000
0310
,
0000
0000
0000
1000
,
0000
0010
0000
0010
,
0000
0000
0000
2000
,
0000
0000
0000
3001
,
0000
0000
0000
0002
,
0000
0000
0000
0103
,
0000
0000
0000
0200
,
0000
0000
0000
0310
,
0000
0000
0000
1000
,
0000
1000
0000
0001
,
0000
0001
0000
0200
,
0000
0000
0000
0000
,
0000
0000
0000
0302
,
0000
0000
0000
0000
,
0000
0000
0000
2003
,
0000
0000
0000
0000
,
0000
0000
0000
3020
,
0000
0000
0000
0000
,
0000
0000
0000
0130
,
0000
0000
0000
0100
,
0000
0000
0000
0010
,
0000
0000
0000
0010
,
0000
0000
0000
1000
,
0000
0000
0000
1000
,
0000
0000
0000
0001
,
0000
0000
0000
0001
,
0000
0000
0000
0100
,
0000
0000
0000
0000
,
0000
0000
0000
0000
,
0000
0000
0000
0000
,
0000
0000
0000
0000
,
0000
0000
0000
0000
,
0000
0000
0000
0000
,
0000
0000
0000
0000
,
0000
0000
0000
0000
,
0000
0000
0000
2000
,
0000
0000
0000
0000
,
0000
0000
0000
3001
,
0000
0001
0000
0001
,
0000
0000
0000
0200
,
0000
0000
0000
0310
,
0000
0000
0000
1000
,
0000
0001
0000
1000
,
0000
0000
0000
0001
,
0000
0001
0000
0002
,
0000
0000
0000
0103
,
0000
0100
0000
0200
,
0000
0000
0000
0310
,
0000
0010
0000
0020
,
0000
0000
0000
1030
,
0000
1000
0000
0001
,
0000
0001
0000
0200
,
0000
0300
0000
0000
;
