#TITLE:Sakura's Strategy;
#SUBTITLE:;
#ARTIST:MIMI, Mass;
#TITLETRANSLIT:;
#SUBTITLETRANSLIT:;
#ARTISTTRANSLIT:;
#GENRE:;
#CREDIT:;
#BANNER:AV.avi;
#BACKGROUND:bg.png;
#LYRICSPATH:;
#CDTITLE:;
#MUSIC:audio.ogg;
#OFFSET:-0.037000;
#SAMPLESTART:29.923042;
#SAMPLELENGTH:15.000004;
#SELECTABLE:YES;
#BPMS:0.000000=128.000000
;
#STOPS:
;
#BGCHANGES:0.000=MV.avi=1.800=1=0=1===CrossFade==,
2.000=MV.avi=1.000=0=0=1=====,
99999=-nosongbg-=1.000=0=0=0 // don't automatically add -songbackground-
;
#KEYSOUNDS:;
#ATTACKS:;

//---------------dance-single - ----------------
#NOTES:
     dance-single:
     :
     Challenge:
     12:
     0.573789,0.655917,0.154482,0.100749,0.164557,598.000000,575.000000,23.000000,15.000000,0.000000,0.000000,0.573789,0.655917,0.154482,0.100749,0.164557,598.000000,575.000000,23.000000,15.000000,0.000000,0.000000:
0000
0000
0000
0000
,
0000
0000
0000
0000
,
0000
0000
0000
0000
,
0000
0000
0000
0000
,
0002
0000
1003
0010
0100
0010
0010
0000
,
1000
0100
0010
0100
1000
0001
0100
0000
,
0001
1000
0010
0100
0010
1000
0001
0000
,
1000
0010
0100
0000
0001
1000
0020
0100
,
0130
0000
0100
0010
1000
0001
0010
0000
,
0100
0010
1000
0010
0001
1000
0010
0000
,
1000
0010
0100
0000
0001
0010
0100
0000
,
1000
0000
0010
0000
0001
0000
0010
0000
1000
0000
0001
0000
0100
0000
0010
1000
,
0010
0000
1001
0001
0010
0100
1000
0000
,
0001
0000
1000
0100
1000
0000
0000
0000
0001
0000
1000
0000
0001
0000
0000
0000
,
0001
0000
0100
0000
0010
0000
0000
0000
1000
0000
0100
0010
0001
0000
0000
0000
,
1000
0100
0000
0100
1100
1000
1001
0000
,
0001
0100
1000
0100
0001
0010
0100
0000
,
0010
0100
0010
0001
1000
0001
0010
0000
,
0100
1000
0001
0000
0100
1000
0004
0003
,
1000
0100
0001
0100
0010
0001
1000
0001
,
0100
0000
0001
0010
0100
1000
0001
0000
,
1000
0010
0001
0010
1000
0001
0010
0000
,
0001
0100
0010
0000
1000
0001
0100
0010
,
0100
0002
0010
0103
1000
0001
1000
0010
,
0100
0000
0001
0010
0100
0000
0100
0000
0001
0000
0100
0000
1000
0000
0000
0000
,
0001
0001
0100
1000
0100
0001
0010
0000
,
0001
0000
0001
0010
0100
0000
0000
0000
0001
0000
0010
0000
0100
0000
1000
0000
,
0010
0000
1000
0000
0100
0000
0010
0000
0001
0000
1000
0001
1000
0000
0100
0000
,
0100
1000
0001
0000
0010
0000
0010
0000
0001
0000
0010
0000
0100
0000
0000
0000
,
1000
0100
0001
0100
0010
0001
1000
0000
,
0001
0010
0100
0000
1000
0010
0001
0010
,
0100
0000
0001
0000
1000
0000
0001
0100
0001
0000
1000
0000
0100
0000
1000
0000
,
0001
0100
0010
1000
1000
0001
0100
0010
,
0100
0100
0001
1000
1000
0010
0100
0001
,
0001
0010
0100
1000
1000
0001
0010
0001
,
0100
0100
0010
1000
0100
0010
0001
0000
,
1001
0000
0000
0000
1000
0000
0001
0010
0100
0000
1000
0000
0010
0000
1000
0100
,
0010
0000
0001
0000
0100
0000
0001
0010
0100
0000
1000
0000
0001
1000
0001
0010
,
0100
0000
0010
0100
1000
0000
0001
1000
0001
0000
0100
0000
0010
0000
1000
0000
,
0100
0000
1000
0100
0010
0100
1000
0100
0010
0000
0001
1000
0010
0000
0000
0000
,
1001
0000
0000
0000
1010
0000
1000
0001
0010
0000
0001
0000
2000
0000
0010
0000
,
3100
0000
0010
0000
0001
0000
0001
1000
0100
0000
1000
0000
0002
0000
0100
0000
,
0013
0000
0100
0000
1000
0000
0100
0010
0001
0000
1000
0000
0002
0000
1000
0000
,
0013
0000
0100
0000
1000
0000
0010
1000
0001
0000
0010
0000
0010
0000
0010
0000
,
0010
0000
0000
0000
0001
0000
0010
0100
1000
0000
0001
0000
1000
0000
0000
0000
,
0011
0000
0001
0000
0010
0000
0100
1000
0010
0000
1000
0000
0001
0000
0000
0000
,
1100
0000
1000
0000
0010
0000
1000
0001
0100
0000
0001
0000
0010
0000
0000
0000
,
1001
0000
1000
0000
0010
0000
0100
0001
0010
0000
0100
0000
1000
0000
0001
1000
,
0001
0000
0000
0000
0001
0000
0010
0001
1000
0000
0010
0000
0100
0000
0001
1000
,
0010
0000
1000
0001
0100
0000
0000
0000
0010
0000
0100
0000
1000
0000
0100
0010
,
1000
0001
1000
0000
0011
0001
1001
0000
,
0000
0000
1010
0000
0000
0000
1001
0000
1000
0000
0001
0010
0001
0000
1000
0001
,
2000
0000
3010
0001
0010
1000
0001
0000
,
0100
0001
0010
1000
0010
0100
1000
0001
,
1000
0100
0010
0000
1000
0100
0010
0000
,
0100
1000
0001
0100
0010
1000
0010
1000
,
0021
0000
0031
0100
0010
0100
0001
0000
,
0010
0000
0100
0000
1000
0000
0001
0100
1000
0000
0200
0000
0301
0000
0000
0000
,
1000
0100
1000
0000
0001
0100
1000
0100
,
0010
1000
0001
0010
0001
0100
1000
0100
,
0001
0000
1000
0001
1000
0000
0100
0000
0001
0000
0100
0000
1000
0000
0000
0000
,
1000
0100
0010
0100
1000
0100
0001
0000
,
0100
0000
1000
0001
0100
0000
0000
0000
0100
0000
1000
0001
0100
0000
0001
0000
,
0010
0000
0001
0000
0100
0000
0010
0000
1000
0000
0100
0010
0001
0000
0001
0000
,
0100
0010
0100
0000
0010
0000
0010
0000
1000
0000
0100
0000
0010
0000
0000
0000
,
0001
0100
1000
0100
0001
0010
0100
0000
,
1000
0100
0010
0000
0001
1000
0010
0100
,
0001
0000
0100
0000
0010
0000
1000
0001
1000
0000
0001
0000
1000
0000
0010
0000
,
0100
0000
0001
0000
0101
0000
0100
0000
0010
0000
0100
0000
0002
0000
0000
0010
,
0000
0000
0103
0000
0010
0000
1000
0000
0100
0000
1000
0000
0020
0000
0000
0100
,
0000
0000
1030
0000
0200
0000
0000
0010
0000
0000
1300
0000
0001
0000
0001
0000
,
1000
0001
0100
0010
1000
0100
0010
0000
,
0100
0000
0010
0000
0001
0000
0001
1000
0010
0000
0100
0000
0002
0000
0013
0000
,
0011
0000
0001
0000
1000
0000
0001
0100
0010
0000
0100
0000
0002
0000
0013
0000
,
0011
0000
0001
0010
0200
0000
1300
0000
1100
0000
0001
0000
1000
0000
0100
0000
,
0010
0000
0001
0000
0100
0000
0010
0000
1000
0000
0100
1000
0100
0000
0100
0000
,
1000
0001
1000
0000
1100
0000
0000
0000
0001
0000
1000
0000
0100
0000
0010
0000
,
0001
0100
0010
1000
1000
1000
0101
1001
,
0101
1001
0000
0000
0000
0000
0000
0000
;

//---------------dance-single - ----------------
#NOTES:
     dance-single:
     :
     Hard:
     8:
     0.477838,0.419787,0.053733,0.114182,0.010075,498.000000,490.000000,8.000000,17.000000,0.000000,0.000000,0.477838,0.419787,0.053733,0.114182,0.010075,498.000000,490.000000,8.000000,17.000000,0.000000,0.000000:
// measure 0
0000
0000
0000
0000
,  // measure 1
0000
0000
0000
0000
,  // measure 2
0000
0000
0000
0000
,  // measure 3
0000
0000
0000
0000
,  // measure 4
2000
0000
3001
0100
0010
0100
0100
0000
,  // measure 5
0001
0010
0100
0010
0001
1000
0100
0000
,  // measure 6
1000
0001
0100
0001
0100
0010
1000
0000
,  // measure 7
0001
0010
0100
0000
1000
0100
0010
0000
,  // measure 8
0001
1000
0010
0010
0100
0001
0100
0000
,  // measure 9
0001
0010
0100
1000
0001
1000
0010
0000
,  // measure 10
1000
0100
0010
0000
0001
0100
0010
0000
,  // measure 11
0100
0010
0100
0001
0010
0001
1000
0000
,  // measure 12
1001
0000
0001
0010
0100
1000
0001
0000
,  // measure 13
1000
0010
0100
0000
0010
0100
0001
0000
,  // measure 14
0010
0001
1000
0000
0001
1000
0100
1000
,  // measure 15
0001
0100
0020
0000
0100
0000
1030
0000
,  // measure 16
0001
0000
1000
0100
0010
0100
1000
0000
,  // measure 17
0001
0100
0010
1000
0100
1000
0001
0000
,  // measure 18
0100
0001
0010
0000
0001
0100
0010
0000
,  // measure 19
0100
0010
0100
0001
0010
0001
2000
0000
,  // measure 20
3100
0000
1000
0001
0100
0010
1000
0000
,  // measure 21
0100
0010
0001
0010
1000
0010
0100
0000
,  // measure 22
1000
0001
0100
0000
0010
1000
0001
0100
,  // measure 23
0010
1000
0001
0010
0100
1000
0001
0000
,  // measure 24
1000
0100
1000
0010
0100
0001
0010
0000
,  // measure 25
0001
0010
0001
0100
0010
1000
0100
0000
,  // measure 26
1000
0100
0010
0000
0001
0010
0100
0010
,  // measure 27
0001
1000
0010
1000
0100
0010
0001
0000
,  // measure 28
0100
0100
0001
0100
0010
1000
0100
0000
,  // measure 29
1000
0100
1000
0001
0100
0001
0010
0000
,  // measure 30
0001
0100
0010
0000
0100
0001
0010
0001
,  // measure 31
1000
0100
0010
0100
0010
0001
1000
0010
,  // measure 32
1000
0001
0100
0000
0001
1000
0000
1000
,  // measure 33
0001
0000
0100
0000
0001
0010
0000
0010
,  // measure 34
0001
0100
0010
0000
1000
0100
0000
0100
,  // measure 35
1000
0001
0100
0001
0010
0100
1000
0000
,  // measure 36
1001
0000
0001
0000
0100
0001
0000
0001
,  // measure 37
0010
0100
1000
0000
0001
1000
0000
1000
,  // measure 38
0010
1000
0100
0000
1000
0100
0010
0001
,  // measure 39
0100
0000
0001
0100
0001
1000
0010
0000
,  // measure 40
1010
0000
1000
0100
1000
0001
0200
0000
,  // measure 41
0301
0000
0001
0010
0100
1000
0002
0000
,  // measure 42
0103
0010
1000
0000
0100
1000
0001
0010
,  // measure 43
0100
1000
0001
0000
1000
0010
0200
0000
,  // measure 44
0310
1000
0010
1000
0001
0100
0001
0000
,  // measure 45
0001
0010
0100
0010
0001
1000
0020
0000
,  // measure 46
1030
0100
0010
0000
0001
0010
0100
0000
,  // measure 47
0010
0100
1000
0010
1000
0001
0200
0000
,  // measure 48
0301
0000
1000
0010
0100
0001
0010
1000
,  // measure 49
0010
0001
0100
0000
0001
0100
1000
0100
,  // measure 50
0001
1000
0100
0000
1100
0000
0100
0000
,  // measure 51
1000
0001
0000
0001
0100
0001
0010
0000
,  // measure 52
0200
0000
1300
0100
0001
0100
2000
0000
,  // measure 53
3001
0100
0010
0100
0001
1000
0200
0000
,  // measure 54
1300
0001
0200
0000
0301
1000
0200
0000
,  // measure 55
1300
0001
1000
0100
0010
0001
0100
0000
,  // measure 56
0102
0000
0103
0010
1000
0100
2000
0000
,  // measure 57
3001
1000
0010
1000
0001
0010
0100
0000
,  // measure 58
1000
0100
1000
0000
0001
0100
0010
0100
,  // measure 59
0001
0010
0100
0010
0001
1000
0020
0000
,  // measure 60
1030
0000
1000
0100
0001
0100
1000
0000
,  // measure 61
1000
0100
0010
0100
1000
0100
0001
0000
,  // measure 62
0001
1000
0010
0000
1000
0001
0100
0001
,  // measure 63
0010
0100
0010
0001
1000
0010
0200
0000
,  // measure 64
0310
1000
0010
0010
1000
0100
0010
0000
,  // measure 65
0100
0010
0001
1000
0010
1000
0100
0000
,  // measure 66
0010
0001
1000
0000
0010
0100
1000
0100
,  // measure 67
0010
1000
0100
0000
1100
0000
1001
0000
,  // measure 68
0011
0000
0000
0000
0001
0000
0010
0000
0100
0000
1000
0000
0001
0000
0000
0100
,  // measure 69
0000
0000
0001
0000
0010
0000
0100
0000
1000
0000
0001
0000
0100
0000
0000
0010
,  // measure 70
0000
0000
0100
0000
0001
0000
0000
0010
0000
0000
0001
0000
1000
0000
0100
0000
,  // measure 71
0010
0001
1000
0010
0100
0001
0010
0000
,  // measure 72
1000
0100
0001
0100
1000
0001
0100
0000
,  // measure 73
0001
0100
1000
0100
0001
1000
0100
0000
,  // measure 74
1000
0010
0001
0000
0010
1000
0001
0010
,  // measure 75
1000
0010
0001
1000
0100
1000
0010
0000
,  // measure 76
1000
0010
0001
0000
0010
1000
0001
0010
,  // measure 77
1000
0010
0001
0100
0100
0100
0001
0001
,  // measure 78
0001
0001
0000
0000
0000
0000
0000
0000
;

//---------------dance-single - ----------------
#NOTES:
     dance-single:
     :
     Medium:
     5:
     0.369413,0.366726,0.026866,0.000000,0.000000,385.000000,381.000000,4.000000,0.000000,0.000000,0.000000,0.369413,0.366726,0.026866,0.000000,0.000000,385.000000,381.000000,4.000000,0.000000,0.000000,0.000000:
0000
0000
0000
0000
,
0000
0000
0000
0000
,
0000
0000
0000
0000
,
0000
0000
0000
0000
,
1000
0000
0001
0000
0100
0001
0100
0000
,
0001
0000
0010
0000
0100
1000
0001
0000
,
1000
0010
0100
0000
0001
0010
0100
0000
,
1000
0000
0001
0000
0100
0001
1000
0000
,
0010
0000
1000
0000
0100
0010
0001
0000
,
1000
0000
0001
0000
0100
0001
0100
0000
,
0001
0000
1000
0000
0010
1000
0100
0000
,
0010
0001
0100
0000
0001
1000
0100
0000
,
1100
0000
0001
1000
0010
0000
1000
0000
,
0100
0010
0001
0000
0100
0001
1000
0000
,
0010
1010
0010
1001
,
0001
0011
0001
0100
,
0001
0000
1000
0100
0010
0001
1000
0000
,
0001
0000
0001
0010
0100
1000
0010
0000
,
1000
0000
0100
0000
1000
0100
1000
0000
,
0001
0000
0100
0000
0001
0010
0100
0000
,
1000
0000
0010
0000
1000
0100
0010
0000
,
0001
0000
0100
0000
0001
1000
0010
0000
,
1000
0100
0010
0000
0001
1000
0010
0000
,
1000
0000
0001
0100
0001
0100
0010
0000
,
1000
0000
0100
0010
0001
0000
1000
0000
,
0010
0000
1000
0100
0010
0000
0001
0000
,
1000
0001
0100
0000
0001
0000
1000
0000
,
0010
0000
1000
0001
0100
0001
1000
0000
,
0010
0000
1000
0001
0010
0000
0001
0000
,
0100
0000
0001
1000
0010
0000
1000
0000
,
0001
0000
0100
0000
0001
1000
0100
0000
,
1000
0001
0001
1000
,
1000
0000
0010
0000
1000
0000
0100
1000
,
0100
0000
1000
0000
0001
0000
0100
0001
,
0100
0000
0001
0000
0010
0000
0001
0010
,
0001
0000
1000
0100
1000
0000
0001
0000
,
0001
0000
1000
0000
0100
0010
0001
0000
,
0010
0000
0001
0000
0100
0001
1000
0000
,
0010
0000
1000
0000
0100
1000
0001
0000
,
1000
0000
0001
0100
0001
0000
0010
0000
,
0010
0000
0001
0000
0010
0001
0100
0000
,
0001
0000
1000
0000
0100
1000
0001
0000
,
0100
0000
0001
0000
1000
0010
1000
0000
,
0100
0000
0010
0000
0001
1000
0010
0000
,
1000
0000
0100
0000
1000
0001
0100
0000
,
0001
0000
0010
0000
0001
0010
0001
0000
,
1000
0000
0010
0000
1000
0100
1000
0000
,
0001
0000
0100
0000
0001
0010
0100
0000
,
0010
0000
0001
1000
0100
0000
1000
0000
,
0001
0000
1000
0000
0010
1000
0001
0000
,
0010
0100
1000
0000
0001
0000
1000
0000
,
0010
1000
0001
0100
,
0001
0000
0010
0100
1000
0001
1000
0000
,
0010
0000
1000
0100
0010
0001
1000
0000
,
0010
0000
1000
0000
0010
1000
0100
0000
,
1000
0000
0001
0010
0100
1000
0001
0000
,
0100
0000
0001
0000
1000
0010
1000
0000
,
0100
0000
0010
0000
0001
0010
0100
0000
,
1000
0000
0001
0000
1000
0010
1000
0000
,
0001
0000
1000
0100
1000
0100
0010
0000
,
0001
0000
1000
0001
1000
0000
0010
0000
,
1000
0000
0100
0010
0001
0000
1000
0000
,
0010
1000
0010
1000
,
0001
0000
0100
0001
0100
0001
0010
0000
,
0001
0000
1000
0100
1000
0000
0001
0000
,
0010
0000
0100
1000
0001
0000
1000
0000
,
0010
1000
0001
0000
1000
0100
1000
0000
,
0001
0010
0010
0001
,
0001
0000
0100
0001
0100
0001
0100
0000
,
0001
0000
1000
0100
1000
0100
1000
0000
,
0001
0000
0010
0100
1000
0000
0001
1000
,
0010
0000
1000
0000
0100
1000
0001
0000
,
0010
0000
0100
0010
0001
0000
1000
0000
,
1000
0000
0001
0100
0010
0000
0100
0000
,
0001
0000
1000
0000
0100
1000
0001
0000
,
0010
0000
0100
0000
1000
0000
0001
1000
,
0001
1000
0010
0000
0010
0000
1000
0000
,
1000
0001
0001
0001
,
0001
0000
0000
0000
;

//---------------dance-single - ----------------
#NOTES:
     dance-single:
     :
     Easy:
     3:
     0.188065,0.209558,0.000000,0.000000,0.000000,196.000000,196.000000,0.000000,0.000000,0.000000,0.000000,0.188065,0.209558,0.000000,0.000000,0.000000,196.000000,196.000000,0.000000,0.000000,0.000000,0.000000:
0000
0000
0000
0000
,
0000
0000
0000
0000
,
0000
0000
0000
0000
,
0000
0000
0000
0000
,
0000
1000
0000
1000
,
0000
0001
0000
0001
,
0000
0100
0000
0100
,
0000
0001
0000
0001
,
0000
1000
0000
1000
,
0000
0001
0000
0001
,
0000
0010
0000
0010
,
0000
0001
0000
0001
,
0000
1000
0001
1000
,
0000
0001
0100
0001
,
0000
0100
0000
0100
,
0000
0010
0000
0010
,
0000
1000
0100
1000
,
0000
0001
0100
0001
,
0000
1000
0000
1000
,
0000
0010
1000
0100
,
0000
0010
0001
0100
,
0000
0001
1000
0100
,
0000
1000
0000
0001
,
0000
1000
0001
1000
,
0000
0010
1000
0100
,
0000
0010
0001
0100
,
0000
0001
0000
1000
,
0000
0010
1000
0100
,
0000
1000
0001
0100
,
0000
0001
1000
0010
,
0000
1000
0000
0001
,
0000
0100
0000
0001
,
0000
1000
0000
1000
,
0000
0001
0000
0001
,
0000
0100
0000
0100
,
0000
0010
0000
0010
,
0000
1000
0000
1000
,
0000
0001
0000
0001
,
0000
0100
0000
0100
,
0000
0001
0000
0001
,
0000
1000
0100
1000
,
0000
0001
0100
0001
,
0000
1000
0100
0010
,
0000
0001
1000
0100
,
0000
1000
0001
1000
,
0000
0010
1000
0001
,
0000
0100
0001
0010
,
0000
0001
1000
0100
,
0000
1000
0001
1000
,
1000
0001
0000
1000
,
0000
0001
0010
0001
,
1000
0100
0000
0100
,
0000
1000
0001
1000
,
0000
0010
1000
0100
,
0000
1000
0000
1000
,
0000
0001
0010
0001
,
0000
0100
0001
1000
,
0000
0010
1000
0100
,
0000
1000
0000
0001
,
0000
1000
0001
1000
,
0001
0010
0100
1000
,
0000
0001
1000
0010
,
0000
1000
0000
0001
,
0000
1000
0100
1000
,
0000
0001
0010
0100
,
0000
1000
0001
1000
,
0000
0010
0000
1000
,
0000
0001
1000
0100
,
0000
1000
1000
1000
,
0000
0001
0001
0001
,
0000
0100
0000
0001
,
0000
0100
0001
0100
,
0000
0001
0001
1000
,
0000
0001
1000
0100
,
0000
1000
0001
1000
,
0000
0010
0000
0010
,
0000
1000
1000
1000
,
1000
0001
0001
0001
,
0001
0000
0000
0000
;

//---------------dance-single - ----------------
#NOTES:
     dance-single:
     :
     Beginner:
     1:
     0.118020,0.130554,0.000000,0.000000,0.000000,123.000000,123.000000,0.000000,0.000000,0.000000,0.000000,0.118020,0.130554,0.000000,0.000000,0.000000,123.000000,123.000000,0.000000,0.000000,0.000000,0.000000:
0000
0000
0000
0000
,
0000
0000
0000
0000
,
0000
0000
0000
0000
,
0000
0000
0000
0000
,
0000
1000
0000
0000
,
0000
0001
0000
0000
,
0000
1000
0000
0000
,
0000
0100
0000
0000
,
0000
1000
0000
0000
,
0000
0001
0000
0000
,
0000
1000
0000
0000
,
0000
0001
0000
0000
,
0000
0100
0000
0100
,
0000
0100
0000
0000
,
0000
0001
0000
0001
,
0000
0001
0000
0000
,
0000
1000
0000
1000
,
0000
0001
0000
0001
,
0000
1000
0000
1000
,
0000
0001
0000
0000
,
0000
0100
0000
0100
,
0000
0001
0000
0001
,
0000
0010
0000
0010
,
0000
0001
0000
0000
,
0000
1000
0000
1000
,
0000
0010
0000
0010
,
0000
1000
0000
1000
,
0000
0100
0000
0000
,
0000
1000
0000
1000
,
0000
0001
0000
0001
,
0000
0100
0000
0100
,
0000
0001
0000
0000
,
0000
1000
0000
1000
,
0000
1000
0000
0000
,
0000
0001
0000
0001
,
0000
0001
0000
0000
,
0000
1000
0000
0100
,
0000
1000
0000
0000
,
0000
0001
0000
0100
,
0000
0001
0000
0000
,
0000
1000
0000
1000
,
0000
0001
0000
0001
,
0000
0100
0000
0100
,
0000
0010
0000
0000
,
0000
1000
0000
1000
,
0000
0100
0000
0100
,
0000
1000
0000
1000
,
0000
0001
0000
0000
,
0000
1000
0000
0001
,
0000
0100
0000
0000
,
0000
0001
0000
0001
,
0000
0100
0000
0000
,
0000
0010
0000
1000
,
0000
0100
0000
1000
,
0000
1000
0000
0001
,
0000
0001
0000
0100
,
0000
0010
0000
0010
,
0000
1000
0000
1000
,
0000
0001
0000
0001
,
0000
1000
0000
1000
,
0000
0100
0000
0100
,
0000
1000
0000
1000
,
0000
0001
0000
0001
,
0000
1000
0000
0100
,
0000
1000
0000
1000
,
0000
0010
0000
0010
,
0000
1000
0000
1000
,
0000
0001
0000
0000
,
0000
0100
0000
0100
,
0000
0001
0000
0001
,
0000
1000
0000
1000
,
0000
1000
0000
0000
,
0000
0001
0000
1000
,
0000
0001
0000
0010
,
0000
0001
0000
1000
,
0000
1000
0000
0000
,
0000
0001
0000
0001
,
0000
0001
0000
0001
;
