#TITLE:SUPERWOMAN;
#SUBTITLE:;
#ARTIST:UNIS;
#TITLETRANSLIT:;
#SUBTITLETRANSLIT:;
#ARTISTTRANSLIT:;
#GENRE:;
#CREDIT:;
#BANNER:AV.avi;
#BACKGROUND:bg.png;
#LYRICSPATH:;
#CDTITLE:;
#MUSIC:audio.ogg;
#OFFSET:-0.319000;
#SAMPLESTART:34.541157;
#SAMPLELENGTH:15.000002;
#SELECTABLE:YES;
#BPMS:0.000000=115.000000
;
#STOPS:
;
#BGCHANGES:0.000=MV.avi=0.700=1=0=1===CrossFade==,
2.000=MV.avi=1.000=1=0=1===CrossFade==,
99999=-nosongbg-=1.000=0=0=0 // don't automatically add -songbackground-
;
#KEYSOUNDS:;
#ATTACKS:;

//---------------dance-single - ----------------
#NOTES:
     dance-single:
     :
     Challenge:
     13:
     0.557843,0.578604,0.024715,0.255384,0.729079,474.000000,471.000000,3.000000,31.000000,0.000000,0.000000,0.557843,0.578604,0.024715,0.255384,0.729079,474.000000,471.000000,3.000000,31.000000,0.000000,0.000000:
0000
0000
0000
0000
,
0000
0000
0000
0000
,
0000
0000
0000
0000
,
0000
0000
0000
0000
,
0000
0000
0000
0000
1000
0001
0100
0010
,
1000
0000
0001
0100
0000
0002
0000
0000
0013
0000
0001
0000
0100
0000
0010
0100
,
0000
0001
0010
0000
0002
0000
0000
0000
1003
0000
0001
0000
1000
0000
1000
0010
,
0000
0100
0000
0001
0000
0010
0000
0100
1000
0000
0100
0000
0001
0000
0100
1000
,
0010
0000
1000
0000
0001
0000
0100
0000
0010
0100
1000
0100
0010
0000
0100
0001
,
0010
0000
0100
0000
1000
0000
0001
0100
0010
0000
1000
0000
0100
0000
0010
0100
,
1000
0000
0001
0000
0100
0000
0001
0100
0010
0001
0010
0000
1000
0000
0001
0100
,
0001
0000
1000
0000
0010
0000
0100
0001
1000
0000
0100
0000
0010
0000
0100
1000
,
0001
1000
0010
0100
0002
0010
0203
0000
,
1000
0000
0302
0000
0010
1000
0203
0000
,
0010
0000
1000
0000
0320
0000
0000
0000
0130
0000
0000
0000
0001
0000
1000
0001
,
0000
0100
0000
0010
0000
0001
0000
0010
0100
0000
0001
0000
0010
0000
0010
0000
,
0100
0000
0100
0000
0010
0001
1000
0010
0200
0000
0000
0000
0301
0100
0000
0001
,
0010
0000
0001
1000
0000
0100
0000
0100
1000
0000
0010
0100
0000
0100
0000
0010
,
1000
0000
0001
0000
1000
0001
0010
0100
1000
0000
0001
0000
0100
0000
0010
1000
,
0100
0000
0010
0000
0001
0000
0100
0001
0010
0000
0001
0000
0010
0000
0100
1000
,
0001
0000
1000
0000
0100
1000
0100
0001
0100
0000
1000
0001
0000
0100
0000
0001
,
0010
0000
0100
0010
0000
0001
0000
1000
0010
0000
0100
0001
0000
1000
0000
0010
,
1000
0000
0001
0000
0010
1000
0010
0001
1000
0000
0010
0000
0100
0000
0001
0100
,
0000
1000
0000
0100
0000
0001
0000
1000
0010
0000
1000
0000
0001
0000
0100
0010
,
1000
0000
0001
0000
0010
0100
0010
0001
1000
0000
0001
0000
0200
0000
0301
0100
,
0002
0000
0103
0001
0200
0000
0301
0010
0000
0010
0000
0010
0100
0000
1000
0001
,
0010
0000
0100
0000
1000
0001
0010
1000
0010
0000
0001
0000
2000
0000
3100
0001
,
0200
0000
1300
0001
2000
0000
3001
0100
0000
0100
0000
0100
0010
0000
1000
0001
,
0010
0000
0100
0000
0010
1000
0010
0001
0100
0000
0010
0000
1000
0000
0001
1000
,
0000
0010
0000
0100
0000
0001
0010
0001
0100
0000
0010
0000
1000
0000
0001
0010
,
0000
0001
0000
0010
1000
0010
0100
0010
0001
0000
1000
0000
0010
0000
0100
0001
,
0000
0001
0000
0010
0000
0100
0000
1000
0010
0000
0100
0010
2000
0000
3001
1000
,
0020
1030
0001
0001
0010
0010
0200
0000
,
0000
1000
0000
0320
,
0000
0001
0000
0230
,
0000
1000
0000
2300
,
0000
0000
0000
0000
0010
0000
0000
0000
0000
0000
0000
0000
3001
0000
0010
0100
,
0000
0010
0000
0001
0000
2000
0000
3000
0000
0000
0000
0000
0000
0000
0000
0000
,
0010
0000
0100
0001
0000
0100
0000
0010
0000
2000
0000
3000
0002
0000
0003
0000
,
1000
0010
1000
0000
0001
0000
0000
0100
0010
0000
0010
0000
0010
0000
0000
0000
,
0000
0000
0000
0000
0001
0100
0001
0100
0002
0000
0000
0000
0103
0010
0000
1000
,
0010
1000
0001
0100
0000
0001
0000
0010
0100
0010
0001
0100
0000
0010
0000
1000
,
0100
0000
1000
0000
0001
0010
1000
0010
0001
0100
0010
0000
0200
0000
0301
0010
,
0200
0000
0320
0000
0130
0000
0010
0100
1000
0100
0010
0000
0001
0000
1000
0100
,
0020
0000
0032
0000
0103
0001
0100
1000
0100
0000
0001
0100
0000
0001
0000
1000
,
0100
0000
1000
0001
0000
0010
0000
0001
0100
0000
0010
1000
0000
0100
0000
1000
,
0001
0000
0010
0000
0001
0100
1000
0100
0001
0010
0100
1000
0010
0001
0010
0100
,
0000
0010
0000
1000
0000
0100
0000
1000
0001
0000
0010
0000
0001
0000
1000
0010
,
0100
0000
0010
0000
1001
0000
0110
0000
1001
0000
0010
0000
0001
0000
0001
0010
,
1000
0000
1000
0010
0001
0000
0001
0100
0000
0001
0000
0100
0010
0000
1000
0001
,
0100
0000
0010
0000
0100
0001
0100
1000
0100
0000
0001
0000
1000
0000
1000
0100
,
0001
0000
0001
0100
1000
0000
1000
0100
0000
1000
0000
0010
0100
0000
0001
1000
,
0100
0000
0010
0000
0100
1000
0010
0001
0010
0000
1000
0000
0001
0000
0010
0100
,
0000
0010
0000
1000
0000
0010
0000
0001
0100
0000
0010
0000
1000
0010
0100
1000
,
0000
0100
0000
0001
0010
0001
0010
0100
1000
0000
0010
0000
0100
0000
0010
1000
,
0000
1000
0000
0100
0000
0010
0000
0001
0010
0000
0001
0000
2000
0000
0000
0000
,
3020
0000
0000
0030
0000
0000
0000
0000
0000
0000
0000
0000
0000
0000
0000
0000
;

//---------------dance-single - ----------------
#NOTES:
     dance-single:
     :
     Hard:
     11:
     0.430739,0.462883,0.041191,0.387195,0.395433,366.000000,361.000000,5.000000,47.000000,0.000000,0.000000,0.430739,0.462883,0.041191,0.387195,0.395433,366.000000,361.000000,5.000000,47.000000,0.000000,0.000000:
0000
0000
0000
0000
,
0000
0000
0000
0000
,
0000
0000
0000
0000
,
0000
0000
0000
0000
,
0000
0000
0000
0000
1000
0010
0100
0001
,
0100
0000
0000
0010
0000
0010
0000
0000
1000
0000
0001
0000
0100
0000
0000
0100
,
0000
0010
2000
0000
3001
0000
0100
0001
,
0100
0100
0010
1000
0001
0001
2000
0000
,
3020
0000
0130
0000
0110
0000
0001
1000
,
0001
0000
0000
0010
0000
0010
0000
0000
0100
0000
0010
0000
0001
0000
0000
0010
,
0000
0000
0010
0000
0002
0000
0000
0000
1003
0000
0010
0000
0100
0000
0100
0010
,
1000
0000
0001
0000
0100
0000
0001
0010
0001
0000
0100
0000
0020
0000
0000
0000
,
2030
0000
3001
0000
1001
0002
0203
0000
,
0010
0000
0320
0000
1030
0010
2000
0000
,
3010
0100
0002
0000
0103
0000
0001
0010
,
0001
0100
0010
0010
1000
0001
2000
0000
,
3020
0000
0000
0000
0130
0000
0000
0000
0110
0000
0000
0001
0000
1000
0000
0001
,
0100
0000
0001
0010
0000
0010
0000
0001
0100
0000
0010
1000
0000
1000
0000
0001
,
0100
0010
2000
0000
3001
0100
0001
0010
,
0001
0002
0203
0000
0301
0100
0001
0001
,
0010
0000
0020
0000
0230
0000
0000
0000
0310
0000
0100
1000
0000
1000
0000
0001
,
0100
0000
0001
0100
0000
0100
0000
0001
1000
0000
0010
0100
0000
0100
0000
0001
,
1000
0000
0100
0000
0020
0000
0000
0000
0031
0000
1000
0000
0010
0000
0100
0001
,
0100
0000
0010
0000
1000
0000
0001
1000
0001
0000
0100
0000
0002
0000
0000
0000
,
0023
0000
0130
0010
0001
1000
0020
0000
,
2030
0000
0000
0000
3010
0000
0100
0001
0000
0001
0000
0100
0001
0000
1000
0000
,
0010
0000
1000
0000
0001
0100
0001
0000
0100
0000
0001
0000
0020
0000
0000
0000
,
0032
0000
0000
0000
0103
0000
0001
0100
0000
0100
0000
0100
0020
0000
0000
0000
,
1030
0000
0001
0000
0100
0001
0100
0000
0010
0000
1000
0000
0001
0000
0010
0100
,
0000
0010
0000
0001
0000
0001
0000
1000
0010
0000
1000
0000
0001
0000
0100
0001
,
0000
0010
0000
0100
0000
0100
0000
1000
0001
0000
0100
0000
0010
0000
0010
1000
,
0000
0001
0000
0100
0000
0002
0000
0000
0013
0000
0001
0000
0200
0000
0000
0000
,
0320
1030
1001
0002
,
0000
0103
0000
0200
,
0000
0310
0000
0002
,
0000
1003
0000
2000
,
0000
0000
3010
0000
0000
0000
0100
0100
,
0010
0100
0002
0000
1003
0000
0001
0000
,
0001
1000
0002
0000
1003
0000
0010
0000
,
0010
1000
0010
0100
0001
0001
0001
0000
,
0000
0000
0000
0000
0000
0000
0000
0000
1001
0000
0000
0000
0100
0010
0000
1000
,
0001
0000
0100
0001
0000
0001
0000
1000
0010
0000
0100
0001
0000
0001
0000
1000
,
0010
0000
0100
0000
0002
0000
0000
0000
0013
0000
0001
0000
0100
0000
0001
0100
,
0001
0000
1000
0000
0020
0000
0000
0000
1030
0000
0001
0000
0100
0000
0001
0100
,
0001
0000
1000
0000
0020
0000
0000
0000
1030
0000
0001
1000
0000
1000
0000
0010
,
0100
0000
0100
0010
0000
0010
0000
1000
0001
0000
0010
0001
0000
0001
0000
0100
,
0010
0000
1000
0000
0200
0000
0000
0000
1300
0000
0001
0000
0100
0000
0010
0100
,
0010
0000
1000
0000
0001
0000
1000
0001
0100
0000
0010
0000
2000
0000
0000
0000
,
3002
0000
0000
0003
0100
0000
0010
0000
0100
0000
0001
0000
2000
0000
0000
0000
,
3002
0000
0000
0000
1003
0000
0001
1000
0000
1000
0000
1000
0010
0000
0100
0001
,
0100
0000
0001
0000
0010
0100
0010
0000
0001
0000
1000
0000
0002
0000
0000
0000
,
2003
0000
0000
0000
3001
0000
0100
0001
0000
0001
0000
0100
0010
0000
1000
0100
,
1000
0000
0001
0000
0010
0100
0010
0000
0001
0000
1000
0000
0010
0000
0010
1000
,
0000
1000
0000
0001
0000
0100
0000
0001
0100
0000
0010
0000
0000
0000
0001
1000
,
0000
1000
0000
0010
0000
1000
0000
0001
0100
0000
0100
0000
0001
0000
0010
0100
,
0000
0010
0000
0001
0000
0001
0000
1000
0010
0000
1000
0000
0002
0000
0000
0000
,
0203
0000
0000
0300
0000
0000
0000
0000
0000
0000
0000
0000
0000
0000
0000
0000
;

//---------------dance-single - ----------------
#NOTES:
     dance-single:
     :
     Medium:
     9:
     0.360126,0.393888,0.140049,0.387195,0.000000,306.000000,289.000000,17.000000,47.000000,0.000000,0.000000,0.360126,0.393888,0.140049,0.387195,0.000000,306.000000,289.000000,17.000000,47.000000,0.000000,0.000000:
0000
0000
0000
0000
,
0000
0000
0000
0000
,
0000
0000
0000
0000
,
0000
0000
0000
0000
,
0000
0000
0000
0000
1000
0010
0100
0010
,
1000
0001
0020
0000
0031
0000
0100
0001
,
0100
0010
2000
0000
3010
0000
0100
0100
,
0001
0001
0020
0000
0031
0000
0200
0000
,
0310
0000
1001
0000
0110
0000
1000
0100
,
1000
0100
0020
0000
0031
0000
0100
0001
,
0100
0001
0020
0000
0031
0000
1000
0010
,
1000
0001
0100
0010
0100
0001
0020
0000
,
0031
1001
1100
0002
,
1000
0203
0010
0320
,
1000
0000
2030
0000
3001
0000
0001
0100
,
0010
1000
0001
0001
0010
0100
0020
0000
,
0130
0000
0110
0000
1100
0000
0001
1000
,
0010
1000
0001
0100
0010
0100
0001
1000
,
0010
1000
0200
0000
0310
0001
0020
0000
,
0031
0100
0020
0000
1030
0001
0200
0000
,
0301
0010
0002
0000
1003
0010
0100
0100
,
0001
1000
0001
0001
0010
0100
0010
0010
,
0100
1000
0002
0000
1003
0000
0010
0100
,
0001
1000
0010
1000
0001
0100
0002
0000
,
0023
0000
0031
0100
0010
0100
0002
0000
,
2003
0000
3001
0100
0002
0000
0013
0000
,
0011
1100
1001
0020
,
2030
0000
3020
0000
0130
0010
0100
0000
,
0011
0000
1100
0000
0001
1000
0001
0100
,
0010
0100
0001
0010
0100
0000
0100
0010
,
0001
1000
0010
1000
0002
0000
0103
0001
,
0010
0100
0010
0001
1000
0010
0200
0000
,
0302
0013
0011
2000
,
0000
3010
0000
0200
,
0000
0301
0000
0002
,
0000
1003
0000
0020
,
0000
1030
0000
1000
,
0001
1000
1000
0001
,
0100
0010
0010
1000
,
1000
0001
0001
0200
,
0000
0000
0000
0301
,
0100
0001
0100
0000
0100
0010
1000
0001
,
0010
0001
0200
0000
0310
1000
0100
0100
,
1000
0010
2000
0000
3001
0010
0001
0001
,
0100
0010
0200
0000
0301
1000
0010
0010
,
1000
0001
0010
0010
0001
1000
0010
0010
,
1000
0001
0200
0000
0301
1000
0002
0000
,
0103
0010
2000
0000
3100
0010
0002
0000
,
0103
0010
0110
2000
,
3020
0000
1030
0001
0100
0010
1000
0000
,
1100
0000
0011
0000
0001
0100
0002
0000
,
2003
0000
3001
0100
0010
0100
0001
0000
,
0011
0000
0110
0001
1000
0010
1000
0001
,
0100
0100
0010
1000
0001
0001
0000
1000
,
0100
0100
1000
0010
1000
1000
0001
0010
,
0100
0010
0001
1000
0010
1000
0002
0000
,
0203
0300
0000
0000
;

//---------------dance-single - ----------------
#NOTES:
     dance-single:
     :
     Easy:
     4:
     0.182417,0.253736,0.049429,0.280098,0.000000,155.000000,149.000000,6.000000,34.000000,0.000000,0.000000,0.182417,0.253736,0.049429,0.280098,0.000000,155.000000,149.000000,6.000000,34.000000,0.000000,0.000000:
0000
0000
0000
0000
,
0000
0000
0000
0000
,
0000
0000
0000
0000
,
0000
0000
0000
0000
,
0000
0000
0000
1000
,
1000
0010
0000
0100
,
0100
0002
0000
1003
,
0010
1000
1000
0002
,
0000
0103
0000
0010
,
0100
0001
0001
1000
,
0001
1000
1000
0010
,
0100
0001
1000
0002
,
0000
2003
0000
3020
,
0000
0100
0000
0230
,
0000
0310
0000
1000
,
0001
0010
0010
0002
,
0000
1003
0000
1001
,
1001
0020
0030
1010
,
1010
2000
0000
3001
,
0100
0002
0000
0013
,
0001
0200
0000
0310
,
0010
1000
1000
0001
,
0100
0002
0000
1003
,
0010
0010
1000
0002
,
0000
0103
0000
2001
,
0000
3002
0000
0203
,
0000
0310
0000
1002
,
0000
0023
0000
0230
,
0000
0310
0000
1000
,
0001
1000
1000
0010
,
1000
0001
0001
0100
,
0010
1000
0001
0020
,
0000
0031
0000
2000
,
0000
0000
0000
3020
,
0000
0000
0000
2030
,
0000
0000
0000
3002
,
0000
0000
0000
0203
,
0000
0301
0000
2000
,
0000
3010
0000
0002
,
0000
0103
0000
2000
,
0000
0000
0000
3010
,
0000
0100
0010
1000
,
1000
0002
0000
0013
,
0001
1000
0000
0010
,
1000
0001
0001
1000
,
1000
0010
0010
1000
,
0001
0200
0000
0301
,
0001
1000
0010
2000
,
0000
3010
0100
0001
,
0001
0100
0100
0020
,
0000
1030
1000
0010
,
0010
0100
0100
0002
,
0000
1003
0010
1000
,
1000
0001
0001
0100
,
0100
0010
0010
1000
,
0001
1000
0010
2000
,
3001
0000
0000
0000
;

//---------------dance-single - ----------------
#NOTES:
     dance-single:
     :
     Beginner:
     1:
     0.111804,0.162189,0.008238,0.156525,0.000000,95.000000,94.000000,1.000000,19.000000,0.000000,0.000000,0.111804,0.162189,0.008238,0.156525,0.000000,95.000000,94.000000,1.000000,19.000000,0.000000,0.000000:
// measure 0
0000
0000
0000
0000
,  // measure 1
0000
0000
0000
0000
,  // measure 2
0000
0000
0000
0000
,  // measure 3
0000
0000
0000
0000
,  // measure 4
0000
0000
0000
1000
,  // measure 5
0000
1000
0000
0001
,  // measure 6
0000
0001
0000
0100
,  // measure 7
0000
0100
0000
0020
,  // measure 8
0000
1030
0000
1000
,  // measure 9
1000
0001
0000
0100
,  // measure 10
0100
0001
0000
2000
,  // measure 11
0000
3010
0000
0002
,  // measure 12
0000
0103
0000
0020
,  // measure 13
0000
0000
0000
0230
,  // measure 14
0000
0000
0000
0302
,  // measure 15
0000
0000
0000
2003
,  // measure 16
0000
0000
0000
3010
,  // measure 17
0000
0010
0000
0100
,  // measure 18
0100
0100
0000
0001
,  // measure 19
0000
1000
0000
0010
,  // measure 20
0010
0010
0000
1000
,  // measure 21
0000
0001
0000
0100
,  // measure 22
0100
0100
0000
0010
,  // measure 23
0000
1000
0000
0002
,  // measure 24
0000
0013
0000
2000
,  // measure 25
0000
0000
0000
3010
,  // measure 26
0000
0010
0000
0200
,  // measure 27
0000
0000
0000
0310
,  // measure 28
0000
0010
0000
1000
,  // measure 29
0000
1000
0000
0001
,  // measure 30
0000
0001
0000
1000
,  // measure 31
0010
0100
0000
0200
,  // measure 32
0000
0301
0000
2000
,  // measure 33
0000
0000
0000
0000
,  // measure 34
0000
0000
0000
3002
,  // measure 35
0000
0000
0000
0000
,  // measure 36
0000
0000
0000
0103
,  // measure 37
0000
0000
0000
0010
,  // measure 38
0000
0000
0000
1000
,  // measure 39
0000
0000
0000
0001
,  // measure 40
0000
0000
0000
1001
,  // measure 41
0000
0000
0000
1000
,  // measure 42
0000
1000
0000
0010
,  // measure 43
0000
0010
0000
0100
,  // measure 44
0000
0200
0000
0301
,  // measure 45
0000
0001
0000
1000
,  // measure 46
0000
1000
0000
0010
,  // measure 47
0000
1000
0000
0020
,  // measure 48
0000
1030
0000
0001
,  // measure 49
0000
1000
0000
0010
,  // measure 50
0010
0010
0000
1000
,  // measure 51
0000
0001
0000
0100
,  // measure 52
0100
0100
0000
2000
,  // measure 53
0000
3001
0000
0002
,  // measure 54
0000
1003
0000
0200
,  // measure 55
0000
0310
0000
0002
,  // measure 56
0000
0003
0000
0000
;
