#VERSION:0.83;
#TITLE:SPAGHETTI;
#SUBTITLE:;
#ARTIST:LE SSERAFIM;
#TITLETRANSLIT:;
#SUBTITLETRANSLIT:;
#ARTISTTRANSLIT:;
#GENRE:;
#ORIGIN:;
#CREDIT:;
#BANNER:AV.avi;
#BACKGROUND:bg.png;
#PREVIEWVID:;
#JACKET:jacket.png;
#CDIMAGE:;
#DISCIMAGE:;
#LYRICSPATH:;
#CDTITLE:;
#MUSIC:audio.ogg;
#OFFSET:-0.269000;
#SAMPLESTART:38.691055;
#SAMPLELENGTH:14.999995;
#SELECTABLE:YES;
#BPMS:0.000=111.490;
#STOPS:;
#DELAYS:;
#WARPS:;
#TIMESIGNATURES:0.000=4=4;
#TICKCOUNTS:0.000=4;
#COMBOS:0.000=1;
#SPEEDS:0.000=1.000=0.000=0;
#SCROLLS:0.000=1.000;
#FAKES:;
#LABELS:0.000=Song Start;
#BGCHANGES:0.000=MV.avi=0.700=1=0=1===CrossFade==,
2.000=MV.avi=1.000=0=0=1=====,
99999=-nosongbg-=1.000=0=0=0 // don't automatically add -songbackground-
;
#KEYSOUNDS:;
#ATTACKS:
;

//---------------dance-single - ----------------
#NOTEDATA:;
#CHARTNAME:;
#STEPSTYPE:dance-single;
#DESCRIPTION:;
#CHARTSTYLE:;
#DIFFICULTY:Challenge;
#METER:14;
#RADARVALUES:0.660323,0.679100,0.343201,0.240971,0.719262,633.000000,586.000000,47.000000,33.000000,0.000000,0.000000,0.000000,0.000000,0.000000,0.660323,0.679100,0.343201,0.240971,0.719262,633.000000,586.000000,47.000000,33.000000,0.000000,0.000000,0.000000,0.000000,0.000000;
#CREDIT:Musey;
#OFFSET:-0.269000;
#BPMS:0.000000=111.489998
;
#STOPS:;
#DELAYS:;
#WARPS:;
#TIMESIGNATURES:0.000000=4=4
;
#TICKCOUNTS:0.000000=4
;
#COMBOS:0.000000=1
;
#SPEEDS:0.000000=1.000000=0.000000=0
,106.000000=0.650000=0.300000=0
,106.500000=1.000000=0.300000=0
,107.000000=0.650000=0.300000=0
,107.500000=1.000000=0.300000=0
,108.000000=0.500000=2.000000=0
,110.000000=1.000000=0.300000=0
,110.500000=0.650000=0.300000=0
,111.000000=1.000000=0.400000=0
,114.000000=0.650000=0.300000=0
,114.500000=1.000000=0.300000=0
,115.000000=0.550000=0.300000=0
,115.500000=1.000000=0.250000=0
,218.000000=0.650000=0.300000=0
,218.500000=1.000000=0.300000=0
,219.000000=0.650000=0.300000=0
,219.500000=1.000000=0.300000=0
,220.000000=0.500000=2.000000=0
,222.000000=1.000000=0.300000=0
,222.500000=0.650000=0.300000=0
,223.000000=1.000000=0.400000=0
,226.000000=0.650000=0.300000=0
,226.500000=1.000000=0.300000=0
,227.000000=0.550000=0.300000=0
,227.500000=1.000000=0.250000=0
,234.000000=0.650000=0.300000=0
,234.500000=1.000000=0.300000=0
,235.000000=0.650000=0.300000=0
,235.500000=1.000000=0.300000=0
,236.000000=0.500000=2.000000=0
,238.000000=1.000000=0.300000=0
,238.500000=0.650000=0.300000=0
,239.000000=1.000000=0.400000=0
,242.000000=0.650000=0.300000=0
,242.500000=1.000000=0.300000=0
,243.000000=0.550000=0.300000=0
,243.500000=1.000000=0.250000=0
;
#SCROLLS:0.000000=1.000000
,111.500000=1.500000
,111.750000=0.500000
,112.000000=1.000000
,223.500000=1.500000
,223.750000=0.500000
,224.000000=1.000000
,239.500000=1.500000
,239.750000=0.500000
,240.000000=1.000000
;
#FAKES:;
#LABELS:0.000000=Song Start
;
#NOTES:
// measure 0
0000
0000
0000
0000
,  // measure 1
0000
0000
0000
0000
,  // measure 2
0000
0000
0000
0000
0000
0000
0000
1000
0000
1000
0000
0001
0010
0000
0200
0000
,  // measure 3
0310
0000
0001
0010
0001
1000
0000
0010
0000
1000
0000
0100
0001
0000
0200
0000
,  // measure 4
0310
0000
0001
0000
1000
0010
0000
1000
0000
0001
1000
0001
0100
0000
0001
0000
,  // measure 5
0010
0000
0001
0000
1000
0001
0010
0100
2000
0000
0000
0000
3002
0000
0000
0000
,  // measure 6
0103
0000
0001
0000
0001
0010
0100
1000
0000
1000
0000
0001
0010
0000
0001
0000
,  // measure 7
0100
0000
0010
1000
0100
0010
0000
0001
0000
0100
0000
0001
1000
0000
0100
0000
,  // measure 8
0001
0000
0100
0000
1000
0001
0000
1000
0000
0100
0000
1000
0001
0000
0100
0000
,  // measure 9
0010
0000
1000
0000
0001
0100
0010
0100
0002
0000
0000
0000
2003
0000
0000
0000
,  // measure 10
3010
0000
0100
0000
0000
0001
0000
1000
0010
0000
0010
0000
1000
0000
0100
0000
,  // measure 11
0010
0000
0001
0000
0000
0100
0000
0001
0100
0000
0010
0000
2000
0000
0001
3000
,  // measure 12
0001
0000
0100
0000
0001
0100
1000
0100
0001
0000
0010
0000
0001
0000
1000
0000
,  // measure 13
0010
0000
0000
0000
0000
0000
0100
0000
0000
0000
0000
0000
0000
0000
0000
0001
0000
0000
0000
0000
0000
1000
0000
0000
0100
0000
0000
0000
0000
0000
1000
0000
0000
0000
0000
0000
1000
0000
0000
0000
0000
0000
0001
0000
0010
0000
0100
0000
,  // measure 14
1000
0000
0001
0000
0000
0100
0000
0001
1000
0000
0010
0000
1000
0000
0100
1000
,  // measure 15
0001
0000
0100
0000
0000
0010
0000
1000
0100
0000
1000
0000
0001
0000
0010
0000
,  // measure 16
0100
0000
1000
0000
0100
0001
0100
1000
0010
1000
0001
0000
0010
0000
0100
0000
,  // measure 17
1000
0001
0100
0010
,  // measure 18
1001
0000
1000
0000
0001
1000
0000
0010
0000
0100
0000
0001
0100
0000
0010
0000
,  // measure 19
1000
0000
0100
0000
1000
0001
0100
0010
0000
0100
0000
0001
0010
0000
0100
0000
,  // measure 20
1002
0000
0103
0000
0001
0010
0100
1000
0000
0010
0000
1000
0100
0000
0010
0000
,  // measure 21
0001
0000
0001
0100
0020
0000
0130
0000
0001
0100
0010
0100
0001
0000
0011
0000
,  // measure 22
1000
0000
1001
0000
0001
1000
0100
1000
0000
0001
0000
0100
0010
0000
1000
0000
,  // measure 23
0100
0000
1000
0000
1002
0000
0000
0103
0000
0010
0000
1000
0100
0000
0010
0000
,  // measure 24
0210
0000
1300
0000
0100
0010
0100
1000
0000
0001
0000
0100
0010
0000
1000
0000
,  // measure 25
0001
0000
0100
0010
2000
0000
3100
0000
0100
1000
0010
1000
0100
0000
0100
0000
,  // measure 26
1000
0000
0100
1000
0001
0010
0100
0000
2001
0000
3100
0000
2001
0000
3100
0000
,  // measure 27
0201
0000
0000
0310
1000
0000
0001
0010
0100
0000
0011
0000
1001
0000
0200
0000
,  // measure 28
1300
0000
1000
0100
1000
0001
0100
0000
1002
0000
0013
0000
1002
0000
0013
0000
,  // measure 29
1100
0000
0001
0100
0020
0000
0000
0000
0130
0001
0010
0001
0200
0000
0000
0000
,  // measure 30
0301
0000
0001
0000
0000
0000
0100
0001
0000
0001
0000
0100
0010
0000
0100
0000
,  // measure 31
1000
0000
0100
0001
1000
0001
0000
1001
0000
0100
0000
0010
0001
0010
0100
0000
,  // measure 32
0010
0000
0001
0100
0001
1000
0000
0010
0000
1000
0000
0100
0001
0000
0100
0000
,  // measure 33
1000
0000
0001
0000
1000
0100
0010
0001
2000
0000
0000
0000
3020
0000
0000
0000
,  // measure 34
0130
0000
0001
0000
0100
0001
0010
0100
0000
1000
0000
0001
0100
0000
0010
0000
,  // measure 35
1100
0000
0011
0000
0001
1000
0010
0100
0000
0001
0000
0010
0100
0010
0001
0000
,  // measure 36
0100
0000
0010
0100
1000
0100
0000
0001
0000
1000
0000
0100
0010
0000
0001
0000
,  // measure 37
0100
0000
0010
0000
1000
0100
0010
0100
1000
0000
0001
0000
1000
0000
0001
0000
,  // measure 38
1000
0000
0100
0000
0010
0001
0100
0010
0001
0000
0020
0000
1030
0000
0001
0000
,  // measure 39
0010
0000
0100
0000
0001
0100
0010
0001
0100
0010
0100
0010
1000
0000
1000
0000
,  // measure 40
0001
1000
0010
0100
0001
0000
0100
0000
0001
0010
0001
1000
0100
0000
1000
0000
,  // measure 41
0010
0000
0100
0000
0010
1000
0100
0001
0100
0000
0110
0000
1001
0000
1001
0000
,  // measure 42
1000
0000
0001
0000
0100
0000
0001
0001
0100
0010
1000
0100
1000
0000
0001
0000
,  // measure 43
0100
0000
0010
0000
1000
0001
0010
0001
1000
0010
1000
0000
0100
0000
1000
0000
,  // measure 44
0010
0000
0100
0000
1000
0000
0100
0100
0001
1000
0001
0010
0100
0000
1000
0000
,  // measure 45
0010
0100
0001
0000
,  // measure 46
2100
0000
3001
0000
0010
0100
0010
0001
0000
1000
0000
0010
0100
0000
0001
0000
,  // measure 47
0101
0000
1001
0000
0100
0010
0001
0100
0000
0010
0000
1000
0010
0000
0100
0000
,  // measure 48
1001
0000
0011
0000
0100
1000
0100
0001
0000
1000
0000
0100
0010
0000
0001
0000
,  // measure 49
0011
0000
0001
1000
0020
0000
0130
0000
0001
0100
0010
0100
0001
0000
1010
0000
,  // measure 50
0100
0000
0001
0000
0001
0100
0010
1000
0000
0010
0000
0100
0001
0000
1000
0000
,  // measure 51
1002
0000
0013
0000
2100
0000
0000
3001
0000
0100
0000
0100
1000
0000
0100
0000
,  // measure 52
0110
0000
1001
0000
0001
0100
0010
1000
0000
0001
0000
0010
0100
0000
1000
0000
,  // measure 53
1010
0000
1000
0010
0200
0000
0301
0000
0001
1000
0100
1000
0001
0000
1001
0000
,  // measure 54
1000
0001
1000
0100
0010
1000
0010
0100
1000
0000
1100
0000
0010
0000
1001
0000
,  // measure 55
0001
0010
0001
0010
0100
1000
0100
1000
0001
0000
0110
0000
1001
0000
2000
0000
,  // measure 56
3100
0010
0100
0010
0001
0010
1000
0010
0100
0000
1100
0000
0001
0000
1001
0000
,  // measure 57
0100
0000
0001
0010
0002
0000
1003
0000
0001
1000
0001
1000
0001
0000
0110
0000
,  // measure 58
0100
1000
0100
0001
0100
0010
0100
1000
0001
0000
0110
0000
0001
0000
1001
0000
,  // measure 59
0001
1000
0010
1000
0001
0010
0100
0010
0001
0000
0101
0000
1010
0000
0002
0000
,  // measure 60
1003
0010
0100
1000
0001
0010
0100
0010
1000
0000
0011
0000
1000
0000
0011
0000
,  // measure 61
1100
0000
0001
0010
2000
0000
3010
0000
0001
0010
1000
0010
0002
0000
0000
0000
,  // measure 62
0003
0000
0000
0000
;

//---------------dance-single - ----------------
#NOTEDATA:;
#CHARTNAME:;
#STEPSTYPE:dance-single;
#DESCRIPTION:;
#CHARTSTYLE:;
#DIFFICULTY:Hard;
#METER:11;
#RADARVALUES:0.547661,0.611190,0.160647,0.284784,0.529406,525.000000,503.000000,22.000000,39.000000,0.000000,0.000000,0.000000,0.000000,0.000000,0.547661,0.611190,0.160647,0.284784,0.529406,525.000000,503.000000,22.000000,39.000000,0.000000,0.000000,0.000000,0.000000,0.000000;
#CREDIT:Musey;
#NOTES:
0000
0000
0000
0000
,
0000
0000
0000
0000
,
0000
0000
0000
0000
0000
0000
0000
0001
0000
0001
0000
1000
0010
0000
0100
0000
,
0001
0000
1000
0000
0000
0001
0000
0010
0000
0100
0000
1000
0001
0000
0100
0000
,
0001
0000
1000
0000
0000
0100
0000
1000
0000
0001
0000
0010
0001
0000
0100
0000
,
0010
0000
1000
0000
0000
0001
1000
0001
0200
0000
0000
0000
0302
0000
0000
0000
,
0013
0000
0001
0000
0000
1000
0000
0001
0000
0100
0000
0001
1000
0000
0010
0000
,
1000
0000
1000
0000
0100
0000
0000
0010
0000
0001
0000
1000
0010
0000
1000
0000
,
0100
0000
1000
0000
0000
0001
0000
0100
0000
0010
0000
1000
0100
0000
0010
0000
,
0001
0000
1000
0000
0000
1000
0100
1000
0002
0000
0000
0000
0203
0000
0000
0000
,
0301
1000
0010
0100
0001
0010
1000
0010
,
0001
0100
0020
0000
1030
0000
1000
0100
,
1000
0001
1000
0010
0100
0001
0010
0100
,
1000
0001
0200
0000
0300
1001
0110
1001
,
0001
0100
0002
0000
1003
0100
1000
0100
,
0010
0001
2000
0000
3010
0000
1000
0001
,
1000
0100
0010
0100
1000
0001
0100
0010
,
0200
0302
0103
0002
,
1003
0000
1100
0000
0001
1000
0000
1000
0000
0100
0000
0010
0001
0000
0100
0000
,
0010
0000
1000
0000
0001
1000
0000
0100
0000
0010
0000
0001
0100
0000
0001
0000
,
2000
0000
0000
0000
3100
1000
0000
0001
0000
1000
0000
0100
0010
0000
0001
0000
,
0100
0000
0001
0010
0002
0000
0000
0003
0100
0001
0010
0001
2000
0000
0000
0000
,
3010
0000
0000
0000
1000
0010
0000
0100
0000
0001
0000
1000
0001
0000
0100
0000
,
0010
0000
0000
0000
0200
0000
0000
0301
0000
0100
0000
0001
1000
0000
0100
0000
,
0020
0000
0000
0030
0100
1000
0000
0001
0000
1000
0000
0010
0100
0000
0001
0000
,
0010
0000
0100
1000
0020
0000
0000
0030
1000
0100
1000
0100
0020
0000
0000
0030
,
0001
0000
0000
1001
0000
0000
1000
0000
1100
0000
0001
0000
0110
0000
1000
0000
,
0110
0000
0000
1100
0000
0000
0011
0000
0100
0000
1000
0000
1001
0000
0000
0000
,
0011
0000
0000
0110
0000
0000
1001
0000
1000
0000
0101
0000
1000
0000
0101
0000
,
0010
0000
0001
0100
0020
0000
0000
0030
0100
0010
0100
0010
2000
0000
0000
3000
,
0010
0000
1000
0000
0001
0000
0001
1000
0000
0001
0000
0100
0010
0000
0100
0000
,
0001
0000
0010
0000
0001
0100
0000
0010
0000
0100
0000
0010
0100
0010
1000
0000
,
0001
0000
1000
0000
1000
0100
0000
0010
0000
0001
0000
0100
0001
0000
1000
0000
,
0010
0000
1000
0000
0000
1000
0100
1000
0002
0000
0000
0000
0203
0000
0000
0000
,
0301
0000
1000
0000
0010
0000
1000
0100
0010
0000
0001
0000
0100
0000
0010
0000
,
2000
0000
0100
0000
3100
0000
1000
0000
0001
0100
0010
0000
0100
0000
0001
0000
,
0010
0000
0100
0000
1000
0001
1000
0000
0010
0000
0100
0000
0001
0000
0010
0000
,
0100
0000
0010
0000
0001
1000
0010
1000
0002
0000
0000
0000
0203
0000
0000
0000
,
0301
0000
0100
0000
0010
0000
1000
0000
0100
1000
0100
0000
0010
0000
0001
0000
,
0100
0000
0001
1000
0020
0000
0000
0000
0130
0000
0001
0100
0010
0000
1000
0000
,
0100
0010
0001
0010
0100
1000
0001
0100
,
0010
0000
0100
0001
2000
0000
0000
0000
3100
0000
1100
0000
1100
0000
1001
0000
,
0001
0000
0010
0000
0001
0100
0010
0100
0001
0000
1000
0000
0100
0000
0010
0000
,
0001
0100
0020
0000
1030
0000
1000
0100
,
1000
0001
0100
0001
0010
0100
0010
0100
,
2000
3002
0103
0000
,
1001
0000
0000
0000
0010
1000
0000
0100
0000
0010
0000
0001
0100
0000
0010
0000
,
1000
0000
0001
0000
0100
0001
0010
0001
0000
1000
0000
0100
0010
0000
0100
0000
,
2001
0000
0000
3000
0010
1000
0000
0001
0000
0100
0000
0010
0100
0000
0001
0000
,
0010
0000
0100
0010
0002
0000
0100
0003
0001
0010
0100
0010
0002
0000
1000
0003
,
1000
0000
1001
0000
1000
0001
0100
0010
0000
0100
0000
0001
0010
0000
0100
0000
,
1000
0000
0001
0000
0200
0000
0000
0301
0000
0100
0000
0010
1000
0000
0100
0000
,
0020
0000
0100
0030
0100
0010
0100
1000
0000
0001
0000
0100
0010
0000
0100
0000
,
0001
0000
1000
0100
0020
0000
0000
0030
0001
0100
0001
0100
0010
0000
0100
0000
,
0001
0010
0100
1000
0001
0010
0100
1000
0001
0000
0100
0000
0001
0000
1000
0000
,
1000
0100
0010
0001
1000
0100
0010
0001
0100
0000
0010
0000
1000
0000
0000
0000
,
0001
0010
0100
0010
0001
0010
0100
0010
0001
0000
1000
0000
0001
0000
0100
0000
,
0001
0000
1000
0100
2000
0000
0000
3000
0010
1000
0100
1000
0010
0000
0010
0000
,
1000
0100
0010
0001
1000
0001
0100
0001
1000
0000
0001
0000
1000
0000
0001
0000
,
1000
0100
1000
0100
0010
0001
1000
0100
0010
0000
0100
0000
1000
0000
0000
0000
,
1000
0100
0010
0001
1000
0001
0100
0010
1000
0000
0001
0000
1000
0000
0001
0000
,
1000
0000
0001
0010
0200
0000
0000
0300
0010
0100
0010
0100
2000
0000
0000
0000
,
3000
0000
0000
0000
;

//---------------dance-single - ----------------
#NOTEDATA:;
#CHARTNAME:;
#STEPSTYPE:dance-single;
#DESCRIPTION:;
#CHARTSTYLE:;
#DIFFICULTY:Medium;
#METER:7;
#RADARVALUES:0.407877,0.384823,0.065719,0.233669,0.193507,391.000000,382.000000,9.000000,32.000000,0.000000,0.000000,0.000000,0.000000,0.000000,0.407877,0.384823,0.065719,0.233669,0.193507,391.000000,382.000000,9.000000,32.000000,0.000000,0.000000,0.000000,0.000000,0.000000;
#CREDIT:Musey;
#NOTES:
0000
0000
0000
0000
,
0000
0000
0000
0000
,
0000
0000
0000
0000
1000
1000
0001
0100
,
0000
0001
0100
0001
1000
1000
0010
0000
,
1000
0100
0010
0100
1000
1000
0001
0000
,
0100
0000
0001
0100
0020
0000
0230
0000
,
0301
1000
0100
0010
0001
0100
0001
1000
,
0020
0000
1030
0100
1000
0001
0100
0001
,
1000
0000
0010
1000
0001
0100
0010
0100
,
0001
0000
0010
0100
0020
0000
0230
0000
,
1300
0000
0001
0000
1000
0010
1000
0100
,
0010
0001
0200
0000
0301
0000
0100
0001
,
0010
0001
1000
0010
0100
0001
0010
0100
,
1000
0001
0200
0000
0301
0000
0001
0000
,
0100
0000
0001
0000
1000
0100
0010
0100
,
1000
0001
0200
0000
0301
0000
0100
0010
,
1000
0010
0100
0001
0010
0100
1000
0001
,
0200
0302
0103
0001
,
1001
0000
0000
0000
0001
0000
0000
1000
0000
0001
0000
0100
0010
0000
0100
0000
,
0000
0000
0000
0000
0001
0000
0000
0010
0000
0001
0000
0100
0010
0000
1000
0000
,
0100
0000
0000
0000
1000
0000
0000
0001
0000
0100
0000
0010
1000
0000
0100
0000
,
0000
0000
1000
0100
1000
0000
0000
0000
0001
0000
1000
0000
0001
0000
0000
0000
,
0100
0000
0000
0000
0001
0000
0000
0100
0000
0001
0000
0010
0100
0000
1000
0000
,
0000
0000
0000
0000
0001
0000
0000
1000
0000
0010
0000
1000
0100
0000
0010
0000
,
0001
0000
0000
0000
0100
0000
0000
0001
0000
0100
0000
0010
1000
0000
0100
0000
,
0000
0000
1000
0100
0010
0000
0000
0000
0100
0000
0100
0000
0010
0000
0000
0000
,
0001
0000
0000
0100
0000
0000
0001
0000
1000
0000
0010
0000
1000
0000
0010
0000
,
0100
0000
0000
0001
0000
0000
0100
0000
0001
0000
0010
0000
0100
0000
0000
0000
,
1000
0000
0000
0010
0000
0000
0100
0000
0001
0000
1000
0000
0001
0000
1000
0000
,
0100
0010
0002
0000
0103
0100
0002
0000
,
1003
0000
0001
0000
1000
1000
0100
0010
,
0001
0000
1000
0000
0010
0010
0100
0001
,
1000
0000
0001
0000
0100
0100
0001
0010
,
0100
0000
1000
0001
2000
0000
3002
0000
,
0103
0000
0001
0000
0010
0100
1000
0001
,
0200
0000
0301
0100
0010
1000
0100
1000
,
0001
0000
0100
0001
0010
0100
0010
0001
,
1000
0000
0010
1000
0002
0000
0203
0000
,
0301
0000
1000
0000
0001
1000
0001
1000
,
0010
0100
0002
0000
0103
0000
0001
0010
,
0100
0010
0001
1000
0001
1000
0010
0100
,
0010
1000
0200
0000
0310
0000
0100
0000
,
0010
0000
0001
0000
1000
0100
1000
0001
,
0100
0010
2000
0000
3001
0000
1000
0001
,
1000
0010
0100
0001
0010
0001
0010
0001
,
2000
3200
0310
0000
,
1000
0000
0100
0000
1000
0001
0000
0100
0000
0100
0000
0001
0010
0000
0100
0000
,
1000
0000
0000
0000
0001
0000
0000
0100
0000
0001
0000
0100
0010
0000
1000
0000
,
0200
0000
0000
0000
0310
0000
0000
0100
0000
1000
0000
0001
0100
0000
0010
0000
,
1000
0000
0001
1000
0002
0000
0000
0000
1003
0000
1000
0000
0002
0000
0000
0000
,
0103
0000
0000
0000
0001
0000
0000
0010
0000
0100
0000
0010
0001
0000
1000
0000
,
0010
0000
0000
0000
2000
0000
0000
3100
0000
0010
0000
0001
0100
0000
0001
0000
,
2000
0000
0000
0000
3010
1000
0000
0001
0000
0010
0000
0100
1000
0000
0001
0000
,
0000
0000
0100
0001
0200
0000
0000
0000
0301
0000
0001
0000
0200
0000
0000
0000
,
0301
0000
0000
0010
0000
0000
0100
0000
1100
0000
1000
0000
1100
0000
1000
0000
,
0001
0000
0000
0100
0000
0000
0001
0000
1000
0000
0010
0000
0100
0000
0000
0000
,
0001
0000
0000
0010
0000
0000
0100
0000
1100
0000
1000
0000
1100
0000
1000
0000
,
0000
0000
0001
0100
0002
0000
0000
0003
0100
0000
0100
0000
0010
0000
0000
0000
,
1000
0000
0000
0100
0000
0000
0010
0000
0110
0000
0100
0000
0110
0000
0100
0000
,
0010
0000
0000
0001
0000
0000
0010
0000
0001
0000
1000
0000
0010
0000
0000
0000
,
1000
0000
0000
0100
0000
0000
1000
0000
1001
0000
1000
0000
1001
0000
1000
0000
,
0000
0000
0001
0100
0002
0000
0000
0000
0103
0000
0100
0000
0002
0000
0000
0000
,
0003
0000
0000
0000
;

//---------------dance-single - ----------------
#NOTEDATA:;
#CHARTNAME:;
#STEPSTYPE:dance-single;
#DESCRIPTION:;
#CHARTSTYLE:;
#DIFFICULTY:Easy;
#METER:4;
#RADARVALUES:0.295215,0.315635,0.000000,0.007302,0.000000,283.000000,283.000000,0.000000,1.000000,0.000000,0.000000,0.000000,0.000000,0.000000,0.295215,0.315635,0.000000,0.007302,0.000000,283.000000,283.000000,0.000000,1.000000,0.000000,0.000000,0.000000,0.000000,0.000000;
#CREDIT:Musey;
#NOTES:
0000
0000
0000
0000
,
0000
0000
0000
0000
,
0000
0000
0000
0000
1000
0001
0100
0000
,
0001
0000
0100
0000
0001
0010
0100
0000
,
1000
0000
0001
0000
1000
0010
0100
0000
,
0001
1000
0001
0001
,
1000
0000
1000
0000
0100
0010
0001
0000
,
0100
0000
0001
0000
1000
0010
0100
0000
,
0001
0000
1000
0000
0001
0010
0100
0000
,
1000
0001
1000
1000
,
0010
0000
0100
0000
0001
0100
0010
0000
,
1000
1000
0001
0001
,
0100
0000
0010
0000
1000
0100
0010
0000
,
0100
0100
1000
0000
,
0001
0000
0001
0000
0100
0000
0010
1000
,
0100
1000
0001
0100
,
0010
0010
1000
1000
,
0100
1000
0001
0000
,
0100
0000
0001
0000
0100
0010
1000
0000
,
0001
0000
0010
0000
0100
1000
0001
1000
,
0001
0000
0100
0000
0010
0100
0001
0000
,
0010
0100
0010
0100
,
1000
0000
1000
0000
0001
0100
0010
0000
,
1000
0000
0001
0000
0100
0000
0001
0010
,
0100
1000
0001
1000
,
0010
0100
0001
0000
0100
0000
0100
0000
,
0001
1000
0001
0000
0010
0100
1000
0000
,
0001
0000
0001
0000
1000
0010
0100
0000
,
0001
0000
1000
0000
0001
0010
0100
0000
,
1000
1000
0001
0001
,
0100
0100
0010
0010
,
1000
0000
1000
0000
0100
0010
0001
0000
,
1000
0000
1000
0000
0001
0100
0010
0000
,
1000
1000
0001
0010
,
0100
0000
0100
0000
0010
0100
1000
0000
,
0001
0000
0001
0100
0010
0000
0100
0000
,
0100
0000
0001
1000
0100
0000
0010
0000
,
0010
0001
1000
1000
,
0001
0000
0001
0000
0100
0010
1000
0000
,
0001
0001
0010
0010
,
0001
0000
0001
0000
1000
0100
0010
0000
,
0001
0100
0001
0000
,
1000
0000
1000
0000
0001
1000
0010
0000
,
0100
0100
0001
0001
,
1000
0100
0010
0000
0001
1000
0010
0000
,
1000
1000
0001
0000
,
0100
0000
0001
0000
1000
0010
0100
0000
,
0001
0000
1000
0000
0100
0000
0010
0001
,
1000
0000
0010
0000
1000
0001
0100
0000
,
0010
0100
0010
0100
,
0001
0000
1000
0000
0100
0010
0001
0000
,
1000
0000
0010
0000
1000
0001
0100
0000
,
0001
0000
0010
0000
0100
1000
0001
0000
,
1000
1000
0001
0001
,
0100
0001
0100
0000
0001
0010
0001
0000
,
1000
0000
1000
0000
0100
0010
0001
0000
,
1000
0001
1000
0000
0010
0100
0001
0000
,
1000
0000
1000
0000
0100
0010
0001
0000
,
1000
0001
1000
0001
0100
0000
0100
0000
,
0001
0010
0001
0010
0100
0000
0100
0000
,
1000
0100
1000
0100
1000
0000
1000
0000
,
0001
0100
0020
0000
0100
0000
0130
0000
;

//---------------dance-single - ----------------
#NOTEDATA:;
#CHARTNAME:;
#STEPSTYPE:dance-single;
#DESCRIPTION:;
#CHARTSTYLE:;
#DIFFICULTY:Beginner;
#METER:2;
#RADARVALUES:0.150216,0.202908,0.000000,0.000000,0.000000,144.000000,144.000000,0.000000,0.000000,0.000000,0.000000,0.000000,0.000000,0.000000,0.150216,0.202908,0.000000,0.000000,0.000000,144.000000,144.000000,0.000000,0.000000,0.000000,0.000000,0.000000,0.000000,0.000000;
#CREDIT:Musey;
#NOTES:
0000
0000
0000
0000
,
0000
0000
0000
0000
,
0000
0000
1000
0000
,
0001
0000
0010
0000
,
0001
0000
1000
0000
,
0001
0000
0010
0000
,
1000
0000
0001
0000
,
0001
0000
1000
0000
,
0010
0000
1000
0000
,
0100
0000
1000
0000
,
0001
0000
0001
0000
,
1000
0000
1000
0000
,
0010
0000
0010
0000
,
1000
0000
0000
0000
,
0001
0000
0001
0000
,
1000
0000
1000
0000
,
0010
0000
0010
0000
,
1000
0000
1000
0000
,
0001
0000
0001
0000
,
1000
0000
0010
0000
,
1000
0000
0001
0000
,
0100
0000
0100
0000
,
0001
0000
0001
0000
,
1000
0000
1000
0000
,
0010
0000
0010
0000
,
1000
0000
1000
0000
,
0001
0001
0001
0001
,
1000
0000
1000
0000
,
0010
0010
0010
0010
,
1000
0000
1000
0000
,
0001
0000
1000
0000
,
0001
0000
0100
0000
,
0001
0000
1000
0000
,
0010
0000
1000
0000
,
1000
0000
0001
0000
,
0001
0000
1000
0000
,
1000
0000
0010
0000
,
1000
0000
0001
0000
,
1000
0000
0001
0001
,
1000
0000
1000
0000
,
0010
1000
0010
0000
,
1000
1000
0001
0000
,
0100
0000
0100
0000
,
0001
1000
0001
0000
,
0010
0000
0001
0000
,
0100
0000
0100
0000
,
0001
0000
0001
0000
,
1000
0000
0001
1000
,
0010
0000
0010
0000
,
1000
0000
1000
0000
,
0001
0000
0001
0000
,
0100
0000
0001
0100
,
0001
0000
1000
0000
,
0010
0000
1000
0000
,
0001
1000
0001
0001
,
1000
0010
1000
1000
,
0001
1000
0010
0010
,
1000
0100
0010
0001
,
0010
0001
0010
0010
,
0100
1000
0001
0001
,
1000
0010
1000
1000
,
0001
0001
0001
0001
;
