#VERSION:0.83;
#TITLE:-RotaVirus;
#SUBTITLE:;
#ARTIST:ata;
#TITLETRANSLIT:;
#SUBTITLETRANSLIT:;
#ARTISTTRANSLIT:;
#GENRE:;
#ORIGIN:;
#CREDIT:;
#BANNER:bn.png;
#BACKGROUND:bg.png;
#PREVIEWVID:;
#JACKET:jacket.png;
#CDIMAGE:;
#DISCIMAGE:;
#LYRICSPATH:;
#CDTITLE:;
#MUSIC:audio.mp3;
#OFFSET:-0.079000;
#SAMPLESTART:94.777443;
#SAMPLELENGTH:14.999999;
#SELECTABLE:YES;
#BPMS:0.000=190.000;
#STOPS:;
#DELAYS:;
#WARPS:;
#TIMESIGNATURES:0.000=4=4;
#TICKCOUNTS:0.000=4;
#COMBOS:0.000=1;
#SPEEDS:0.000=1.000=0.000=0,
208.000=0.500=0.000=0,
256.000=1.000=16.000=0;
#SCROLLS:0.000=1.000;
#FAKES:;
#LABELS:0.000=Song Start;
#BGCHANGES:;
#KEYSOUNDS:;
#ATTACKS:
;

//---------------dance-single - ----------------
#NOTEDATA:;
#CHARTNAME:;
#STEPSTYPE:dance-single;
#DESCRIPTION:;
#CHARTSTYLE:Rajeious's Chart;
#DIFFICULTY:Challenge;
#METER:17;
#RADARVALUES:0.806592,1.171337,0.474466,0.134432,0.664252,714.000000,654.000000,60.000000,17.000000,0.000000,0.000000,0.000000,0.000000,0.000000,0.806592,1.171337,0.474466,0.134432,0.664252,714.000000,654.000000,60.000000,17.000000,0.000000,0.000000,0.000000,0.000000,0.000000;
#CREDIT:Rajeious's Chart;
#NOTES:
0000
0000
0000
0000
,
0000
0000
0000
0000
,
0000
0000
0000
0000
,
0000
0000
0000
0000
,
0000
0000
0000
0000
,
0000
0000
0000
0000
,
0000
0000
0000
0000
,
0000
0000
0000
0000
,
0010
1000
0001
1000
0100
1000
0010
0100
,
0100
0000
0001
0000
1000
0000
0001
0000
0100
0000
0001
1000
0001
0000
0100
0000
,
0100
0010
1000
0010
0100
0010
1000
0001
,
0010
0000
0001
0010
0100
0010
0100
0000
1000
0000
0001
0000
1010
0000
0000
0000
,
1000
0100
0001
0100
1000
0010
0001
0010
,
1000
0000
0010
0100
0010
0000
1000
0000
0001
0100
0001
0100
0010
0000
1000
0000
,
0100
0010
0001
1000
0010
0001
0010
1000
,
0001
0000
0100
0000
0101
0000
0000
0000
1000
0000
0010
0000
1000
0001
1000
0001
,
1000
0100
0001
0100
0020
0000
0001
0000
,
0130
1000
0100
0000
0010
0001
0010
0000
0001
1000
0100
1000
0001
0000
0100
0000
,
0010
0100
0001
1000
0100
0010
0100
1000
0001
0000
0001
0000
0010
0000
0010
0000
,
0001
0010
0100
0000
1000
0100
0010
0000
0100
1000
0001
0100
0010
1000
0010
1000
,
0010
0000
0100
0000
0001
0000
1000
0000
1000
0100
0010
0001
2000
0000
0010
0000
,
3010
0100
0001
0000
1000
0010
0100
0000
0001
0010
0001
0010
0100
1000
0001
0000
,
1000
0010
0100
0010
2000
0000
0001
0000
3001
0000
0100
0000
0010
1000
0001
0000
,
0010
0000
0010
0000
0100
0010
0001
0000
2000
0000
0000
0000
3010
0000
0100
0000
,
0110
0000
0000
0000
0000
0000
0000
0000
0110
0000
0000
0000
0000
0000
0000
0000
0001
0010
0000
0000
0001
0010
0000
0000
0001
0000
1000
0000
0010
0000
1000
0000
,
0001
0100
0000
0000
0001
0100
0000
0000
0001
0100
0000
0000
0001
0100
0000
0000
0001
0000
0010
0000
0100
0000
1000
0000
0001
0000
1000
0000
0001
0000
0000
0000
,
1000
0100
0010
0000
0001
0010
0100
0000
1000
0100
1000
0100
0010
0001
0010
0001
,
1000
0000
0101
0101
0010
0000
1000
0000
,
0011
0000
0000
0000
0000
0000
0000
0000
1100
0000
0000
0000
0000
0000
0000
0000
0001
0010
0000
0000
0001
0010
0000
0000
0001
0000
1000
0000
0100
0000
0000
0000
,
1000
0000
1000
0000
0010
0000
0010
0000
1000
0001
0100
0010
0001
0010
0100
0001
,
1000
0001
0100
0010
1000
0001
0100
0010
1000
0001
1000
0001
1000
0001
1000
0001
,
1000
0000
1010
1010
0001
0000
1000
0000
,
1001
0001
0100
0001
1000
0001
0100
0001
,
1000
1001
0100
0001
1000
0001
0100
0001
,
0010
0011
1000
0001
0100
0101
1000
0001
,
0110
0000
0000
0000
0000
0000
0000
0000
0001
0010
0000
0000
0001
0010
0000
0000
0001
0000
0000
0000
0000
0000
0000
0000
0110
0000
0000
0000
0000
0000
0000
0000
,
1001
1000
0010
1000
0001
1000
0010
1000
,
0001
1001
0010
1000
0001
1000
0010
1000
,
0100
1100
0001
1000
0010
1010
0001
1000
,
0110
0000
0000
0000
0000
0000
0000
0000
1000
0010
0000
0000
1000
0010
0000
0000
0100
0000
0000
0000
0000
0000
0000
0000
0011
0000
0000
0000
0000
0000
0000
0000
,
0002
0000
0000
0000
,
1003
0100
1000
0100
1000
0100
1000
0100
1000
0000
0000
0000
0000
0000
0000
0000
,
0001
0000
0010
0000
0100
0000
0010
0000
0001
0000
0010
0000
0100
0000
0010
0001
,
1000
0010
0100
0010
1000
0010
0110
0000
,
0001
0000
0010
0000
0001
0000
1000
0100
0010
0000
0100
0000
1000
0000
0001
0000
,
1000
0010
1000
0000
0001
0010
0100
1000
0100
1000
0001
1000
0001
0000
0100
0000
,
0010
0000
1000
0000
0100
0010
0001
0010
0001
0000
1000
0000
0100
0000
1000
0000
,
0001
0010
1000
0001
0100
1000
0001
0100
0010
0110
0000
0000
,
1000
0100
1000
0001
0010
0001
1000
1000
0001
1000
0100
0010
,
0001
0100
0010
1000
0010
0100
0001
0001
1000
0001
0010
0100
,
1000
0001
0010
0001
1000
0100
1000
0001
0100
0010
0000
0000
,
0100
0010
0100
0010
0100
0010
0100
0010
0100
0010
0100
0010
0100
0000
0000
0000
,
1002
0000
0000
0000
,
0000
0000
0000
0000
,
0000
0000
0000
0000
,
0000
0000
0000
0000
0000
0000
0000
0000
0000
0000
0000
0000
0000
0000
0000
0000
0000
0000
0000
0000
0000
0000
0000
0000
0000
0000
0000
0000
0000
0000
0000
0000
0000
0000
0000
0000
0000
0000
0000
0000
0000
0000
0000
0000
0000
0000
0000
0000
0000
0000
0000
0000
0000
0000
0000
0000
0000
0000
0000
0000
0000
0000
0000
0000
0000
0000
0000
0000
0000
0000
0000
0000
0000
0000
0000
0000
0000
0000
0000
0000
0000
0000
0000
0000
0000
0000
0000
0000
0000
0000
0000
0000
0000
0000
0000
0000
0000
0000
0000
0000
0000
0000
0000
0000
0000
0000
0000
0000
0000
0000
0000
0000
0000
0000
0000
0000
0000
0000
0000
0000
0000
0000
0000
0000
0000
0000
0000
0000
0000
0000
0000
0000
0000
0000
0000
0000
0000
0000
0000
0000
0000
0000
0000
0000
0000
0000
0000
0000
0000
0000
0000
0000
0000
0000
0000
0000
0000
0000
0000
0000
0000
0000
0000
0000
0000
0000
0000
0000
0000
0000
0000
0000
0000
0000
0000
0000
0000
0000
0000
0000
0000
0000
0000
0000
0000
0000
0000
0000
0000
0000
0000
0003
,
0201
0000
0000
0000
,
0000
0000
0000
0000
,
0000
0000
0000
0000
,
0000
0000
0000
0000
0000
0000
0000
0000
0000
0000
0000
0000
0000
0000
0000
0000
0000
0000
0000
0000
0000
0000
0000
0000
0000
0000
0000
0000
0000
0000
0000
0000
0000
0000
0000
0000
0000
0000
0000
0000
0000
0000
0000
0000
0000
0000
0000
0000
0000
0000
0000
0000
0000
0000
0000
0000
0000
0000
0000
0000
0000
0000
0000
0300
,
0120
0000
0000
0000
,
0000
0000
0000
0000
0000
0000
0000
0000
0000
0000
0000
0000
0000
0000
0000
0000
0000
0000
0000
0000
0000
0000
0000
0000
0000
0000
0000
0000
0000
0000
0000
0000
0000
0000
0000
0000
0000
0000
0000
0000
0000
0000
0000
0000
0000
0000
0000
0000
0000
0000
0000
0000
0000
0000
0000
0000
0000
0000
0000
0000
0000
0000
0000
0000
0000
0000
0000
0000
0000
0000
0000
0000
0000
0000
0000
0000
0000
0000
0000
0000
0000
0000
0000
0000
0000
0000
0000
0000
0000
0000
0000
0000
0000
0000
0000
0000
0000
0000
0000
0000
0000
0000
0000
0000
0000
0000
0000
0000
0000
0000
0000
0000
0000
0000
0000
0000
0000
0000
0000
0000
0000
0000
0000
0000
0000
0000
0000
0000
0000
0000
0000
0000
0000
0000
0000
0000
0000
0000
0000
0000
0000
0000
0000
0000
0000
0000
0000
0000
0000
0000
0000
0000
0000
0000
0000
0000
0000
0000
0000
0000
0000
0000
0000
0000
0000
0000
0000
0000
0000
0000
0000
0000
0000
0000
0000
0000
0000
0000
0000
0000
0000
0000
0000
0000
0000
0000
0000
0000
0000
0000
0000
0030
,
2010
0000
0000
0000
,
0000
0000
0000
0000
0000
0000
0000
0000
0000
0000
0000
0000
0000
0000
0000
0000
0000
0000
0000
0000
0000
0000
0000
0000
0000
0000
0000
0000
0000
0000
0000
0000
0000
0000
0000
0000
0000
0000
0000
0000
0000
0000
0000
0000
0000
0000
0000
0000
0000
0000
0000
0000
0000
0000
0000
0000
0000
0000
0000
0000
0000
0000
0000
0000
0000
0000
0000
0000
0000
0000
0000
0000
0000
0000
0000
0000
0000
0000
0000
0000
0000
0000
0000
0000
0000
0000
0000
0000
0000
0000
0000
0000
0000
0000
0000
0000
0000
0000
0000
0000
0000
0000
0000
0000
0000
0000
0000
0000
0000
0000
0000
0000
0000
0000
0000
0000
0000
0000
0000
0000
0000
0000
0000
0000
0000
0000
0000
0000
0000
0000
0000
0000
0000
0000
0000
0000
0000
0000
0000
0000
0000
0000
0000
0000
0000
0000
0000
0000
0000
0000
0000
0000
0000
0000
0000
0000
0000
0000
0000
0000
0000
0000
0000
0000
0000
0000
0000
0000
0000
0000
0000
0000
0000
0000
0000
0000
0000
0000
0000
0000
0000
0000
0000
0000
0000
0000
0000
0000
0000
0000
0000
3000
,
1200
0000
0000
0000
,
0000
0000
0000
0000
0000
0000
0000
0000
0000
0000
0000
0000
0000
0000
0000
0000
0000
0000
0000
0000
0000
0000
0000
0000
0000
0000
0000
0000
0000
0000
0000
0000
0000
0000
0000
0000
0000
0000
0000
0000
0000
0000
0000
0000
0000
0000
0000
0000
0000
0000
0000
0000
0000
0000
0000
0000
0000
0000
0000
0000
0000
0000
0000
0000
0000
0000
0000
0000
0000
0000
0000
0000
0000
0000
0000
0000
0000
0000
0000
0000
0000
0000
0000
0000
0000
0000
0000
0000
0000
0000
0000
0000
0000
0000
0000
0000
0000
0000
0000
0000
0000
0000
0000
0000
0000
0000
0000
0000
0000
0000
0000
0000
0000
0000
0000
0000
0000
0000
0000
0000
0000
0000
0000
0000
0000
0000
0000
0000
0000
0000
0000
0000
0000
0000
0000
0000
0000
0000
0000
0000
0000
0000
0000
0000
0000
0000
0000
0000
0000
0000
0000
0000
0000
0000
0000
0000
0000
0000
0000
0000
0000
0000
0000
0000
0000
0000
0000
0000
0000
0000
0000
0000
0000
0000
0000
0000
0000
0000
0000
0000
0000
0000
0000
0000
0000
0000
0000
0000
0000
0000
0300
0000
,
0120
0000
0000
0000
0000
0000
0000
0000
0000
0000
0000
0000
0000
0000
0000
0000
0000
0000
0000
0000
0000
0000
0000
0000
0000
0000
0000
0000
0000
0000
0000
0000
0000
0000
0000
0000
0000
0000
0000
0000
0000
0000
0000
0000
0000
0000
0000
0000
0000
0000
0000
0000
0000
0000
0000
0000
0000
0000
0000
0000
0000
0000
0000
0000
0000
0000
0000
0000
0000
0000
0000
0000
0000
0000
0000
0000
0000
0000
0000
0000
0000
0000
0000
0000
0000
0000
0000
0000
0000
0000
0000
0000
0000
0000
0000
0000
0000
0000
0000
0000
0000
0000
0000
0000
0000
0000
0000
0000
0000
0000
0000
0000
0000
0000
0000
0000
0000
0000
0000
0000
0000
0000
0000
0000
0000
0000
0000
0000
0000
0000
0000
0000
0000
0000
0000
0000
0000
0000
0000
0000
0000
0000
0000
0000
0000
0000
0000
0000
0000
0000
0000
0000
0000
0000
0000
0000
0000
0000
0000
0000
0000
0000
0000
0000
0000
0000
0000
0000
0000
0000
0000
0000
0000
0000
0000
0000
0000
0000
0000
0000
0000
0000
0000
0000
0000
0000
0000
0000
0000
0000
0000
0030
,
0012
0000
0000
0000
0000
0000
0000
0000
0000
0000
0000
0000
0000
0000
0000
0000
0000
0000
0000
0000
0000
0000
0000
0000
0000
0000
0000
0000
0000
0000
0000
0000
0000
0000
0000
0000
0000
0000
0000
0000
0000
0000
0000
0000
0000
0000
0000
0000
0000
0000
0000
0000
0000
0000
0000
0000
0000
0000
0000
0000
0000
0000
0000
0000
0000
0000
0000
0000
0000
0000
0000
0000
0000
0000
0000
0000
0000
0000
0000
0000
0000
0000
0000
0000
0000
0000
0000
0000
0000
0000
0000
0000
0000
0000
0000
0000
0000
0000
0000
0000
0000
0000
0000
0000
0000
0000
0000
0000
0000
0000
0000
0000
0000
0000
0000
0000
0000
0000
0000
0000
0000
0000
0000
0000
0000
0000
0000
0000
0000
0000
0000
0000
0000
0000
0000
0000
0000
0000
0000
0000
0000
0000
0000
0000
0000
0000
0000
0000
0000
0000
0000
0000
0000
0000
0000
0000
0000
0000
0000
0000
0000
0000
0000
0000
0000
0000
0000
0000
0000
0000
0000
0000
0000
0000
0000
0000
0000
0000
0000
0000
0000
0000
0000
0000
0000
0000
0000
0000
0000
0000
0000
0003
,
1001
0000
0000
0000
1000
0100
0010
0000
0001
0000
1000
0000
0001
0000
1000
0000
,
0010
0000
0100
0000
0010
0100
0001
0000
1000
0000
0010
0000
1000
0000
0010
0000
,
0001
0000
0010
0000
0100
0001
1000
0000
0010
0000
0100
0000
0010
0000
0100
0000
,
0001
0000
0010
0000
0001
1000
0100
0000
1000
0000
0001
0000
1000
0000
0001
0000
,
0101
0000
0100
0000
0010
1000
0001
0000
1001
0000
1000
0000
0010
0000
0100
0000
,
0011
0000
0001
0000
1000
0010
0100
0000
0110
0000
0010
0000
1010
0000
1000
0000
,
0001
0010
0001
0010
0100
1000
0100
1000
0001
0100
0010
1000
0001
1000
0001
1000
,
0001
0000
0000
0110
0000
0000
1001
0000
0101
0000
0000
0000
1100
0000
0000
0000
,
0010
0000
1000
0000
0001
1000
0010
0100
0001
0000
1000
0000
0002
0000
0000
0000
,
0013
0000
0100
1000
0100
0010
0001
0000
1000
0000
0010
0000
0100
0010
1000
0000
,
0001
0000
0000
0000
0000
0000
0000
0000
0000
0000
0000
0000
0000
0000
0000
0000
0000
0000
0000
0000
0000
0000
0000
0000
0010
0000
0000
0000
0000
0000
0000
0000
0000
0000
0000
0000
0000
0000
0000
0000
0000
0000
0000
0000
0000
0000
0000
0000
0001
0000
0000
0000
0000
0000
0000
0000
0000
0000
0000
0000
1000
0000
0000
0000
0000
0000
0000
0000
0000
0000
0000
0000
0100
0000
0000
0000
0000
0000
0000
0000
0000
0000
0000
0000
0010
0000
0000
0000
0000
0000
0000
0000
0000
0000
0000
0000
0100
0000
0000
0000
0000
0000
0000
0000
0000
0000
0000
0000
0000
0000
0000
0000
0000
0000
0000
0000
0000
0000
0000
0000
1000
0000
0000
0000
0000
0000
0000
0000
0000
0000
0000
0000
0000
0000
0000
0000
0000
0000
0000
0000
0000
0000
0000
0000
0002
0000
0000
0000
0000
0000
0000
0000
0000
0000
0000
0000
0000
0000
0000
0000
0000
0000
0000
0000
0000
0000
0000
0000
0000
0000
0000
0000
0000
0000
0000
0000
0000
0000
0000
0000
0000
0000
0000
0000
0000
0000
0000
0000
0000
0000
0000
0003
,
1001
0100
1001
0100
0110
0110
0000
0000
,
1000
0000
0100
0000
0010
0100
0010
0001
1000
0000
0010
0000
0200
0000
0000
0000
,
0301
0000
0000
0000
0000
0000
0000
0000
0000
0000
0000
0000
0000
0000
0000
0000
0000
0000
0000
0000
0000
0000
0000
0000
0010
0000
0000
0000
0000
0000
0000
0000
0000
0000
0000
0000
0000
0000
0000
0000
0000
0000
0000
0000
0000
0000
0000
0000
0100
0000
0000
0000
0000
0000
0000
0000
0000
0000
0000
0000
0010
0000
0000
0000
0000
0000
0000
0000
0000
0000
0000
0000
0100
0000
0000
0000
0000
0000
0000
0000
0000
0000
0000
0000
1000
0000
0000
0000
0000
0000
0000
0000
0000
0000
0000
0000
0001
0000
0000
0000
0000
0000
0000
0000
0000
0000
0000
0000
0000
0000
0000
0000
0000
0000
0000
0000
0000
0000
0000
0000
0100
0000
0000
0000
0000
0000
0000
0000
0000
0000
0000
0000
0000
0000
0000
0000
0000
0000
0000
0000
0000
0000
0000
0000
0020
0000
0000
0000
0000
0000
0000
0000
0000
0000
0000
0000
0000
0000
0000
0000
0000
0000
0000
0000
0000
0000
0000
0000
0000
0000
0000
0000
0000
0000
0000
0000
0000
0000
0000
0000
0000
0000
0000
0000
0000
0000
0000
0000
0000
0000
0000
0030
,
0110
0000
0100
0000
0001
0100
0001
0100
0010
0000
1000
0000
0010
0100
1000
0000
,
0100
0000
0110
0000
0110
0000
0000
0000
0001
1000
0001
1000
0001
0000
0000
0000
,
0010
0000
0100
0000
0001
1000
0100
1000
0001
0000
0010
0000
0100
1000
0100
0010
,
0001
0000
1000
0000
0010
0100
0001
1000
0100
0000
1000
0000
0010
0000
1000
0000
,
1100
0100
0110
0010
0011
0001
1001
1000
,
1010
0000
0000
0000
0101
0000
0000
0000
1001
0000
1000
0000
0010
0100
0010
0100
,
0010
0000
1000
0000
0100
0000
1000
0000
1001
0000
0001
0000
0100
0010
0100
0010
,
1000
0000
0001
0000
0100
0000
0010
0000
1010
0000
1000
0000
0001
0100
0001
0100
,
0001
1000
0010
0100
0001
1000
0010
0100
0001
1000
0001
1000
0001
0010
0100
1000
,
0100
0000
1000
0001
1000
0000
0010
0000
0110
0000
0000
0000
1001
0000
0000
0000
,
0102
0000
0000
0000
,
0000
0000
0000
0000
,
0000
0000
0000
0000
,
0000
0000
0000
0000
,
0000
0000
0000
0000
,
0000
0000
0000
0000
,
0000
0000
0000
0003
;

//---------------dance-single - ----------------
#NOTEDATA:;
#CHARTNAME:;
#STEPSTYPE:dance-single;
#DESCRIPTION:;
#CHARTSTYLE:Rajeious's Chart;
#DIFFICULTY:Hard;
#METER:14;
#RADARVALUES:0.610027,0.800266,0.419111,0.102801,0.268864,540.000000,487.000000,53.000000,13.000000,0.000000,0.000000,0.000000,0.000000,0.000000,0.610027,0.800266,0.419111,0.102801,0.268864,540.000000,487.000000,53.000000,13.000000,0.000000,0.000000,0.000000,0.000000,0.000000;
#CREDIT:Rajeious's Chart;
#NOTES:
// measure 0
0000
0000
0000
0000
,  // measure 1
0000
0000
0000
0000
,  // measure 2
0000
0000
0000
0000
,  // measure 3
0000
0000
0000
0000
,  // measure 4
0000
0000
0000
0000
,  // measure 5
0000
0000
0000
0000
,  // measure 6
0000
0000
0000
0000
,  // measure 7
0000
0000
0000
0000
,  // measure 8
1000
0100
0010
0100
1000
0010
0100
0000
,  // measure 9
0001
1000
0100
0010
0001
0000
1000
0010
,  // measure 10
0100
0001
1000
0100
0010
0001
1000
0000
,  // measure 11
0100
0000
0000
0000
1000
0001
1000
0000
0010
0000
0010
0000
0100
0000
0000
0000
,  // measure 12
0001
1000
0100
1000
0100
1000
0010
0100
,  // measure 13
0001
1000
0100
0010
0001
1000
0100
1000
,  // measure 14
0010
0010
1000
0000
0100
0010
0001
0000
,  // measure 15
0001
0000
1000
0000
0010
0000
0000
0000
0010
0000
1000
0000
0100
1000
0001
0000
,  // measure 16
0100
0000
1010
0000
1100
0000
0100
1000
,  // measure 17
0010
0000
0100
0000
0100
0000
0001
0000
0010
0100
0010
0000
0001
0000
1000
0000
,  // measure 18
0010
0100
0001
0010
0100
0000
1100
0000
,  // measure 19
0001
1000
0001
0000
1000
0000
0100
0000
1000
0010
1000
0000
0010
0000
0100
0000
,  // measure 20
0001
0010
0001
0000
1100
0000
1001
0000
,  // measure 21
0010
1000
0010
0000
1000
0000
0100
0000
0010
0001
0010
0000
0001
0000
1000
0000
,  // measure 22
0100
1000
0010
0100
0001
0000
0001
1000
,  // measure 23
0100
0000
1000
0000
0001
0010
1000
0010
,  // measure 24
0001
0000
0100
0000
0010
0010
1000
0000
,  // measure 25
0001
0000
0001
0000
1000
0000
1000
0000
0001
0010
0001
0010
0001
0000
0000
0000
,  // measure 26
1100
0000
1010
0000
0001
1000
0010
0100
,  // measure 27
0101
0000
1000
0001
1001
0000
0100
0000
,  // measure 28
0011
0000
1001
0000
0100
0010
1000
0100
,  // measure 29
0010
0001
1000
0001
1000
0100
1000
0100
,  // measure 30
1000
0000
0010
0000
0100
0000
0010
0000
0100
0000
0001
0000
1000
0001
1000
0001
,  // measure 31
1000
0000
0010
0100
0010
0000
1100
0000
,  // measure 32
1002
0103
1002
0103
,  // measure 33
1001
1000
0100
0000
1002
0000
0103
0000
,  // measure 34
1010
0000
0110
0000
0011
0000
1000
0001
,  // measure 35
1001
0000
0000
0000
0010
0100
0010
0000
1000
0000
0000
0000
0110
0000
0000
0000
,  // measure 36
2001
3010
2001
3010
,  // measure 37
1001
0001
0010
0000
2001
0000
3010
0000
,  // measure 38
0101
0000
0110
0000
1100
0000
0001
1000
,  // measure 39
1001
0000
0000
0000
0100
0010
0100
0000
0001
0000
0000
0000
1001
0000
0000
0000
,  // measure 40
2020
0000
0000
0000
,  // measure 41
0000
0000
3030
0000
,  // measure 42
0001
0000
0010
0000
0100
0000
0010
0000
0001
0000
0010
0000
0100
0000
0010
0001
,  // measure 43
1000
0010
0100
0010
1000
0010
0110
0000
,  // measure 44
0001
1000
0001
1000
0100
0010
0001
0000
,  // measure 45
1000
0001
0100
0010
0001
0010
0100
0000
,  // measure 46
0010
1000
0100
0010
0001
1000
0010
1000
,  // measure 47
0001
0010
0100
1000
0100
0010
0001
1000
0001
2000
0000
0000
,  // measure 48
3010
0100
0001
1000
0100
1000
0002
0000
0000
1003
0100
1000
,  // measure 49
0100
0010
0001
0010
0001
1000
0020
0000
0000
0130
0001
1000
,  // measure 50
0001
0100
0010
1000
0100
0010
0002
0000
0000
2003
0000
0000
,  // measure 51
3010
0100
0010
0100
0010
0100
0010
0000
,  // measure 52
0110
0000
0000
0000
,  // measure 53
0000
0000
0000
0000
,  // measure 54
0000
0000
0000
0000
,  // measure 55
0000
0000
0000
0000
,  // measure 56
1010
0000
0000
0000
,  // measure 57
0000
0000
0000
0000
,  // measure 58
0000
0000
0000
0000
,  // measure 59
0000
0000
0000
0000
,  // measure 60
1100
0000
0000
0000
,  // measure 61
0000
0000
0000
0000
,  // measure 62
0110
0000
0000
0000
,  // measure 63
0000
0000
0000
0000
,  // measure 64
0011
0000
0000
0000
,  // measure 65
0000
0000
0000
0000
,  // measure 66
1100
0000
0000
0000
,  // measure 67
1001
0000
0000
0000
,  // measure 68
0001
1000
0000
0000
1000
0000
0100
0000
1000
0000
0010
0000
0100
0000
0000
0000
,  // measure 69
1000
0010
0000
0000
1000
0000
0001
0000
0100
0000
0010
0000
0001
0000
0000
0000
,  // measure 70
1000
0001
0000
0000
1000
0000
0010
0000
1000
0000
0100
0000
0010
0000
0001
0000
,  // measure 71
0100
0000
0001
0000
1000
0100
0000
0000
1000
0000
0001
0000
0010
0000
0000
0000
,  // measure 72
0010
0000
0001
0000
0100
0010
0000
0000
1000
0000
0100
0000
1000
0001
0000
0000
,  // measure 73
0001
0000
0100
0000
0010
0100
0000
0000
1000
0000
0001
0000
0100
0001
0000
0000
,  // measure 74
1000
0000
0001
0000
0010
0000
0001
0000
0100
0000
0001
0000
1000
0100
1000
0100
,  // measure 75
1000
0000
0000
0001
0000
0000
0010
0000
0001
0000
0000
0000
0110
0000
0000
0000
,  // measure 76
0001
0000
0010
0000
0100
1000
0000
1000
0001
0000
0100
0000
0010
0000
0000
0000
,  // measure 77
1000
0000
0100
0000
0010
0001
0000
0001
0100
0000
0010
0000
1000
0000
0000
0000
,  // measure 78
0001
0000
0010
0000
0001
0100
0000
0100
0001
0000
1000
0000
0100
0000
0000
0000
,  // measure 79
0010
0000
0011
0000
0101
0101
1000
0000
,  // measure 80
0001
0000
1000
0000
0010
0100
0000
0100
0010
0000
1000
0000
0100
0000
1000
0000
,  // measure 81
0001
0000
0010
0000
0100
1000
0000
1000
0100
0000
0010
0000
0001
0000
0000
0000
,  // measure 82
0101
0010
1000
0000
0110
1000
0001
0000
,  // measure 83
0001
0000
1000
0000
1001
0000
0000
0000
0010
0100
0010
0100
0010
0000
0000
0000
,  // measure 84
1000
0000
0001
0000
0100
0010
0100
0000
0001
0000
1000
0000
0100
0000
1000
0000
,  // measure 85
0100
0000
0010
0000
0001
0010
0100
0000
1000
0000
0010
0000
1000
0000
0001
0000
,  // measure 86
0101
0101
1010
1010
,  // measure 87
0001
0000
0000
0000
0110
0000
0000
0000
1000
0000
1000
0000
0001
0100
0001
0100
,  // measure 88
0001
0000
1000
0000
0100
0000
1000
0010
1000
0000
0001
0000
0010
0000
0100
0010
,  // measure 89
0001
0000
1000
0000
0010
0000
0100
0010
1000
0000
0001
0000
0010
0000
0001
1000
,  // measure 90
0010
0100
0001
1000
0100
1000
0010
0100
,  // measure 91
0001
0000
1000
0100
1000
0000
0010
0000
0100
0000
0000
0000
1001
0000
0000
0000
,  // measure 92
1100
0000
0000
0000
;

//---------------dance-single - ----------------
#NOTEDATA:;
#CHARTNAME:;
#STEPSTYPE:dance-single;
#DESCRIPTION:;
#CHARTSTYLE:Rajeious's Chart;
#DIFFICULTY:Medium;
#METER:11;
#RADARVALUES:0.456391,0.545636,0.300495,0.110709,0.000000,404.000000,366.000000,38.000000,14.000000,0.000000,0.000000,0.000000,0.000000,0.000000,0.456391,0.545636,0.300495,0.110709,0.000000,404.000000,366.000000,38.000000,14.000000,0.000000,0.000000,0.000000,0.000000,0.000000;
#CREDIT:Rajeious's Chart;
#NOTES:
// measure 0
0000
0000
0000
0000
,  // measure 1
0000
0000
0000
0000
,  // measure 2
0000
0000
0000
0000
,  // measure 3
0000
0000
0000
0000
,  // measure 4
0000
0000
0000
0000
,  // measure 5
0000
0000
0000
0000
,  // measure 6
0000
0000
0000
0000
,  // measure 7
0000
0000
0000
0000
,  // measure 8
1000
0000
1000
0000
0010
0000
1000
0010
,  // measure 9
0100
0000
0001
0000
0010
0000
0100
0100
,  // measure 10
1000
0000
0010
0000
0100
0000
0001
1000
,  // measure 11
0002
0000
2003
0000
3010
0100
0010
0000
,  // measure 12
0100
0000
0001
0000
0100
0000
0010
1000
,  // measure 13
0010
0100
0001
0000
0010
0000
0001
0000
,  // measure 14
1000
0010
1000
0000
0001
0010
0001
0000
,  // measure 15
0100
0010
0100
0000
0001
1000
0001
1000
,  // measure 16
0020
1000
0001
0130
,  // measure 17
1000
0001
0010
0001
0200
0000
0310
0000
,  // measure 18
1000
0001
1000
0001
0020
0000
0100
0000
,  // measure 19
0031
1000
0100
0000
1000
0010
0100
0010
,  // measure 20
2000
0001
0100
0010
,  // measure 21
3001
0100
0001
1000
0020
0000
0130
0000
,  // measure 22
0001
1000
0100
0000
1000
0010
0100
0000
,  // measure 23
0001
0000
0010
0000
0100
1000
0100
0000
,  // measure 24
1001
0000
1100
0000
1000
0100
0010
0000
,  // measure 25
0001
0010
0001
0010
0001
0000
0100
0000
,  // measure 26
1001
0000
1010
0000
0100
1000
0100
1000
,  // measure 27
0001
0000
1000
0100
0010
0000
1001
0000
,  // measure 28
1000
0000
0010
0000
1000
0100
1000
0000
,  // measure 29
0001
0010
0100
0010
1000
0000
0001
0000
,  // measure 30
0010
0001
0010
0001
1000
0010
0100
0000
,  // measure 31
1001
0000
0100
0010
0100
0000
0001
0000
,  // measure 32
2000
3001
2000
3010
,  // measure 33
0100
0100
0001
0000
2000
0000
3010
0000
,  // measure 34
0101
1001
1010
0100
,  // measure 35
0101
0000
0010
0100
0010
0000
1001
0000
,  // measure 36
0020
0130
0020
1030
,  // measure 37
0010
0010
0100
0000
0020
0000
1030
0000
,  // measure 38
1010
0110
1001
1000
,  // measure 39
1100
0000
0010
0100
0010
0000
1001
0000
,  // measure 40
0100
0000
0000
0000
,  // measure 41
0000
0000
0000
0000
,  // measure 42
1000
0001
0100
0000
0001
0100
0001
0000
,  // measure 43
1000
0010
0100
0000
0001
1000
0001
0000
,  // measure 44
0001
1000
0000
0001
0100
0010
0000
1000
,  // measure 45
0100
1000
0001
1000
0100
0010
0001
0000
,  // measure 46
1000
1000
0000
0010
0100
0010
0000
1000
,  // measure 47
0001
0010
0100
1100
,  // measure 48
0001
1000
0001
0000
1000
0010
0100
0000
,  // measure 49
0001
1000
0001
0000
0100
0010
0100
0000
,  // measure 50
0001
1000
0100
0000
1000
0001
0100
0000
,  // measure 51
0002
0000
0000
0003
,  // measure 52
0110
0000
0000
0000
,  // measure 53
0000
0000
0000
0000
,  // measure 54
0000
0000
0000
0000
,  // measure 55
0000
0000
0000
0000
,  // measure 56
1001
0000
0000
0000
,  // measure 57
0000
0000
0000
0000
,  // measure 58
0000
0000
0000
0000
,  // measure 59
0000
0000
0000
0000
,  // measure 60
0110
0000
0000
0000
,  // measure 61
0000
0000
0000
0000
,  // measure 62
1100
0000
0000
0000
,  // measure 63
0000
0000
0000
0000
,  // measure 64
0101
0000
0000
0000
,  // measure 65
0000
0000
0000
0000
,  // measure 66
0110
0000
0000
0000
,  // measure 67
0011
0000
0000
0000
,  // measure 68
1100
0000
1000
0000
0010
1000
0010
1000
,  // measure 69
0100
0000
0010
0000
0001
1000
0001
1000
,  // measure 70
0100
0000
1000
0000
0010
0100
0010
1000
,  // measure 71
0001
0000
0010
0000
0100
1000
0100
0000
,  // measure 72
1000
0000
0010
0100
0001
0000
1000
0100
,  // measure 73
0010
0000
0001
1000
0010
0000
1000
0000
,  // measure 74
0100
1000
0100
1000
0100
1000
0100
1000
,  // measure 75
0010
0100
0001
1100
,  // measure 76
0010
0000
1000
0000
0100
0010
0001
0000
,  // measure 77
1000
0000
0110
0000
1000
0001
0010
0001
,  // measure 78
0100
0000
1010
0000
1000
0100
1000
0000
,  // measure 79
0010
0000
0101
0000
1000
0001
1000
0000
,  // measure 80
1010
0000
0010
0000
0100
0010
0100
0001
,  // measure 81
1000
0000
1100
0000
0010
0001
0010
0000
,  // measure 82
0101
0010
1010
0001
,  // measure 83
0001
1000
0001
0000
0010
0001
0010
0000
,  // measure 84
1100
0000
0001
0010
0100
0000
1000
0001
,  // measure 85
0100
0000
0010
1000
0001
0000
0010
0001
,  // measure 86
0100
1010
1001
0110
,  // measure 87
1000
0000
0001
0000
0100
0010
0100
0001
,  // measure 88
1000
0100
0010
0000
0001
0010
0100
0000
,  // measure 89
1000
0001
0100
0000
0010
1000
0001
0000
,  // measure 90
0010
0001
0010
0001
0100
0010
1000
0001
,  // measure 91
0010
0000
0001
0100
0001
0000
0010
0000
,  // measure 92
1001
0000
0000
0000
;

//---------------dance-single - ----------------
#NOTEDATA:;
#CHARTNAME:;
#STEPSTYPE:dance-single;
#DESCRIPTION:;
#CHARTSTYLE:Rajeious's Chart;
#DIFFICULTY:Easy;
#METER:7;
#RADARVALUES:0.310662,0.436509,0.260956,0.173971,0.000000,275.000000,242.000000,33.000000,22.000000,0.000000,0.000000,0.000000,0.000000,0.000000,0.310662,0.436509,0.260956,0.173971,0.000000,275.000000,242.000000,33.000000,22.000000,0.000000,0.000000,0.000000,0.000000,0.000000;
#CREDIT:Rajeious's Chart;
#NOTES:
// measure 0
0000
0000
0000
0000
,  // measure 1
0000
0000
0000
0000
,  // measure 2
0000
0000
0000
0000
,  // measure 3
0000
0000
0000
0000
,  // measure 4
0000
0000
0000
0000
,  // measure 5
0000
0000
0000
0000
,  // measure 6
0000
0000
0000
0000
,  // measure 7
0000
0000
0000
0000
,  // measure 8
1000
0100
0010
0001
,  // measure 9
1000
0010
0100
0001
,  // measure 10
1000
1000
0100
0010
,  // measure 11
0002
1003
0200
1300
,  // measure 12
0010
0100
0001
1000
,  // measure 13
0100
0010
0001
1000
,  // measure 14
0010
0010
1000
1000
,  // measure 15
1100
0000
0101
0000
,  // measure 16
1000
0010
0100
0100
,  // measure 17
0001
0010
0100
0100
,  // measure 18
1000
0001
0100
0010
,  // measure 19
1000
1000
0001
0010
,  // measure 20
0001
0001
1000
0100
,  // measure 21
1000
0010
0100
0001
,  // measure 22
1000
0001
1000
0100
,  // measure 23
1010
0000
0101
0000
,  // measure 24
1000
1000
0010
0100
,  // measure 25
0001
0001
1000
0100
,  // measure 26
0010
0001
1000
0010
,  // measure 27
1010
0000
0000
0000
,  // measure 28
0001
0100
0010
1000
,  // measure 29
1000
0010
0100
0001
,  // measure 30
0010
0001
1000
0100
,  // measure 31
1001
0000
0000
0000
,  // measure 32
1000
0100
1000
0100
,  // measure 33
0010
0100
0010
0001
,  // measure 34
0010
0100
0010
0001
,  // measure 35
1001
0000
0000
0000
,  // measure 36
1000
0010
1000
0010
,  // measure 37
0100
0010
0100
0010
,  // measure 38
0001
0010
0001
0010
,  // measure 39
0110
0000
0000
0000
,  // measure 40
1000
0000
0000
0000
,  // measure 41
0000
0000
0000
0000
,  // measure 42
1000
0100
0010
0100
,  // measure 43
1000
0100
0010
0100
,  // measure 44
1000
0001
0100
0010
,  // measure 45
2000
3200
0320
0031
,  // measure 46
1000
0010
0100
0001
,  // measure 47
0020
0230
2300
3020
,  // measure 48
0230
0302
0023
0230
,  // measure 49
2300
3002
0023
0032
,  // measure 50
0203
0320
2030
3200
,  // measure 51
2300
0000
0000
3000
,  // measure 52
0110
0000
0000
0000
,  // measure 53
0000
0000
0000
0000
,  // measure 54
0000
0000
0000
0000
,  // measure 55
0000
0000
0000
0000
,  // measure 56
1100
0000
0000
0000
,  // measure 57
0000
0000
0000
0000
,  // measure 58
0000
0000
0000
0000
,  // measure 59
0000
0000
0000
0000
,  // measure 60
0110
0000
0000
0000
,  // measure 61
0000
0000
0000
0000
,  // measure 62
1001
0000
0000
0000
,  // measure 63
0000
0000
0000
0000
,  // measure 64
1100
0000
0000
0000
,  // measure 65
0000
0000
0000
0000
,  // measure 66
0110
0000
0000
0000
,  // measure 67
1001
0000
0000
0000
,  // measure 68
1000
0001
1000
0100
,  // measure 69
0010
0001
1000
0010
,  // measure 70
0100
0001
1000
0100
,  // measure 71
0010
0001
1000
0010
,  // measure 72
1001
0000
1010
0000
,  // measure 73
1010
0000
0101
0000
,  // measure 74
0100
1000
0100
0010
,  // measure 75
0001
0000
1000
0000
,  // measure 76
1010
1000
0100
0010
,  // measure 77
0001
1000
0100
1000
,  // measure 78
1010
0100
0001
0010
,  // measure 79
0001
1000
0100
1000
,  // measure 80
1100
0100
0010
0001
,  // measure 81
0001
0010
0001
1000
,  // measure 82
1100
0000
0101
0000
,  // measure 83
1000
0100
1000
0010
,  // measure 84
0100
0001
0010
0100
,  // measure 85
1100
0100
0010
1000
,  // measure 86
1001
0000
1100
0000
,  // measure 87
0001
0010
0100
1000
,  // measure 88
0101
1000
1000
0100
,  // measure 89
1010
0100
0001
0010
,  // measure 90
0101
1000
0100
0010
,  // measure 91
1001
0000
1100
0000
,  // measure 92
0110
0000
0000
0000
;

//---------------dance-single - ----------------
#NOTEDATA:;
#CHARTNAME:;
#STEPSTYPE:dance-single;
#DESCRIPTION:;
#CHARTSTYLE:Rajeious's Chart;
#DIFFICULTY:Beginner;
#METER:4;
#RADARVALUES:0.203343,0.291006,0.079078,0.000000,0.000000,180.000000,170.000000,10.000000,0.000000,0.000000,0.000000,0.000000,0.000000,0.000000,0.203343,0.291006,0.079078,0.000000,0.000000,180.000000,170.000000,10.000000,0.000000,0.000000,0.000000,0.000000,0.000000,0.000000;
#CREDIT:Rajeious's Chart;
#NOTES:
// measure 0
0000
0000
0000
0000
,  // measure 1
0000
0000
0000
0000
,  // measure 2
0000
0000
0000
0000
,  // measure 3
0000
0000
0000
0000
,  // measure 4
0000
0000
0000
0000
,  // measure 5
0000
0000
0000
0000
,  // measure 6
0000
0000
0000
0000
,  // measure 7
0000
0000
0000
0000
,  // measure 8
1000
0000
1000
0000
,  // measure 9
0001
0000
0100
0010
,  // measure 10
0100
0000
1000
0000
,  // measure 11
0001
0000
1000
0010
,  // measure 12
1000
0000
0001
0000
,  // measure 13
0100
0000
0010
0000
,  // measure 14
1000
0100
1000
0000
,  // measure 15
0001
0010
0001
0000
,  // measure 16
1000
0000
0100
0000
,  // measure 17
1000
1000
0010
0000
,  // measure 18
0001
0001
0100
0000
,  // measure 19
0010
1000
0010
0000
,  // measure 20
1000
0000
0001
0000
,  // measure 21
1000
1000
0010
0000
,  // measure 22
0100
0100
0001
0000
,  // measure 23
0001
0001
0100
0000
,  // measure 24
1000
0000
0001
0000
,  // measure 25
1000
1000
0010
0000
,  // measure 26
0100
0100
0001
0000
,  // measure 27
0001
0000
0100
0000
,  // measure 28
0010
0000
1000
0000
,  // measure 29
0001
0001
0010
0000
,  // measure 30
1000
1000
0100
0000
,  // measure 31
1000
0000
0010
0000
,  // measure 32
1000
0000
1000
0000
,  // measure 33
0001
0001
0010
0000
,  // measure 34
1000
0000
0001
0000
,  // measure 35
0100
0000
0000
0000
,  // measure 36
1000
0000
0001
0000
,  // measure 37
0100
0100
0010
0000
,  // measure 38
1000
0000
0001
0000
,  // measure 39
0101
0000
0000
0000
,  // measure 40
1000
0000
0000
0000
,  // measure 41
0000
0000
0000
0000
,  // measure 42
1000
0000
0001
0000
,  // measure 43
1000
0000
0010
0000
,  // measure 44
0100
0100
0010
0000
,  // measure 45
1000
1000
0001
0000
,  // measure 46
0001
0001
0010
0000
,  // measure 47
1000
0000
0001
0000
,  // measure 48
0100
0000
1000
0000
,  // measure 49
0100
0000
1000
0000
,  // measure 50
0001
0000
1000
0000
,  // measure 51
0101
0000
0000
0000
,  // measure 52
1100
0000
0000
0000
,  // measure 53
0000
0000
0000
0000
,  // measure 54
0000
0000
0000
0000
,  // measure 55
0000
0000
0000
0000
,  // measure 56
1001
0000
0000
0000
,  // measure 57
0000
0000
0000
0000
,  // measure 58
0000
0000
0000
0000
,  // measure 59
0000
0000
0000
0000
,  // measure 60
1001
0000
0000
0000
,  // measure 61
0000
0000
0000
0000
,  // measure 62
1100
0000
0000
0000
,  // measure 63
0000
0000
0000
0000
,  // measure 64
0110
0000
0000
0000
,  // measure 65
0000
0000
0000
0000
,  // measure 66
1100
0000
0000
0000
,  // measure 67
1100
0000
0000
0000
,  // measure 68
1000
0000
0001
0000
,  // measure 69
1000
0000
0010
0000
,  // measure 70
1000
0000
0100
0000
,  // measure 71
1000
0000
0001
0000
,  // measure 72
0100
0100
0010
0000
,  // measure 73
1000
1000
0001
0000
,  // measure 74
0001
1000
0001
1000
,  // measure 75
0001
0000
0000
0000
,  // measure 76
1000
0000
0100
0000
,  // measure 77
1000
1000
0010
0100
,  // measure 78
0001
0000
1000
0000
,  // measure 79
0100
0100
0010
0000
,  // measure 80
1000
0000
0001
0000
,  // measure 81
0010
0010
0001
0100
,  // measure 82
0010
0000
1000
0000
,  // measure 83
0001
0000
1000
0000
,  // measure 84
0010
0010
0100
0000
,  // measure 85
1000
1000
0001
0000
,  // measure 86
0010
0010
0100
0010
,  // measure 87
1000
0000
0000
0000
,  // measure 88
0001
0000
1000
0000
,  // measure 89
0001
0000
0100
0000
,  // measure 90
0010
0010
1000
1000
,  // measure 91
0001
0000
0100
0000
,  // measure 92
1010
0000
0000
0000
;
