#TITLE:Rooftop;
#SUBTITLE:;
#ARTIST:Yooa;
#TITLETRANSLIT:;
#SUBTITLETRANSLIT:;
#ARTISTTRANSLIT:;
#GENRE:;
#CREDIT:;
#BANNER:AV.avi;
#BACKGROUND:bg.png;
#LYRICSPATH:;
#CDTITLE:;
#MUSIC:audio.ogg;
#OFFSET:0.132000;
#SAMPLESTART:48.092335;
#SAMPLELENGTH:15.000002;
#SELECTABLE:YES;
#BPMS:0.000000=100.000000
;
#STOPS:
;
#BGCHANGES:0.000=MV.avi=0.800=1=0=1===CrossFade==,
3.000=MV.avi=1.000=0=0=1=====,
197.000=MV.avi=0.100=0=0=1=====,
99999=-nosongbg-=1.000=0=0=0 // don't automatically add -songbackground-
;
#KEYSOUNDS:;
#ATTACKS:;

//---------------dance-single - ----------------
#NOTES:
     dance-single:
     :
     Challenge:
     13:
     0.492350,0.590882,0.008285,0.521938,0.542650,416.000000,415.000000,1.000000,63.000000,0.000000,0.000000,0.492350,0.590882,0.008285,0.521938,0.542650,416.000000,415.000000,1.000000,63.000000,0.000000,0.000000:
// measure 0
0000
0000
0000
0000
,  // measure 1
0000
0000
0000
0000
,  // measure 2
0000
0000
0000
0000
,  // measure 3
0000
0000
0000
0000
,  // measure 4
0000
0000
0000
0000
1000
0000
0001
0000
0010
0000
0000
0000
0001
0000
1000
0010
,  // measure 5
0100
0010
1000
0000
0001
0000
0010
0000
0100
0000
0000
0000
0100
0010
0001
1000
,  // measure 6
0001
0010
0100
0000
0020
0000
0030
0000
0020
0000
0030
0000
0200
0000
0300
0000
,  // measure 7
0001
0000
2000
0000
3010
0000
0010
0100
0010
0000
0100
0010
0000
0000
0010
0000
,  // measure 8
1000
0000
1000
0000
0001
0000
0100
0010
1000
0000
0001
0010
0100
0000
0010
0000
,  // measure 9
0001
0000
0100
0000
1000
0000
1000
0100
0010
0000
0100
0001
0010
0000
0100
0000
,  // measure 10
0010
0001
1000
0000
0010
0000
1000
0001
0100
0000
0010
1000
0100
0000
1000
0000
,  // measure 11
0002
0000
0000
0000
1003
0000
0001
0100
0001
0000
1000
0001
0000
0000
0000
0000
,  // measure 12
1000
0000
1000
0000
1000
0001
0010
0001
1000
0000
0010
0000
0100
1000
0100
0001
,  // measure 13
1000
0000
0001
0000
0001
0100
0010
1000
0001
0000
0010
0000
0100
0000
1000
0000
,  // measure 14
0202
0000
0303
0000
1000
0100
0001
0100
0010
0001
1000
0010
0100
0010
1000
0000
,  // measure 15
1000
0100
0010
0100
1000
0001
0010
1000
0010
0001
0100
0010
0001
0000
0020
0000
,  // measure 16
1030
0000
0000
0001
0200
0000
0300
0001
0020
0000
0030
1000
0020
0000
0030
0000
,  // measure 17
0010
0000
0100
0001
0020
0000
0030
0001
2000
0000
3000
0010
0200
0000
0300
0000
,  // measure 18
0010
0000
0000
1000
0002
0000
0003
0010
0200
0000
0300
1000
0200
0000
0300
0010
,  // measure 19
0002
1003
0000
0000
,  // measure 20
0000
0000
2000
0000
3001
0010
1000
0010
0001
0000
0001
1000
0010
0000
2000
3020
,  // measure 21
2030
0000
3100
0010
0100
0000
0100
0010
0000
0010
0001
1000
0001
0200
0320
2030
,  // measure 22
3200
0000
0310
0000
0100
1000
0001
0100
0001
1000
0010
0100
0010
0000
2000
3000
,  // measure 23
2000
0000
3010
0000
0100
0001
0010
0001
1000
0100
0010
0100
1000
0010
0100
0010
,  // measure 24
0001
0010
1000
0100
0010
0000
0010
0100
2000
3000
1000
0100
0002
0003
0001
0100
,  // measure 25
0020
0030
0001
0000
1000
0000
1000
0010
0100
0000
0100
0001
0000
1000
0001
0010
,  // measure 26
0100
0000
0010
0000
0001
0000
0001
0010
2000
3000
1000
0010
0002
0003
0001
0100
,  // measure 27
2000
3000
0100
0000
0001
1000
0010
1000
0001
0010
0100
1000
0200
0000
0000
0000
,  // measure 28
1300
0000
0001
0000
1000
0000
1000
0001
0010
0000
0010
0001
0100
0000
0010
0000
,  // measure 29
2000
0000
0000
0000
3100
0000
0100
0010
0001
0000
0001
0010
0100
0000
1000
0000
,  // measure 30
0002
0000
0000
0000
1003
0000
1000
0010
0001
0000
0001
0010
0100
0000
0010
0000
,  // measure 31
2000
0000
0000
0000
3001
0000
0001
0100
0010
0000
1000
0010
0100
0000
0001
0000
,  // measure 32
2000
0000
3002
0000
0103
0010
0200
0000
,  // measure 33
0310
1000
0001
0010
0100
0010
0001
0100
,  // measure 34
0010
1000
0002
0000
1003
0010
2000
0000
,  // measure 35
3001
0020
0230
2300
,  // measure 36
3002
0000
0000
0000
0000
0000
0000
0000
0003
0200
0000
0000
0000
0000
0300
0000
0000
0000
0000
0000
0000
0000
0000
0000
0000
0000
0000
0000
0000
0000
0000
0000
,  // measure 37
0000
0000
0002
0000
1003
0100
0010
0001
1000
0000
1000
0010
2000
0000
0000
0000
,  // measure 38
3001
0000
0100
0010
0100
0000
0100
0001
0000
0010
0100
0010
0002
0000
1003
0000
,  // measure 39
1000
0000
1000
0000
0010
0100
0001
0010
1000
0010
0001
1000
0020
0000
0130
0000
,  // measure 40
0001
0000
0100
0000
0001
0100
1000
0100
0010
1000
0100
0010
1000
0010
0001
1000
,  // measure 41
0010
0100
0001
1000
0100
0000
0100
1000
0002
0003
0001
1000
0200
0300
0100
1000
,  // measure 42
0002
0003
0010
0000
0100
0000
0100
1000
0020
0030
0010
1000
0020
1030
0001
0100
,  // measure 43
0020
0030
0100
0000
0001
0000
0001
0100
2000
3000
1000
0100
0002
0003
0001
0010
,  // measure 44
2000
3000
0010
0000
0001
1000
0100
1000
0010
0100
0001
0010
0200
0000
0310
0000
,  // measure 45
0001
0100
0001
0010
0100
0100
0100
0100
0000
0000
0000
0000
0000
0000
0000
0000
,  // measure 46
0000
0000
0000
0000
1000
1000
1000
1000
0000
0000
0000
0000
0000
0000
0000
0000
,  // measure 47
0000
0000
0000
0000
0001
0001
0001
0001
0000
0000
0000
0000
0000
0000
0000
0000
,  // measure 48
0000
0000
0000
0000
0010
0010
0010
0010
0000
0000
0000
0000
0000
0000
0000
0000
,  // measure 49
0020
0000
0000
0030
0000
0000
0000
0000
0000
0000
0000
0000
0000
0000
0000
0000
;

//---------------dance-single - ----------------
#NOTES:
     dance-single:
     :
     Hard:
     10:
     0.411869,0.527737,0.000000,0.323104,0.347959,348.000000,348.000000,0.000000,39.000000,0.000000,0.000000,0.411869,0.527737,0.000000,0.323104,0.347959,348.000000,348.000000,0.000000,39.000000,0.000000,0.000000:
0000
0000
0000
0000
,
0000
0000
0000
0000
,
0000
0000
0000
0000
,
0000
0000
0000
0000
,
0000
0000
0000
0000
1000
0000
0010
0000
0100
0000
0000
0000
0100
0000
0001
0010
,
0001
0000
1000
0000
0010
0000
0010
0000
1000
0000
0000
0000
0100
0000
1000
0001
,
1000
0010
0200
0300
0002
0003
0200
0300
,
0001
0000
1000
0000
0010
0000
0010
1000
0001
0000
0001
0100
0000
0000
0000
0000
,
1000
0000
1000
0000
0100
0000
0100
0010
0001
0000
0010
0000
0100
0000
1000
0000
,
0001
0000
0100
0000
0010
0000
0010
1000
0100
0000
0010
0000
0001
0000
0100
0000
,
0010
0000
0100
0000
0100
0000
0001
1000
0001
0000
1000
0000
1000
0000
0100
0000
,
0010
0010
0002
0000
0103
0010
2000
0000
,
3010
0000
1000
0000
0001
0000
0001
0100
0010
0000
1000
0000
0100
0010
0001
0010
,
0100
0000
1000
0000
0001
1000
0010
0100
0001
0000
0010
0000
0100
0000
0100
0000
,
2000
0000
0000
0000
3001
1000
0010
1000
0001
0000
0100
0000
0001
0010
1000
0010
,
0001
0000
1000
0000
0100
1000
0100
1000
0010
0000
0100
0000
0002
0000
0000
0000
,
1003
0000
0000
0010
1000
0000
0000
1000
0010
0000
0000
0010
0200
0000
0000
0000
,
0310
0000
0000
0001
1000
0000
0000
1000
0001
0000
0000
0001
0020
0000
0000
0000
,
0031
0000
0000
0100
0001
0000
0000
0001
0100
0000
0000
0100
0010
0000
0000
0010
,
2000
3010
0000
0000
,
0000
0000
2000
0000
3001
0100
0010
0100
0001
0000
0001
0010
0200
0000
0000
0000
,
0310
0000
0001
0000
1000
0000
0000
1000
0000
0010
0100
0001
2000
0000
0000
0000
,
3001
0000
0001
0000
1000
0100
0010
0100
1000
0001
0100
0010
0200
0000
0000
0000
,
0310
0000
1000
0000
0100
0000
0100
0000
1000
0001
1000
0010
0200
0000
0000
0000
,
0301
0000
0010
0000
0100
0000
0100
0010
0001
0000
0001
0010
0100
0000
0100
0010
,
0001
0000
0100
0000
0001
0000
0001
1000
0010
0000
1000
0000
0100
0000
0010
0000
,
0002
0000
0000
0000
1003
0000
0010
1000
0100
0000
0100
0010
0001
0000
0001
0010
,
0100
0000
1000
0000
0001
0100
0010
0100
0001
0000
0010
0000
0200
0000
0000
0000
,
0310
0000
0001
0001
0020
0000
0032
0000
,
0103
0000
0010
0010
0200
0000
0302
0000
,
0013
0000
0100
0100
2000
0000
3020
0000
,
1030
0000
1000
1000
0002
0000
0103
0000
,
0010
1000
0002
0000
0103
0100
0020
0000
,
1030
0000
0001
1000
0010
0100
0001
0100
,
0001
1000
0020
0000
1030
0001
0020
0000
,
0130
0020
0032
0203
,
0320
0000
0000
0000
2030
0000
0000
3000
0000
0000
0000
0000
0000
0000
0000
0000
,
0000
0000
0002
0000
0103
0001
0100
0010
1000
0000
1000
0100
0020
0000
0000
0000
,
0130
0000
0010
0000
0001
0000
0000
0001
0000
1000
0010
1000
0200
0000
0000
0000
,
0310
0000
0001
0000
0100
0010
0100
0010
1000
0010
1000
0100
0020
0000
0000
0000
,
0130
0000
0010
0000
0001
0010
0001
0010
0100
0010
0001
1000
0010
0000
1000
0000
,
0001
0100
0010
0100
0001
0000
0001
1000
0100
0000
0100
1000
0001
0000
0001
1000
,
0100
0000
0010
0000
0001
0000
0001
0100
0010
0000
0100
0000
0001
0000
1000
0000
,
0020
0000
0000
0000
1030
0000
1000
0100
0010
0000
0010
0100
1000
0000
1000
0100
,
0010
0000
0001
0000
1000
0010
0100
0001
0010
1000
0010
0001
2000
0000
0000
0000
,
3010
0000
1000
0000
0001
1000
0001
1000
0000
0000
0000
0000
0000
0000
0000
0000
,
0000
0000
0000
0000
0010
1000
0010
1000
0000
0000
0000
0000
0000
0000
0000
0000
,
0000
0000
0000
0000
0001
0100
0001
0100
0000
0000
0000
0000
0000
0000
0000
0000
,
0000
0000
0000
0000
0010
1000
0010
1000
0000
0000
0000
0000
0000
0000
0000
0000
,
0001
0000
0000
0000
;

//---------------dance-single - ----------------
#NOTES:
     dance-single:
     :
     Medium:
     6:
     0.319554,0.345939,0.157410,0.339674,0.000000,270.000000,251.000000,19.000000,41.000000,0.000000,0.000000,0.319554,0.345939,0.157410,0.339674,0.000000,270.000000,251.000000,19.000000,41.000000,0.000000,0.000000:
0000
0000
0000
0000
,
0000
0000
0000
0000
,
0000
0000
0000
0000
,
0000
0000
0000
0000
,
0000
0000
0100
0010
0200
0000
0301
0010
,
0001
0001
1000
0100
2000
0000
3010
0100
,
0001
1000
0020
0000
0230
0000
0302
0000
,
0103
0001
0100
0100
0010
0010
1000
0000
,
1010
0000
0001
0100
0001
0010
0100
0010
,
0001
1000
0010
1000
0100
1000
0100
0010
,
0100
1000
0001
0100
0001
0100
0010
0100
,
0002
0000
0013
0000
0001
1000
0020
0000
,
1030
0000
1000
1000
0200
0000
1300
1000
,
0020
0000
0130
0001
0010
0001
1000
0010
,
0200
0000
0301
0001
0020
0000
0130
0100
,
2000
0000
3001
1000
0001
0100
0020
0000
,
0130
0110
0110
1002
,
1003
1001
1001
0210
,
0310
0110
0011
0110
,
1001
0010
0000
0000
,
0000
0000
2000
0000
3001
0100
0002
0000
,
0013
0100
0010
0010
0100
0010
0002
0000
,
1003
0010
1000
0010
0100
0001
0020
0000
,
0031
0010
0001
0010
0100
1000
0002
0000
,
1003
0010
0100
0100
0002
0000
0103
0001
,
0100
0010
1000
1000
0002
0000
1003
0010
,
1000
0100
0010
0010
0200
0000
0310
0100
,
0010
0001
1000
1000
0010
0010
2000
0000
,
3010
0000
0100
0000
0100
0001
0200
0000
,
0310
0000
1000
0000
1000
0001
0020
0000
,
0031
0000
0001
0000
0001
0100
0020
0000
,
0130
0000
0001
0000
0001
1000
0200
0000
,
1300
0000
0010
0000
0010
0100
0002
0000
,
1003
0000
0100
1000
0100
1000
0001
0100
,
0001
0100
0020
0000
1030
0000
2000
0000
,
3010
0002
0103
0200
,
0310
0000
0000
0000
,
0000
0000
1000
1000
0001
0100
0002
0000
,
0013
0100
0010
0010
0100
1000
0002
0000
,
1003
0010
0100
0001
0010
0100
2000
0000
,
3010
1000
0001
0001
1000
1000
0010
0100
,
0001
0100
0010
0010
2000
0000
3001
0001
,
1000
0001
0100
0100
0020
0000
0130
0010
,
0100
0100
0001
1000
0200
0000
0310
0100
,
0010
0010
0001
1000
0010
1000
0200
0000
,
0310
0110
0110
0000
,
0000
1001
1001
0000
,
0000
1100
1100
0000
,
0000
0110
0110
0000
,
2000
3000
0000
0000
0000
0000
0000
0000
;

//---------------dance-single - ----------------
#NOTES:
     dance-single:
     :
     Easy:
     3:
     0.156226,0.223273,0.000000,0.140840,0.000000,132.000000,132.000000,0.000000,17.000000,0.000000,0.000000,0.156226,0.223273,0.000000,0.140840,0.000000,132.000000,132.000000,0.000000,17.000000,0.000000,0.000000:
0000
0000
0000
0000
,
0000
0000
0000
0000
,
0000
0000
0000
0000
,
0000
0000
0000
0000
,
0000
2000
0000
3001
,
0001
0200
0000
0310
,
0100
0001
0001
1000
,
1000
0010
0010
0100
,
0000
0001
0100
0001
,
0001
0010
0010
0100
,
0010
0100
0100
1000
,
1000
0020
0000
0130
,
0000
0000
0001
0000
0001
0000
0010
1000
,
0010
0000
0001
0000
0100
0000
0001
0100
,
0001
0000
1000
0000
1000
0000
0010
1000
,
0010
0000
0100
0000
0100
0000
0001
0100
,
0001
0010
0010
0200
,
0000
0310
0010
0002
,
0000
1003
1000
0001
,
0001
0100
0000
0000
,
0000
0002
0000
0103
,
0100
0020
0000
1030
,
1000
0200
0000
0310
,
0001
1000
1000
0002
,
0000
1003
1000
1000
,
0000
0001
0001
0001
,
0000
0100
0100
0100
,
0000
0010
0010
0020
,
0000
1030
0000
1000
,
0000
0001
0000
0001
,
0000
0100
0000
0100
,
0000
0010
0000
0010
,
0000
1000
0001
1000
,
0000
0001
0100
0010
,
0000
1000
0100
0010
,
0000
0002
0000
0103
,
0000
0100
0000
0000
,
0000
2000
0000
3001
,
0000
0200
0000
0301
,
0000
2000
0000
3010
,
0000
0100
0001
0020
,
0000
0130
0100
0100
,
0100
0010
0010
0010
,
0010
0001
0001
0001
,
0001
1000
0001
2000
,
0000
3010
0000
0000
,
0000
0100
0000
0000
,
0000
0010
0000
0000
,
0000
0200
0000
0310
,
0010
0000
0000
0000
;

//---------------dance-single - ----------------
#NOTES:
     dance-single:
     :
     Beginner:
     1:
     0.081664,0.099935,0.000000,0.074563,0.000000,69.000000,69.000000,0.000000,9.000000,0.000000,0.000000,0.081664,0.099935,0.000000,0.074563,0.000000,69.000000,69.000000,0.000000,9.000000,0.000000,0.000000:
0000
0000
0000
0000
,
0000
0000
0000
0000
,
0000
0000
0000
0000
,
0000
0000
0000
0000
,
0000
1000
0000
0000
,
0000
0001
0000
0000
,
0000
1000
0000
0000
,
0000
0010
0000
0000
,
0000
0100
0000
0000
,
0000
0001
0000
0000
,
0000
1000
0000
0000
,
0000
0010
0000
0000
,
0000
0010
0000
0010
,
0000
0100
0000
0100
,
0000
1000
0000
1000
,
0000
0001
0000
0001
,
0000
0010
0000
0000
,
0000
0100
0000
0000
,
0000
0010
0000
0000
,
0000
1000
0000
0000
,
0000
2000
0000
3001
,
0000
0002
0000
1003
,
0000
0020
0000
1030
,
0000
2000
0000
3001
,
0000
0001
0000
0001
,
0000
1000
0000
1000
,
0000
0010
0000
0010
,
0000
0001
0000
0001
,
0000
1000
0000
0000
,
0000
0010
0000
0000
,
0000
0001
0000
0000
,
0000
0010
0000
0000
,
0000
0001
0000
0001
,
0000
1000
0000
1000
,
0000
0010
0000
0010
,
0000
0100
0000
0100
,
0000
0100
0000
0000
,
0000
2000
0000
3001
,
0000
0002
0000
1003
,
0000
0020
0000
1030
,
0000
2000
0000
3001
,
0000
0001
0000
0001
,
0000
1000
0000
1000
,
0000
0010
0000
0010
,
0000
0100
0000
0200
,
0000
0301
0000
0000
,
0000
0001
0000
0000
,
0000
1000
0000
0000
,
0000
0010
0000
0000
;
