#VERSION:0.83;
#TITLE:-QuiQ;
#SUBTITLE:;
#ARTIST:owl'tree;
#TITLETRANSLIT:;
#SUBTITLETRANSLIT:;
#ARTISTTRANSLIT:;
#GENRE:;
#ORIGIN:;
#CREDIT:;
#BANNER:AV.avi;
#BACKGROUND:bg.png;
#PREVIEWVID:;
#JACKET:jacket.png;
#CDIMAGE:;
#DISCIMAGE:;
#LYRICSPATH:;
#CDTITLE:;
#MUSIC:audio.mp3;
#OFFSET:-0.125000;
#SAMPLESTART:55.115116;
#SAMPLELENGTH:15.000004;
#SELECTABLE:YES;
#DISPLAYBPM:*;
#BPMS:0.000=120.000,
86.000=125.000,
90.000=130.000,
94.000=135.000,
98.000=140.000,
102.000=145.000,
106.000=150.000,
110.000=155.000,
114.000=160.000,
122.000=161.000,
130.000=162.000,
138.000=163.000,
146.000=164.000,
154.000=165.000,
162.000=166.000,
170.000=167.000,
178.000=168.000,
190.000=169.000,
210.000=170.000,
274.000=180.000,
276.000=182.000,
278.000=184.000,
280.000=186.000,
281.000=188.000,
282.000=190.000,
290.000=195.000,
298.000=200.000,
306.000=205.000,
314.000=210.000,
322.000=215.000,
330.000=220.000,
338.000=225.000,
346.000=230.000,
354.000=235.000,
359.000=240.000,
360.000=120.000;
#STOPS:;
#DELAYS:;
#WARPS:;
#TIMESIGNATURES:0.000=4=4;
#TICKCOUNTS:0.000=4;
#COMBOS:0.000=1;
#SPEEDS:0.000=1.000=0.000=0;
#SCROLLS:0.000=1.000,
32.000=0.500,
33.000=1.000,
48.000=0.500,
49.000=1.000,
80.000=0.500,
81.000=1.000,
128.000=0.500,
129.000=1.000,
144.000=0.500,
145.000=1.000,
176.000=0.500,
177.000=1.000,
206.000=0.500,
207.750=3.000,
209.000=1.000;
#FAKES:;
#LABELS:0.000=Song Start;
#BGCHANGES:0.000=MV.avi=1.800=1=0=1===CrossFade==,
3.000=MV.avi=1.000=0=0=1=====,
99999=-nosongbg-=1.000=0=0=0 // don't automatically add -songbackground-
;
#KEYSOUNDS:;
#ATTACKS:
;

//---------------dance-single - ----------------
#NOTEDATA:;
#CHARTNAME:;
#STEPSTYPE:dance-single;
#DESCRIPTION:;
#CHARTSTYLE:;
#DIFFICULTY:Challenge;
#METER:18;
#RADARVALUES:0.912277,1.114158,0.252908,0.091328,1.141601,909.000000,873.000000,36.000000,13.000000,0.000000,0.000000,0.000000,0.000000,0.000000,0.912277,1.114158,0.252908,0.091328,1.141601,909.000000,873.000000,36.000000,13.000000,0.000000,0.000000,0.000000,0.000000,0.000000;
#CREDIT:Musey;
#DISPLAYBPM:*;
#NOTES:
0000
0000
0000
0000
,
0000
0000
0000
0000
,
0000
0000
0000
0000
,
0000
0000
0000
0000
,
0000
0000
0000
0000
0000
0000
0000
0000
0000
0000
0000
0000
1000
0000
0000
0001
0000
0100
0001
0000
0100
0001
0000
0100
,
0001
0000
0100
0001
0000
0100
0001
0000
0100
0001
0000
0100
0001
0000
0100
0001
0000
0100
0010
0000
0100
0010
0000
0100
,
0001
0000
0100
0010
0000
1000
0100
0000
0000
1000
0100
1000
0100
0010
0001
0010
0100
1000
0100
0000
0000
0000
0000
0000
,
1000
0100
1000
0001
0010
0100
1000
0000
0000
0000
0000
0000
0100
0000
0100
1000
0000
1000
0001
0000
0000
0100
0000
0000
,
0010
0000
0000
0000
0000
0000
1002
0000
0000
0000
0000
0000
1003
0000
0000
1000
0000
0010
1000
0000
0010
1000
0000
0010
,
1000
0000
0010
1000
0000
0010
1000
0000
0010
1000
0000
0010
1000
0000
0010
1000
0000
0010
0100
0000
0010
0100
0000
0010
,
1000
0000
0010
0100
0000
0001
0010
0000
0000
0001
0010
0001
0010
0000
0010
0100
0000
0100
1000
0000
1000
0010
0000
0010
,
0100
0000
0100
0001
0000
0001
0010
0000
0010
0001
0000
0001
0010
0000
0010
0001
0000
0001
0100
0000
0000
0100
0000
0000
,
0010
0000
0000
0000
0000
0000
1002
0000
0000
0000
0000
0000
0103
0000
0000
0010
0000
0100
0010
0000
0010
1000
0000
1000
,
0001
0000
0001
0010
0100
1000
0001
0000
0001
0100
0000
0100
0010
0000
0010
1000
0000
1000
0001
0000
0001
0100
0000
0100
,
0010
0000
0010
0100
0000
0100
0001
0000
0001
0100
0000
0000
0010
0000
0000
1000
0100
1000
0010
0000
0000
0100
0010
0100
,
0001
0000
0001
1000
0000
1000
0001
0000
0001
0100
0000
0000
0001
0000
1000
0010
0000
0000
1000
0000
0001
0100
0000
0000
,
0001
0000
1000
0001
0000
1000
0010
0000
1000
0100
0000
0000
0100
0000
0000
0010
0000
0000
0001
0000
1000
0010
0000
0100
,
0000
0000
0010
1000
0000
1000
0001
0000
0001
0010
0000
0010
0001
0000
1000
0001
0000
0100
0000
0000
0001
1000
0000
0001
,
0100
0000
0010
0000
0000
1000
0001
0000
1000
0100
0000
0000
1000
0000
0000
0001
0010
0100
1000
0000
0000
0001
0000
0000
,
1000
0000
0000
0001
0000
0000
1000
0000
0000
0001
0010
0100
1000
0000
0010
1000
0000
0010
1000
0000
0000
0001
0000
0000
,
0100
0000
0000
0000
0000
0000
0020
0000
0000
0000
0000
0000
1030
0000
0000
0000
0000
0000
0001
0000
0000
0000
0000
1000
,
0001
0000
0000
0000
0000
1000
0000
0000
0010
1000
0000
0000
0001
0000
0000
0000
0000
0000
1000
0000
0000
0000
0000
0001
,
1000
0000
0000
0000
0000
0010
0000
0000
0100
0001
0000
0000
1000
0000
0000
0000
0000
0000
0001
0000
0000
0000
0000
1000
,
0010
0000
0000
0000
0000
1000
0000
0000
0001
1000
0000
0000
0001
0000
0000
0000
0000
0000
0100
0000
0000
0000
0000
0001
,
0100
0000
0000
0000
0000
0010
0000
0000
1000
0001
0000
0000
0100
0000
0000
0000
0000
0000
0010
0000
0000
0000
0000
1000
,
0001
0000
0000
0000
0000
0000
1000
0000
0000
0000
0000
0001
1000
0000
0000
0000
0000
0000
0010
0000
0000
0000
0000
1000
,
0001
0000
0000
0000
0000
0000
0100
0000
0000
0000
0000
0001
1000
0000
0000
1000
0000
0000
0001
0000
0000
0001
0000
0000
,
1000
0000
1000
0000
0010
0000
0010
0000
1000
0100
1000
0100
1000
0100
1000
0100
,
2000
0000
0000
0000
0000
0000
0000
0000
3000
0000
0001
1000
0001
1000
0001
1000
,
0001
1000
0001
1000
0001
1000
0001
1000
0001
1000
0001
1000
0010
1000
0010
1000
,
0001
1000
0010
0100
0010
0000
0100
0001
0100
0010
0100
0001
1000
0000
0000
0000
,
0100
0001
0100
0010
1000
0000
0000
0000
0001
1000
0001
1000
0010
0000
1000
0000
,
0001
0000
0000
0000
0200
0000
0000
0000
0301
0000
1000
0010
1000
0010
1000
0010
,
1000
0010
1000
0010
1000
0010
1000
0010
1000
0010
1000
0010
0100
0010
0100
0001
,
0100
0001
0100
0001
0010
0000
0001
1000
0001
0010
0100
1000
0010
0100
0010
0100
,
0001
0010
0100
1000
0010
0100
0010
1000
0100
1000
0100
1000
0010
0000
0100
0000
,
0001
0000
0000
0000
2000
0000
0000
0000
3001
0000
0001
0010
0100
0010
0001
0010
,
0100
0010
0001
0010
0100
0010
0001
0010
0100
1000
0100
1000
0100
0010
0100
0010
,
0001
0010
0001
0010
0100
0010
0100
0000
0000
0000
1000
0100
1000
0100
0010
0001
,
1000
0001
1000
0010
1000
0010
0100
0000
0001
0100
0001
0000
1000
0100
1000
0000
,
0001
0100
0001
0100
0001
0010
0100
0000
0000
0000
1000
0000
1000
0100
0010
0100
,
0000
1000
0100
1000
0100
0010
0100
1000
0001
1000
0010
1000
0000
0001
0010
0100
,
0010
0001
0000
1000
0100
0010
0100
0000
0000
0000
1000
0001
1000
0000
0010
0000
,
0100
0000
0010
0000
1010
0000
0001
0100
0010
0100
0001
0100
0010
0000
0100
0000
,
1001
0020
0230
0000
,
0302
0000
0000
0003
1010
0000
0000
0000
,
0010
1001
0120
0000
,
2030
0000
0000
0000
3010
1010
0000
0100
,
0101
0000
0000
0000
1001
0000
0000
0000
1001
0000
0000
0000
0000
0000
0100
0001
,
0100
0000
0100
0000
0010
0000
0000
0000
1000
0000
1000
0000
0000
0000
0001
0100
,
0001
0001
0010
0010
0100
0100
1000
1000
,
0010
1000
0010
1000
0010
1000
0010
1000
0020
0000
0000
0000
0000
0000
0000
0000
,
0000
0000
0000
0000
0000
0030
0000
0000
1000
0000
0001
1000
0010
0000
0000
0100
,
0000
0001
0010
0000
0011
0000
0000
0000
1000
0000
0001
1000
0010
0000
0000
0100
,
0000
0001
1000
0000
1001
0000
0001
0000
0010
0000
0001
0010
0100
0000
0000
0010
,
0000
0100
1000
0000
1010
0000
0000
0000
1000
0000
1000
0010
0100
0000
0000
0001
,
0000
0000
0000
0100
0000
0000
0001
0000
0000
0000
0000
0000
0010
0000
0000
0100
0000
0000
1000
0000
0000
0000
0000
0000
0001
0000
0000
0000
0100
0000
0000
0000
0001
0000
0000
0000
0100
0000
0000
0000
0001
0000
0000
0000
0100
0000
0000
0000
,
0010
0000
0000
0000
1000
0000
0000
0000
0010
0000
0000
0000
1000
0000
0000
0000
0010
0000
0000
0000
0100
0000
0000
0000
0001
0000
0000
0000
0000
0000
1000
0000
0000
0100
0000
0000
0010
0000
0000
0000
0000
0000
0010
0000
0000
0100
0000
0000
,
0000
1000
0010
0000
0100
0000
0001
0000
1000
0000
0001
0010
0100
0010
0001
0000
,
1000
0000
0010
0000
0100
0010
1000
0000
0001
0000
0001
0000
1000
0000
0010
0000
,
1000
0000
0100
0000
1000
0000
0001
0000
0010
0000
0100
0000
1000
0001
1000
0000
,
0010
0000
0100
0000
0001
0010
0001
0000
1000
0100
1000
0000
0001
0000
1000
0000
,
0010
0000
0100
0000
0001
0000
1000
0000
0010
0000
1000
0001
0100
0000
0001
0000
,
1000
0000
0001
0000
0010
0100
0010
0000
0001
1000
0010
0000
0100
0000
0001
0000
,
1000
0000
0000
0010
0000
0000
0100
0000
0000
0001
0000
0000
0010
0000
0000
0000
0000
0000
0001
0000
0010
0000
0001
0000
,
1000
0100
1000
0010
0100
0010
1000
0001
0100
0001
1000
0010
,
1000
0000
0001
0000
0010
0000
0100
0000
1000
0000
0001
0000
0100
0000
0000
0100
0000
0000
0010
0000
0000
0010
0000
0000
,
1000
0000
1000
0000
0001
0000
0001
0000
0100
0001
0100
0001
0100
0001
0100
0001
,
0100
0001
0100
0001
0100
0000
0000
0000
0101
0000
0000
0000
0001
0000
0000
0000
,
1100
0100
1010
0010
,
0001
0000
1000
0000
0001
0000
1000
0000
0010
0000
1000
0010
1000
0010
1000
0010
,
1000
0010
1000
0010
1000
0010
1000
0010
1000
0010
1000
0010
0100
0010
0100
0010
,
1000
0010
1000
0010
0100
0000
0010
0000
1100
0000
0000
0000
0101
0000
0000
0000
,
1100
0000
0000
0000
0101
0000
0000
0000
0001
1000
0001
1000
0010
0000
0100
0000
,
0001
0000
0000
0000
1010
0000
0000
0000
0001
0000
0010
0001
0010
0001
0010
0001
,
0010
0001
0010
0001
0010
0001
0010
0001
0010
0001
0010
0001
0100
0001
0100
0001
,
0010
0001
0010
0001
0100
0000
0000
0000
0011
0000
0000
0000
1010
0000
0000
0000
,
0011
0000
0000
0000
1010
0000
0000
0000
1000
0001
1000
0001
0010
0000
0001
0000
,
0100
0000
0000
0000
0110
0000
0000
0000
1000
0000
0001
1000
0001
1000
0001
1000
,
0001
1000
0001
1000
0001
1000
0001
1000
0001
1000
0001
1000
0001
1000
0001
1000
,
0001
0010
0100
0000
0110
0000
1001
0000
,
0110
0000
0000
0000
1001
0000
0000
0000
0100
0010
0100
0010
1000
0000
0001
0000
,
0100
0000
0000
0000
1001
0000
0000
0000
0010
0000
1000
0010
1000
0010
1000
0010
,
1000
0010
1000
0010
1000
0010
1000
0010
1000
0010
1000
0010
1000
0010
1000
0010
,
1000
0100
0010
0000
1001
0000
1010
0000
,
1001
0000
0000
0000
1010
0000
0000
0000
0001
0100
0001
0100
0010
0000
1000
0000
,
0001
0100
0010
1000
0001
0100
0001
0100
,
0010
0000
1000
0000
0010
0000
1000
0000
0001
1000
0001
1000
0001
0000
0100
0000
,
0010
1000
0010
1000
0010
1000
0010
1000
0100
0000
1000
0000
0010
0000
1000
0000
,
0100
0000
1000
0000
0010
0000
1000
0000
0001
1000
0001
1000
0001
0000
0100
0000
,
0010
1000
0200
0000
0000
0300
0000
0000
;

//---------------dance-single - ----------------
#NOTEDATA:;
#CHARTNAME:;
#STEPSTYPE:dance-single;
#DESCRIPTION:;
#CHARTSTYLE:;
#DIFFICULTY:Hard;
#METER:16;
#RADARVALUES:0.778798,0.891327,0.210757,0.091328,0.614708,776.000000,746.000000,30.000000,13.000000,0.000000,0.000000,0.000000,0.000000,0.000000,0.778798,0.891327,0.210757,0.091328,0.614708,776.000000,746.000000,30.000000,13.000000,0.000000,0.000000,0.000000,0.000000,0.000000;
#CREDIT:Musey;
#DISPLAYBPM:*;
#NOTES:
// measure 0
0000
0000
0000
0000
,  // measure 1
0000
0000
0000
0000
,  // measure 2
0000
0000
0000
0000
,  // measure 3
0000
0000
0000
0000
,  // measure 4
0000
0000
0000
0000
0000
0000
0000
0000
0000
0000
0000
0000
1000
0000
0000
0001
0000
1000
0010
0000
0000
1000
0000
0001
,  // measure 5
0010
0000
0000
0100
0000
0010
0100
0000
0000
0010
0000
0001
0100
0000
0000
0010
0000
0000
1000
0000
0000
0010
0000
0010
,  // measure 6
1000
0000
1000
0001
0000
0001
1000
0000
0000
0001
0000
0100
0010
0000
1000
0001
0000
0010
0100
0000
0000
1000
0000
0000
,  // measure 7
0001
0000
1000
0100
0000
1000
0001
0000
0000
1000
0000
0000
0010
0000
1000
0001
0000
0010
0100
0000
0000
1000
0000
0000
,  // measure 8
0001
0000
0000
0000
0000
0000
2000
0000
0000
0000
0000
0000
3001
0000
0001
0100
0000
0000
0001
0000
1000
0100
0000
0000
,  // measure 9
0010
0000
0100
0010
0000
0000
0100
0000
1000
0010
0000
0000
0100
0000
0000
0001
0000
0000
0100
0000
0100
0001
0000
0001
,  // measure 10
1000
0000
1000
0001
0000
0000
1000
0000
0000
0010
0000
1000
0001
0000
0010
0100
0000
0000
1000
0000
0000
0001
0000
1000
,  // measure 11
0100
0000
1000
0001
0000
0000
1000
0000
0000
0010
0000
1000
0001
0000
0010
0100
0000
1000
0001
0000
0000
1000
0000
0000
,  // measure 12
0001
0000
0000
0000
0000
0000
0200
0000
0000
0000
0000
0000
0301
0000
0000
1000
0000
0001
1000
0000
0000
0010
0000
1000
,  // measure 13
0001
0000
0000
1000
0000
0001
0010
0000
0000
0100
0000
1000
0010
0000
1000
0001
0000
1000
0001
0000
0010
0100
0000
0000
,  // measure 14
0100
0000
1000
0001
0000
0010
0001
0000
1000
0100
0000
0000
0010
0000
0000
0001
0000
0010
0001
0000
0000
1000
0000
0010
,  // measure 15
0100
0000
0000
0001
0000
1000
0001
0000
0010
0100
0000
0000
0100
0000
0100
0010
0000
0000
0100
0000
0100
0010
0000
0000
,  // measure 16
0100
0000
1000
0001
0000
0100
0001
0000
0001
1000
0000
0000
0001
0000
0000
0100
0000
0000
0001
0000
0100
0001
0000
0010
,  // measure 17
0000
0000
0100
0010
0000
0000
1000
0001
1000
0010
0000
0000
1000
0000
0001
0100
0000
0000
0010
0000
1000
0100
0000
0000
,  // measure 18
0010
0000
0001
0010
0000
0000
0001
0000
0100
0010
0000
0100
0010
0000
0000
1000
0100
1000
0100
0000
0000
0010
0000
0000
,  // measure 19
0001
0000
0000
0001
0000
0000
0100
0000
0000
0010
0000
0000
1000
0000
0001
1000
0000
0000
0001
0000
0000
0100
0000
0000
,  // measure 20
0010
0000
0000
0000
0000
0000
2000
0000
0000
0000
0000
0000
3001
0000
0000
0000
0000
0000
1000
0000
0000
0000
0000
0001
,  // measure 21
0100
0000
0000
0000
0000
0000
0010
0000
0000
0000
0000
0000
1000
0000
0000
0000
0000
0000
0001
0000
0000
0000
0000
1000
,  // measure 22
0001
0000
0000
0000
0000
0000
0010
0000
0000
0000
0000
0000
0001
0000
0000
0000
0000
0000
0100
0000
0000
0000
0000
0001
,  // measure 23
0100
0000
0000
0000
0000
0000
0010
0000
0000
0000
0000
1000
0100
0000
0000
0000
0000
0000
1000
0000
0000
0000
0000
0001
,  // measure 24
0100
0000
0000
0000
0000
0000
0001
0000
0000
0000
0000
1000
0001
0000
0000
0000
0000
1000
0001
0000
0000
0000
0000
0010
,  // measure 25
0100
0000
0000
0000
0000
0010
0100
0000
0000
0000
0000
1000
0100
0000
0000
0000
0000
1000
0100
0000
0000
0000
0000
1000
,  // measure 26
0010
0000
0000
0000
0000
1000
0010
0000
0000
0000
0000
0000
0100
0000
0000
0100
0000
0000
0001
0000
0000
0001
0000
0000
,  // measure 27
0010
0000
0010
0000
0001
0000
0001
0000
1000
0001
1000
0001
1000
0001
1000
0001
,  // measure 28
2000
0000
0000
0000
0000
0000
0000
0000
3001
0000
1000
0001
0100
0000
0001
1000
,  // measure 29
0010
0000
1000
0001
0100
0000
0001
1000
0010
1000
0010
1000
0010
0000
0100
0000
,  // measure 30
0001
0100
0001
0100
0001
0000
0010
0000
0001
0000
0001
0000
1000
0000
0001
0000
,  // measure 31
1000
1000
0001
1000
0010
0010
1000
0001
,  // measure 32
0100
0000
0000
0000
0002
0000
0000
0000
1003
0000
0001
0100
0001
0000
1000
0100
,  // measure 33
1000
0000
0001
0010
0001
0000
1000
0100
1000
0100
1000
0100
0010
0000
0001
0000
,  // measure 34
1000
0001
1000
0001
1000
0000
0001
0000
0100
0000
0001
0000
0100
0000
0010
0000
,  // measure 35
1000
0010
1000
0100
0010
0001
1000
0010
,  // measure 36
0100
0000
0000
0000
0002
0000
0000
0000
0013
0000
0010
0100
1000
0000
1000
0100
,  // measure 37
0010
0000
0010
0100
1000
0000
0001
1000
0001
1000
0001
1000
0001
0000
0100
0000
,  // measure 38
0010
1000
0010
1000
0010
0000
1000
0000
0001
0000
0010
0100
1000
0000
0001
0000
,  // measure 39
1000
0000
0100
0000
1000
0000
0001
0000
0100
0010
0100
0000
0001
0100
0001
0000
,  // measure 40
0100
0010
0100
0010
0100
0000
0001
0000
1000
0000
0001
0000
0100
0000
0010
1000
,  // measure 41
0010
0000
1000
0000
0100
0000
0010
0000
0001
0010
0100
0000
0100
1000
0010
0000
,  // measure 42
1000
0000
0001
0000
0100
0001
1000
0000
0010
0000
0100
0000
0010
1000
0001
0000
,  // measure 43
1000
0000
0010
0000
1000
0010
0100
0000
0001
1000
0001
1000
0001
0000
0010
0000
,  // measure 44
0100
2000
3002
0103
,  // measure 45
1001
0020
2030
3010
,  // measure 46
1100
1001
0102
0013
,  // measure 47
1100
0000
0001
0000
1000
1000
0000
1000
,  // measure 48
0001
0000
0000
0000
1001
0000
0000
0000
1001
0000
0000
0000
0010
0000
1000
0010
,  // measure 49
1000
0000
0010
0000
1000
0000
0000
0000
0001
0000
0001
0000
0000
0000
1000
0100
,  // measure 50
1000
0001
0100
0010
0100
0100
0001
0001
,  // measure 51
0010
0010
0100
0100
2000
0000
0000
0000
,  // measure 52
0000
0000
0000
0000
3000
0000
0000
0000
0001
0000
1000
0001
1000
0000
0000
0001
,  // measure 53
0000
0100
0001
0000
0010
0000
0000
0000
0001
0000
0001
1000
0100
0000
0000
1000
,  // measure 54
0000
0001
1000
0000
0010
0000
0100
0000
0010
0000
1000
0001
0100
0000
0000
0001
,  // measure 55
0000
1000
0010
0000
1000
0000
0001
0000
0100
0000
0100
0010
1000
0000
0000
0001
,  // measure 56
0000
0000
0000
1000
0000
0000
0010
0000
0000
0000
0000
0000
1000
0000
0000
0100
0000
0000
0010
0000
0000
0000
0000
0000
0100
0000
0000
0000
1000
0000
0000
0000
0100
0000
0000
0000
1000
0000
0000
0000
0000
0000
0001
0000
0000
0000
0000
0000
,  // measure 57
0010
0000
0000
0000
0100
0000
0000
0000
0010
0000
0000
0000
0100
0000
0000
0000
0000
0000
1000
0000
0000
0000
0000
0000
0001
0000
0000
0000
0000
0000
0100
0000
0000
0010
0000
0000
1000
0000
0000
0000
0000
0000
0001
0000
0000
0000
0000
0000
,  // measure 58
1000
0000
0100
0000
0001
0000
0100
0000
1000
0000
0010
0100
0001
0000
0100
0000
,  // measure 59
0010
0000
1000
0001
0100
0000
0001
0000
0100
0000
0010
0000
1000
0000
0001
0000
,  // measure 60
0010
0000
0100
0000
1000
0000
0001
0000
1000
0000
0100
0000
0010
0001
0010
0000
,  // measure 61
0001
0000
0100
0000
0001
1000
0001
0000
1000
0010
1000
0000
0001
0000
0100
0000
,  // measure 62
0001
1000
0100
0010
0001
1000
0010
0100
,  // measure 63
0001
0100
1000
0100
0010
1000
0100
0010
,  // measure 64
1000
0000
0000
0010
0000
0000
0001
0000
0000
1000
0000
0000
0010
0000
0000
0100
0000
0000
0010
0000
1000
0000
0010
0000
,  // measure 65
0100
0001
0100
0010
1000
0010
0100
0001
0100
0010
1000
0010
,  // measure 66
0100
0000
1000
0000
0100
0000
0010
0000
0100
0000
0010
0000
1000
0000
0000
1000
0000
0000
0001
0000
0000
0001
0000
0000
,  // measure 67
1000
1000
0001
0001
0100
0001
0100
0001
,  // measure 68
0010
0001
1000
0000
1001
0000
0010
0000
,  // measure 69
1100
0010
0101
1001
,  // measure 70
0001
0000
0100
0000
0001
0000
0100
0000
0010
0000
1000
0001
1000
0000
0001
0000
,  // measure 71
0010
0000
0100
0010
0100
0000
1000
0000
0010
0000
1000
0100
1000
0000
0001
0000
,  // measure 72
0100
0010
1000
0000
1001
0000
1100
0000
,  // measure 73
1001
0000
0000
0000
1100
0000
0000
0000
0001
0000
1000
0001
0010
0000
0001
0000
,  // measure 74
1000
0000
0000
0000
0110
0000
0000
0000
1000
0000
0001
0010
0001
0000
1000
0000
,  // measure 75
0100
0000
1000
0001
1000
0000
0010
0000
0100
0000
0001
0010
0001
0000
1000
0000
,  // measure 76
0100
0010
0001
0000
1100
0000
0101
0000
,  // measure 77
1100
0000
0000
0000
0101
0000
0000
0000
0010
0000
1000
0001
0100
0000
0001
0000
,  // measure 78
0010
0000
0000
0000
1001
0000
0000
0000
0010
0000
1000
0100
0010
0000
0010
0100
,  // measure 79
1000
0000
0001
0010
0100
0000
0100
0010
0001
0000
1000
0100
0010
0000
0010
0100
,  // measure 80
1000
0001
1000
0000
1001
0000
0110
0000
,  // measure 81
1001
0000
0000
0000
0110
0000
0000
0000
0010
0000
1000
0001
0100
0000
0010
0000
,  // measure 82
1000
0000
0000
0000
0110
0000
0000
0000
0001
0000
1000
0010
0100
0000
0001
0100
,  // measure 83
0010
0000
1000
0100
0010
0000
0001
0010
0100
0000
1000
0001
0100
0000
0001
0100
,  // measure 84
0010
1000
0001
0000
1010
0000
0110
0000
,  // measure 85
1010
0000
0000
0000
0110
0000
0000
0000
0001
0000
0100
0001
0010
0000
0100
0000
,  // measure 86
1000
0001
0100
0010
1000
0001
1000
0010
,  // measure 87
0100
1000
0001
0010
0100
0001
0010
0001
,  // measure 88
0100
1000
0100
0010
1000
0001
0100
0010
,  // measure 89
1000
0001
0010
0100
0001
0100
1000
0100
,  // measure 90
0010
0001
2000
0000
0000
3000
0000
0000
;

//---------------dance-single - ----------------
#NOTEDATA:;
#CHARTNAME:;
#STEPSTYPE:dance-single;
#DESCRIPTION:;
#CHARTSTYLE:;
#DIFFICULTY:Medium;
#METER:11;
#RADARVALUES:0.594134,0.700328,0.147530,0.070252,0.091328,592.000000,571.000000,21.000000,10.000000,0.000000,0.000000,0.000000,0.000000,0.000000,0.594134,0.700328,0.147530,0.070252,0.091328,592.000000,571.000000,21.000000,10.000000,0.000000,0.000000,0.000000,0.000000,0.000000;
#CREDIT:;
#DISPLAYBPM:*;
#NOTES:
0000
0000
0000
0000
,
0000
0000
0000
0000
,
0000
0000
0000
0000
,
0000
0000
0000
0000
,
0000
0000
0000
0000
0000
0000
0000
0000
0000
0000
0000
0000
1000
0000
0000
0001
0000
0000
0100
0000
0000
0010
0000
1000
,
0001
0000
0000
0010
0000
0000
0100
0000
0000
1000
0000
0001
1000
0000
0000
0010
0000
0000
1000
0000
0000
0100
0000
1000
,
0100
0010
0001
1000
0001
0001
0100
0000
,
0001
0001
0010
0000
0001
1000
0100
0010
,
0001
0000
0000
0000
0000
0000
2000
0000
0000
0000
0000
0000
3010
0000
0000
1000
0000
0001
1000
0000
0000
0010
0000
0000
,
0100
0000
0000
0001
0000
0010
0100
0000
0000
0010
0000
0000
0001
0000
0000
1000
0000
0100
1000
0000
0000
0001
0000
0000
,
0010
0000
0000
0100
0000
0010
0001
0000
0000
1000
0000
0000
1001
0000
0000
1000
0000
0000
0100
0000
0000
0010
0000
0000
,
0101
0000
0000
1000
0000
0000
0100
0000
0000
1000
0000
0000
0001
0000
0100
0010
0000
0100
0010
0000
0000
1000
0000
0000
,
0010
0000
0000
0000
0000
0000
2000
0000
0000
0000
0000
0000
3001
0000
0000
0100
0000
0001
0100
0000
0000
0010
0000
0000
,
1000
0000
0000
0100
0000
1000
0100
0000
0000
1000
0000
0000
0001
0000
0000
0010
0000
0000
0100
0000
0000
1000
0000
0000
,
0001
0000
0000
1000
0000
0001
1000
0000
0000
0010
0000
0000
1000
0000
0000
0100
0000
0010
0100
0000
0000
0010
0000
0000
,
0001
0000
0000
1000
0000
0010
1000
0000
0000
0001
0000
0000
1000
0000
0000
0010
0000
0000
1000
0000
0000
0001
0000
0000
,
1000
0000
0000
0010
0000
0000
1000
0000
0000
0010
0000
0000
1010
0000
0000
0001
0000
0000
0100
0000
0000
0001
0000
0100
,
0010
0000
0000
1000
0000
0000
0010
0000
0000
1000
0000
0100
0010
0000
0000
0001
0000
0000
1000
0000
0000
0010
0000
1000
,
0001
0000
0000
0100
0000
0000
0001
0000
0000
0010
0000
0000
0100
0000
0000
1000
0000
0001
1000
0000
0000
0001
0000
0000
,
1000
0000
0000
1000
0000
0000
0001
0000
0000
0010
0000
0000
0010
0100
0000
0010
0100
0000
1000
0000
0000
1000
0000
0000
,
0001
2000
3010
0000
,
1010
0000
0001
0000
,
1001
0000
1000
0000
,
1010
0000
0001
0000
,
0101
0000
1000
1000
,
1010
0010
0010
0010
,
0110
0001
0001
0001
,
1001
0000
0001
0000
1000
0001
1000
0001
,
2000
0000
0000
0000
3001
0100
0010
0100
,
0001
0100
0010
0100
0001
1000
0100
1000
,
0001
0100
0010
1000
0001
1000
0001
0000
,
1000
0001
1000
0000
0100
0010
0001
1000
,
0010
0000
2000
0000
3001
0010
0100
0010
,
1000
0010
0100
0010
1000
0010
0100
1000
,
0100
0010
0100
1000
0001
1000
0001
1000
,
0010
0100
0010
0100
0001
0010
0100
1000
,
0001
0000
0002
0000
1003
0001
0100
0001
,
1000
0100
0010
0100
1000
0001
0010
0001
,
1000
0010
0100
0010
1000
0100
0001
0100
,
1000
0010
0001
0010
1100
0000
1100
0000
,
0001
0010
0001
0000
1000
0100
1000
0001
,
0100
0010
1000
0001
1000
0100
0010
0001
,
0100
0010
0100
0001
1000
0010
0100
0001
,
0010
0100
0010
0001
1000
0100
1000
0100
,
0010
0002
1003
0000
,
1010
0000
0001
0001
,
1001
0010
0110
0000
,
1001
0000
0000
0000
1000
0100
1000
0000
,
1100
0000
0001
0000
0011
0000
0000
0001
,
1000
0001
0100
0000
0010
0010
1000
0001
,
1001
0001
0010
0100
1000
1000
0001
0001
,
0100
0100
0010
1000
0002
0000
0000
0000
,
0000
0000
0000
0000
0000
0000
0000
0000
1003
0000
0001
1000
0001
0000
0000
0000
,
0010
0000
0100
0000
1000
0000
0000
0000
0001
0000
0100
0001
0100
0000
0000
0000
,
0010
1000
0001
0000
1000
0100
0010
0001
,
0100
0010
0100
0001
1000
0100
0010
0001
,
0100
0010
1000
0001
0010
1000
0010
0001
,
0100
0010
1000
0100
1000
0010
0001
0010
,
0100
0000
0001
0100
0001
1000
0100
1000
,
0001
0100
0010
0100
0001
1000
0100
1000
,
0001
0000
0100
0000
0010
0000
1000
0000
0001
0000
1000
0001
1000
0000
0000
0000
,
0010
0000
0100
0000
0001
0000
0000
0000
1000
0000
0001
0010
0001
0000
0000
0000
,
0010
0000
0001
0000
0100
0000
0010
0000
1000
0000
0001
1000
0001
0000
0000
0000
,
0001
0000
0100
0000
0010
0000
1000
0000
0001
0000
1000
0010
1000
0000
0000
0000
,
0010
0100
1000
0100
0010
0100
0010
0100
,
0001
0100
0001
0100
0010
0100
0010
0100
,
1000
0100
1000
0100
0001
1000
0100
0010
,
0001
1000
0100
0010
0002
0000
0000
0000
,
0000
0000
1003
0000
,
1001
0000
1001
0001
,
1000
0000
1000
0000
0001
1000
0001
1000
,
0010
1000
0010
1000
0001
1000
0001
1000
,
0010
1000
0001
1000
0010
0000
0010
0000
,
1000
0000
1000
0000
1000
0100
0010
0001
,
0100
0000
0001
0000
0100
0001
0100
0001
,
0100
0010
0100
0010
0100
0001
0100
0001
,
1000
0010
1000
0000
0001
0000
0001
0000
,
1000
0000
1000
0000
0100
1000
0100
1000
,
0010
0000
1000
0000
0010
0100
0010
0100
,
0001
0100
0001
0100
0010
0100
0010
0100
,
0001
1000
0100
0100
,
1000
0000
1000
0000
0001
1000
0001
1000
,
0010
0000
1000
0000
0001
0010
0001
0010
,
0100
1000
0100
1000
0001
0010
0001
0010
,
0100
1000
0100
0000
0001
0000
0001
0000
,
1000
0000
1000
0000
0001
1000
0001
1000
,
0010
0000
0100
0000
0001
1000
0001
1000
,
0010
0100
0010
0100
0001
1000
0001
1000
,
0100
0010
0100
0010
0001
1000
0001
1000
,
0010
0100
0010
0100
0001
1000
0001
1000
,
0001
0010
0200
0000
0000
0300
0000
0000
;

//---------------dance-single - ----------------
#NOTEDATA:;
#CHARTNAME:;
#STEPSTYPE:dance-single;
#DESCRIPTION:;
#CHARTSTYLE:;
#DIFFICULTY:Easy;
#METER:7;
#RADARVALUES:0.352265,0.445663,0.014050,0.070252,0.000000,351.000000,349.000000,2.000000,10.000000,0.000000,0.000000,0.000000,0.000000,0.000000,0.352265,0.445663,0.014050,0.070252,0.000000,351.000000,349.000000,2.000000,10.000000,0.000000,0.000000,0.000000,0.000000,0.000000;
#CREDIT:Musey;
#DISPLAYBPM:*;
#NOTES:
0000
0000
0000
0000
,
0000
0000
0000
0000
,
0000
0000
0000
0000
,
0000
0000
0000
0000
,
0000
0000
0000
0000
1000
0001
1000
0000
,
0001
0100
0001
0000
0010
0100
0010
0000
,
0100
1000
0100
0000
1000
0000
1001
0000
,
0001
0000
1001
0000
1000
0100
0010
0001
,
0100
0000
0001
1000
,
0001
0000
1000
0000
0010
1000
0010
0000
,
1000
0100
1000
0000
0001
0010
0001
0000
,
1000
0100
1000
0000
0001
0010
0100
1000
,
0010
0000
1000
0001
,
1000
0001
0100
0000
0010
0000
1000
0000
,
0001
0010
0100
0000
1000
0001
1000
0000
,
0010
1000
0001
0000
0100
0000
0100
0000
,
0001
0000
0001
0000
1000
0001
1000
0000
,
0100
0010
0001
0000
1000
0010
1000
0000
,
0001
0000
0001
0000
0010
0100
1000
0000
,
0001
1000
0010
0000
0100
0001
0100
0001
,
0010
0000
0002
0000
,
1003
0000
2000
0000
,
3001
0000
0002
0000
,
1003
0000
2000
0000
,
3001
0000
0001
0100
,
0001
0100
0001
0100
,
0001
0100
0010
0010
,
1000
1000
0010
0010
,
1000
0000
0001
1000
,
0001
0010
0100
1000
,
0001
0000
1000
0000
0010
1000
0010
0000
,
1000
0010
1000
0000
0001
0000
0001
0000
,
1000
0000
0010
1000
,
0010
1000
0001
0100
,
0010
0000
0100
0000
0001
1000
0001
0000
,
1000
0001
1000
0000
0100
0000
0010
0000
,
0001
0000
1000
1000
,
0001
0001
0100
0100
,
0010
0000
0010
0000
1000
0001
1000
0000
,
0100
0010
0001
0000
1000
0000
1000
0000
,
0001
0001
0100
0010
,
0100
0010
0100
0000
0001
0000
1000
0000
,
0100
0000
0010
0000
0001
0010
0001
0000
,
1000
0100
1000
0000
0010
0000
0010
0000
,
2000
0000
3001
0000
,
0001
0000
1000
0001
,
0010
0001
0100
0000
,
0010
0000
1000
0010
,
1000
0001
0100
0100
,
0001
0000
1000
0100
,
0010
0000
0001
1000
,
0001
1000
0002
0000
,
0000
0000
1003
0000
,
1000
0000
0010
1000
,
0001
0100
0010
0010
,
1000
1000
0001
0100
,
0002
0000
1003
1000
,
0001
0001
0010
0010
,
0100
0100
1000
1000
,
0001
0001
1000
0010
,
1000
0010
0100
0100
,
0001
0100
0001
0000
0010
0000
0100
0000
,
0010
0100
0010
0000
0001
1000
0001
0000
,
1000
0100
1000
0000
0010
0000
0100
0000
,
0001
0001
1000
1000
,
0010
0010
1000
1000
,
0001
0000
0001
0000
1000
0001
1000
0000
,
0001
1000
0001
0000
2000
0000
0000
0000
,
0000
0000
3001
0000
,
0001
0000
1000
0000
,
1000
0000
0001
1000
,
0001
1000
0001
1000
,
0010
1000
0010
0000
0100
0000
0100
0000
,
0001
0001
2000
0000
,
3001
0000
1000
0010
,
1000
0010
1000
0010
,
0100
0001
0100
0000
0001
0000
0001
0000
,
1000
1000
0100
0100
,
0010
0000
0001
0001
,
1000
1000
0010
0010
,
1000
0001
1000
0000
0001
0000
0100
0000
,
0001
0000
0100
0000
0010
0000
1000
0010
,
1000
0000
0001
0001
,
1000
1000
0010
0010
,
1000
0001
0100
0100
,
0001
0000
0001
0000
1000
0000
0001
1000
,
0001
0001
0100
0100
,
0010
0000
0010
0000
1000
0000
1000
0010
,
1000
0001
0100
0100
,
0001
0001
1000
1000
,
0002
0000
0000
0000
0000
0003
0000
0000
;

//---------------dance-single - ----------------
#NOTEDATA:;
#CHARTNAME:;
#STEPSTYPE:dance-single;
#DESCRIPTION:;
#CHARTSTYLE:;
#DIFFICULTY:Beginner;
#METER:4;
#RADARVALUES:0.257926,0.285312,0.000000,0.049177,0.000000,257.000000,257.000000,0.000000,7.000000,0.000000,0.000000,0.000000,0.000000,0.000000,0.257926,0.285312,0.000000,0.049177,0.000000,257.000000,257.000000,0.000000,7.000000,0.000000,0.000000,0.000000,0.000000,0.000000;
#CREDIT:Musey;
#DISPLAYBPM:*;
#NOTES:
0000
0000
0000
0000
,
0000
0000
0000
0000
,
0000
0000
0000
0000
,
0000
0000
0000
0000
,
0000
0000
1000
0001
,
1000
0001
0100
0100
,
0010
0010
1000
1000
,
0010
0010
0100
0001
,
1000
0000
0001
0001
,
1000
1000
0010
0010
,
0100
0001
1000
1000
,
0001
0001
0010
0010
,
0100
0000
1000
1000
,
0001
0001
0100
0010
,
0100
0010
1000
1000
,
0001
0001
0010
0100
,
0010
0100
1000
1000
,
0001
0001
1000
0010
,
1000
0100
0010
0010
,
0001
0001
0100
0010
,
0100
0000
0001
0000
,
0001
0000
1000
0000
,
1000
0000
0010
0000
,
0010
0000
0100
0000
,
0100
0000
0002
0000
,
1003
0000
2000
0000
,
3001
0000
0002
0000
,
0000
0000
0000
0000
,
1003
0000
0010
0100
,
0010
0100
0001
1000
,
0100
0000
1000
1000
,
0001
0000
1000
0001
,
0100
0000
0001
0001
,
0100
0100
0010
0010
,
1000
0000
0001
1000
,
0001
1000
0010
0010
,
0100
0000
0001
0100
,
0001
0100
0010
0010
,
1000
0000
0001
1000
,
0100
1000
0001
0001
,
0010
0000
0001
1000
,
0010
1000
0001
0001
,
0100
0000
0010
1000
,
0010
1000
0001
0001
,
0010
0000
0200
0000
,
1300
0000
1000
0000
,
0001
0100
0100
0000
,
0001
0000
1000
0000
,
0010
0010
1000
0000
,
0001
0000
0100
0000
,
0001
1000
1000
0000
,
0010
0000
2000
0000
,
0000
0000
3001
0000
,
0001
0000
0100
0001
,
0100
0000
0010
0000
,
0010
0000
1000
0010
,
1000
0000
0001
0001
,
1000
1000
0001
0001
,
0100
0000
0001
0001
,
1000
1000
0010
1000
,
0010
0000
0100
0001
,
0100
0000
0001
0010
,
0100
0000
1000
0001
,
1000
0010
0100
0001
,
0100
0001
1000
1000
,
0010
0010
1000
1000
,
0001
0001
0100
0001
,
0100
0010
2000
0000
,
0000
0000
3001
0000
,
0001
0000
1000
0000
,
1000
0000
0001
1000
,
0001
0000
0100
0010
,
1000
0000
0001
0000
,
0001
0000
1000
0100
,
0010
0000
0001
1000
,
0001
0000
1000
0010
,
0100
0000
0001
0000
,
0001
0000
1000
0001
,
1000
0000
0010
1000
,
0100
0000
0100
1000
,
0010
0000
1000
0000
,
1000
0000
0001
0010
,
0100
0000
1000
0001
,
0100
0000
0010
1000
,
0001
0000
0100
0000
,
0100
0000
0001
0010
,
0100
0000
1000
0000
,
1000
0000
0001
1000
,
0010
0000
0100
0000
,
0100
0000
0001
0010
,
0200
0300
0000
0000
;
