#TITLE:Pump Up The Volume!;
#SUBTITLE:;
#ARTIST:Plave;
#TITLETRANSLIT:;
#SUBTITLETRANSLIT:;
#ARTISTTRANSLIT:;
#GENRE:;
#CREDIT:;
#BANNER:AV.avi;
#BACKGROUND:bg.png;
#LYRICSPATH:;
#CDTITLE:;
#MUSIC:audio.ogg;
#OFFSET:-0.320000;
#SAMPLESTART:59.240147;
#SAMPLELENGTH:15.000002;
#SELECTABLE:YES;
#BPMS:0.000000=180.000000
;
#STOPS:
;
#BGCHANGES:0.000=MV.avi=1.400=1=0=1===CrossFade==,
3.000=MV.avi=1.000=0=0=1=====,
99999=-nosongbg-=1.000=0=0=0 // don't automatically add -songbackground-
;
#KEYSOUNDS:;
#ATTACKS:;

//---------------dance-single - ----------------
#NOTES:
     dance-single:
     :
     Challenge:
     14:
     0.648228,0.950059,0.412509,0.364911,0.083295,572.000000,520.000000,52.000000,46.000000,0.000000,0.000000,0.648228,0.950059,0.412509,0.364911,0.083295,572.000000,520.000000,52.000000,46.000000,0.000000,0.000000:
// measure 0
0000
0000
0000
0000
,  // measure 1
0000
0000
0000
0000
,  // measure 2
0000
0000
0000
0000
,  // measure 3
0000
0000
0000
0000
,  // measure 4
0000
0000
0000
0000
,  // measure 5
0000
0000
0000
0000
,  // measure 6
0000
0000
0000
0000
,  // measure 7
0000
0000
0000
0000
,  // measure 8
0000
0000
0000
0000
,  // measure 9
0000
0000
0000
0000
,  // measure 10
0000
0000
0000
0000
0000
0000
0000
0000
1000
0001
1000
0001
1000
0000
0000
0000
,  // measure 11
0110
0000
0100
0001
0100
0010
0000
0010
,  // measure 12
1000
0100
1000
0001
0100
0001
0010
0000
,  // measure 13
0011
0000
1000
0010
1000
0001
0000
0001
,  // measure 14
0100
0010
1000
0100
0010
0001
0100
0000
,  // measure 15
1010
0000
1000
0001
1000
0010
0000
0100
,  // measure 16
0010
0100
0001
0010
0100
1000
0010
0000
,  // measure 17
1001
0000
0100
0010
0100
0002
0003
0000
,  // measure 18
0000
1000
0100
1000
,  // measure 19
1000
0000
1000
0000
1000
0001
0010
0001
,  // measure 20
0100
0010
1000
0001
0100
0000
0001
0000
,  // measure 21
0001
0000
0001
0000
0001
0010
0100
0000
,  // measure 22
0100
0000
0010
0000
0010
0100
1000
0000
,  // measure 23
1000
0000
1000
0000
1000
0001
0020
0000
,  // measure 24
0031
1000
0001
0100
0010
0100
0001
0000
,  // measure 25
0001
0000
0001
0000
0001
0010
0100
0000
,  // measure 26
0100
0000
0000
0000
0100
0000
0000
0000
1000
0100
1000
0100
2000
0000
0000
0000
,  // measure 27
3001
0000
0200
0000
0301
0010
0200
0000
,  // measure 28
1300
0002
0203
0320
,  // measure 29
1030
0001
0100
0010
0100
1000
0200
0000
,  // measure 30
0301
0020
0130
2000
,  // measure 31
3002
0000
0023
0000
0031
0010
0200
0000
,  // measure 32
0310
0100
1000
0010
0100
0001
0011
0000
,  // measure 33
1100
0000
0001
0010
0001
1000
0000
0000
,  // measure 34
0000
0000
0000
0000
0000
0000
0001
0010
,  // measure 35
0001
0010
0200
0000
0310
0000
0100
1000
,  // measure 36
0100
1000
0020
0000
1030
0000
0001
1000
,  // measure 37
0001
1000
0200
0000
0310
0110
0000
1000
,  // measure 38
0100
0000
0010
0100
0010
0000
0001
0000
1000
0000
0000
0000
1000
0000
0010
0000
,  // measure 39
0100
0000
0010
1000
0100
0000
0010
0000
0100
0000
1000
0000
0000
0000
0010
0000
,  // measure 40
0100
0000
0001
0010
0100
0000
0010
0000
0001
0000
1000
0000
0010
0000
0100
0000
,  // measure 41
0001
1000
0010
0100
0001
2000
0000
3000
,  // measure 42
0000
0000
0000
0000
,  // measure 43
0000
0000
0000
0000
,  // measure 44
0000
0000
1000
0001
1000
0010
0100
0000
,  // measure 45
0101
0000
0001
0010
0100
1000
0000
1000
,  // measure 46
0001
0010
0100
0010
0001
0100
0010
0000
,  // measure 47
0110
0000
1000
0010
0100
0001
0000
0001
,  // measure 48
0010
0001
1000
0010
1000
0001
0100
0000
,  // measure 49
0110
0000
0001
1000
0100
1000
0000
1000
,  // measure 50
0010
0100
0001
0010
0100
0010
0002
0000
,  // measure 51
1003
0010
0100
0001
0010
0200
0000
1300
,  // measure 52
0100
0010
0001
1000
0010
0100
0101
0001
,  // measure 53
0011
0010
0110
0100
1100
0100
0110
0010
,  // measure 54
0011
0000
0001
0000
0101
0000
0100
0000
0110
0000
0100
0001
0010
0000
0100
0000
,  // measure 55
0110
0010
0011
0001
0101
0100
0110
0010
,  // measure 56
0100
1000
0200
0000
0000
0000
0301
0010
,  // measure 57
1000
0010
0002
0103
1000
0100
0020
1030
,  // measure 58
0100
1000
0002
0013
0100
0010
0001
0100
,  // measure 59
0010
1000
0002
0000
0013
0100
1000
0002
,  // measure 60
0000
0003
0000
0000
0000
0000
2000
0000
,  // measure 61
3000
0002
0203
0320
,  // measure 62
2030
3002
0000
0023
0030
0000
0002
0000
,  // measure 63
0000
0000
1003
0000
0100
0010
0002
1003
,  // measure 64
0010
0000
1000
0001
1000
0000
0100
0000
0010
0000
0001
0000
0100
0000
0000
0000
,  // measure 65
0011
0000
0001
1000
0010
0100
0000
0100
,  // measure 66
0010
1000
0001
0010
0001
1000
0200
0000
,  // measure 67
1300
0100
0010
0100
1000
0020
0000
0130
,  // measure 68
0010
1000
0010
0100
0001
1000
1010
0010
,  // measure 69
0110
0100
0101
0001
0011
0010
0110
0100
,  // measure 70
1100
0000
1000
0000
1010
0000
0010
0000
0110
0000
0100
0001
0010
0000
0100
0000
,  // measure 71
0110
0010
0011
0001
0101
0100
0110
0010
,  // measure 72
0100
0010
2000
0000
0000
0000
3100
0010
,  // measure 73
0100
1000
0020
0130
0001
0100
2000
3100
,  // measure 74
0001
1000
0200
1300
0010
0100
0001
0010
,  // measure 75
0001
1000
0020
0000
1030
0100
0000
0100
,  // measure 76
1000
0000
0001
1000
0001
0000
0010
0000
0100
0000
1000
0000
0001
0000
0000
0000
,  // measure 77
1100
0000
0100
0010
0001
1000
0000
1000
,  // measure 78
0010
0100
1000
0100
0010
1000
0001
0000
,  // measure 79
1100
0000
0100
1000
0010
0100
0000
0100
,  // measure 80
0001
0010
1000
0010
0001
1000
0010
0000
,  // measure 81
1001
0000
0001
1000
0010
0100
0000
0100
,  // measure 82
0001
0000
0010
0000
0000
0000
0001
0000
0100
0000
0001
0010
0001
0000
0000
0000
,  // measure 83
1001
0000
1000
0100
0010
0001
0000
0001
,  // measure 84
0100
0010
1000
0001
0010
0100
1100
0100
,  // measure 85
0110
0010
0011
0001
0101
0100
0110
0010
,  // measure 86
1010
0000
1000
0000
1100
0000
0100
0000
0110
0000
0010
0001
1000
0000
0010
0000
,  // measure 87
1010
0010
0110
0100
0101
0001
0011
0010
,  // measure 88
0110
0000
0100
0000
2000
0000
0000
0000
0000
0000
0000
0000
3001
0010
0001
0000
,  // measure 89
1000
0100
1000
0000
0001
0100
0001
0000
1000
0010
1000
0000
0010
0100
0010
0000
,  // measure 90
0100
1000
0100
0000
0001
0010
0001
0000
1000
0100
1000
0000
0010
0000
0100
0000
,  // measure 91
0001
1000
0020
0000
1030
0200
0000
2300
,  // measure 92
0000
3000
0000
0000
0000
0000
0000
0000
;

//---------------dance-single - ----------------
#NOTES:
     dance-single:
     :
     Hard:
     10:
     0.507703,0.657733,0.444240,0.571166,0.000000,448.000000,392.000000,56.000000,72.000000,0.000000,0.000000,0.507703,0.657733,0.444240,0.571166,0.000000,448.000000,392.000000,56.000000,72.000000,0.000000,0.000000:
0000
0000
0000
0000
,
0000
0000
0000
0000
,
0000
0000
0000
0000
,
0000
0000
0000
0000
,
0000
0000
0000
0000
,
0000
0000
0000
0000
,
0000
0000
0000
0000
,
0000
0000
0000
0000
,
0000
0000
0000
0000
,
0000
0000
0000
0000
,
0000
0000
1001
0010
,
0010
0000
0010
0000
0100
0001
0000
0001
,
0100
0010
1000
0000
0101
0000
0100
0000
,
0100
0000
0100
0000
0001
0010
0000
0001
,
0010
0100
1000
0000
0101
0000
0001
0000
,
0100
0000
0001
0000
1000
0001
0000
0001
,
0010
0100
1000
0000
0110
0000
1000
0000
,
0010
0000
1000
0000
0001
0200
0000
0300
,
0000
0001
1000
0020
,
0100
0100
0130
0001
,
1000
0001
1000
0000
0100
0000
0020
0000
,
0100
0000
0100
0000
0130
1000
0001
0000
,
1000
0010
0100
0002
,
1000
0000
1000
0000
1003
0100
0010
0000
,
0001
0000
1000
0000
0010
1000
0200
0000
,
0010
0000
0310
0000
0001
1000
0010
0000
,
1000
0100
1001
0210
,
0301
0000
2000
0000
3100
1000
0002
0000
,
0103
0002
2003
3020
,
0130
0010
0200
0000
0301
1000
0002
0000
,
0013
0200
1300
0020
,
2030
3200
0320
0032
,
1003
0001
1000
0000
0010
0100
0010
0000
,
0010
0000
1000
0010
1000
0001
0000
0000
,
0000
0000
0000
1000
,
1000
0001
0020
0000
0031
0000
0100
0000
,
0100
0010
2000
0000
3001
0000
0001
0000
,
0010
0000
0100
0000
1000
0001
1000
0010
,
0100
0010
1000
0000
0001
0000
0100
0001
,
0100
0001
0020
0000
0031
0000
1000
0001
,
1000
0001
0200
0000
0310
0000
1000
0000
,
0001
1000
0010
1000
0002
0000
0103
0000
,
0000
0000
0000
0000
,
0000
0000
0000
0000
,
0000
0000
0000
1001
,
1001
0020
2030
3200
,
1300
0001
1000
0010
0100
0000
0002
0000
,
0010
0000
0103
0000
0010
1000
0200
0000
,
1300
0000
0010
1000
0100
0010
0002
0000
,
0103
0020
2030
3200
,
1300
0100
1000
0010
0100
0000
0002
0000
,
0103
0001
0100
0020
0000
2030
0000
3001
,
0100
0010
0100
0001
1000
0000
1001
0000
,
1001
1001
1001
0110
,
0110
0110
0110
1100
,
1100
1100
1100
0101
,
0101
0000
0102
0000
0000
0000
0103
0010
,
0100
0010
0200
0301
0100
0001
2000
3010
,
1000
0010
0200
0301
0100
0001
1000
0100
,
0010
0001
2000
0000
3100
0020
0000
0031
,
0000
0000
0000
1000
,
0001
2000
0010
3001
,
0100
0002
0010
0203
,
0010
0301
1000
0100
,
0000
0000
1000
0010
1000
0000
1001
0000
,
0110
0020
2030
3200
,
1300
0100
0010
0001
1000
0000
0020
0000
,
1030
0010
1000
0001
0100
0010
2000
0000
,
3001
0000
0100
0010
0100
0000
0110
0000
,
0110
1001
1001
1010
,
1010
0101
0101
1100
,
1100
0000
1010
0000
1010
0000
0001
1000
,
0001
0100
0020
0000
0000
0000
1030
0001
,
0100
0000
0021
0030
0100
0000
2000
3010
,
1000
0000
0210
0300
0001
0000
1000
0001
,
1000
0001
0010
0000
0100
1000
0000
0001
,
0010
0100
1000
0001
0100
0001
2000
0000
,
3001
0000
0002
0000
0103
0010
0200
0000
,
0301
0000
2000
0000
3010
0100
0020
0000
,
1000
0000
1030
0000
0010
1000
0002
0000
,
0103
0001
0010
0100
1000
0001
2000
0000
,
3010
0100
2000
0000
3100
0001
0020
0000
,
0031
0010
0200
0000
1300
0100
0010
0000
,
1001
0000
0001
0000
0010
0100
0000
0100
,
0010
0001
2000
0000
3010
0000
1100
0000
,
1100
0101
0101
0011
,
0011
1010
1010
1001
,
1001
0000
0110
0000
0110
0000
0001
1000
,
0100
0010
0002
0000
0000
0000
1003
0010
,
1010
0000
0002
0103
0101
0000
0200
0310
,
0110
0000
0002
1003
1001
0000
0010
1000
,
0100
0010
0002
0000
1003
0020
0000
0230
,
0000
0300
0000
0000
0000
0000
0000
0000
;

//---------------dance-single - ----------------
#NOTES:
     dance-single:
     :
     Medium:
     7:
     0.372844,0.510876,0.055530,0.444240,0.000000,329.000000,322.000000,7.000000,56.000000,0.000000,0.000000,0.372844,0.510876,0.055530,0.444240,0.000000,329.000000,322.000000,7.000000,56.000000,0.000000,0.000000:
0000
0000
0000
0000
,
0000
0000
0000
0000
,
0000
0000
0000
0000
,
0000
0000
0000
0000
,
0000
0000
0000
0000
,
0000
0000
0000
0000
,
0000
0000
0000
0000
,
0000
0000
0000
0000
,
0000
0000
0000
0000
,
0000
0000
0000
0000
,
0000
0000
0000
1000
,
0001
0000
1000
0000
0010
0100
0000
0100
,
0010
1000
0001
0010
,
0010
0000
0010
0000
0001
1000
0000
1000
,
0010
0100
0001
1000
,
0001
0000
1000
0000
0010
1000
0000
1000
,
0100
0010
0001
0100
,
0001
0000
0100
0000
0100
0001
0000
0000
,
0000
0000
0000
1000
,
1000
1000
0001
0100
,
0100
0100
0010
1000
,
1000
1000
0100
0010
,
0010
0001
0010
0100
,
0100
0100
1000
0010
,
0010
0010
1000
0001
,
0001
0001
0100
0010
,
0100
0001
1001
0001
,
0100
0000
0001
0000
1000
0000
0010
1000
,
0010
1000
0001
0100
,
0001
0000
0010
0001
0010
0000
0200
0000
,
1300
0020
1030
0002
,
0023
0230
2300
3200
,
0320
0032
0103
0010
,
1000
0000
0010
0000
0010
1000
0000
0000
,
0000
0000
0000
1000
,
0001
2000
0000
3001
,
0100
0000
0002
0000
0000
0003
0010
0000
,
0100
1000
0010
0100
,
0001
0000
0010
0000
0011
0000
0001
1000
,
0002
0000
0100
0000
0103
0000
0010
1000
,
0020
1000
1030
0100
,
0010
0001
1000
0020
,
0030
0000
0000
0000
,
0000
0000
0000
0000
,
0000
0000
0000
1001
,
0001
0200
0320
2030
,
3001
0020
0000
0032
0003
0000
0200
0000
,
0000
0000
0310
0000
1000
0001
2000
0000
,
3100
0000
0010
0001
0010
0100
2000
0000
,
3010
2000
3002
0203
,
0310
2000
0000
3002
0003
0000
0001
0000
,
1000
0001
2000
0000
3010
0100
0020
0000
,
1030
0000
0100
0010
0001
0000
1000
0000
,
1000
1000
1000
0001
,
0001
0001
0001
0100
,
0100
0100
0100
0010
,
0100
0010
2000
0000
0000
0000
3001
0000
,
0100
0002
1003
0020
,
1030
0000
0200
0000
0310
0000
0001
0010
,
0001
0000
1000
0100
1000
0000
0020
0000
,
0000
0030
0000
1000
,
0000
0001
1000
0002
,
0000
0103
0000
0020
,
0000
1030
0000
0001
,
0000
1000
0001
0100
,
0001
0000
0100
0000
0010
0000
1000
0010
,
1000
0001
0100
0002
,
0013
0000
2000
0000
3100
0000
0010
0100
,
0010
1000
0001
0000
0100
0000
0010
0000
,
0010
0010
0010
0100
,
0100
0100
0100
0001
,
0001
0000
0001
0000
0001
0000
1000
0001
,
1000
0200
0000
0310
,
0001
2000
3010
0200
,
0301
0000
0020
0000
0031
0000
1000
0001
,
1000
0100
0010
0001
,
1000
0010
1000
0010
0100
0000
0001
0000
,
1000
0200
0310
0002
,
1003
0020
1030
0200
,
1300
0000
0001
0000
0100
0010
2000
0000
,
3001
0000
0100
0001
0100
0000
0020
0000
,
1030
0200
0310
0002
,
1003
0020
0130
0010
,
1000
0000
0001
0000
1000
0001
0010
0000
,
0100
0000
1000
0001
1000
0000
0010
0000
,
0010
0010
0010
0100
,
0100
0100
0100
0001
,
0001
0000
0001
0000
0001
0000
1000
0100
,
1000
0002
0000
0013
,
0011
0000
0002
0003
1001
0000
0020
0030
,
1010
0000
0200
0300
0110
0000
0010
0100
,
0001
0010
0100
2000
,
3000
0000
0000
0000
;

//---------------dance-single - ----------------
#NOTES:
     dance-single:
     :
     Easy:
     3:
     0.196055,0.329313,0.007933,0.285583,0.000000,173.000000,172.000000,1.000000,36.000000,0.000000,0.000000,0.196055,0.329313,0.007933,0.285583,0.000000,173.000000,172.000000,1.000000,36.000000,0.000000,0.000000:
0000
0000
0000
0000
,
0000
0000
0000
0000
,
0000
0000
0000
0000
,
0000
0000
0000
0000
,
0000
0000
0000
0000
,
0000
0000
0000
0000
,
0000
0000
0000
0000
,
0000
0000
0000
0000
,
0000
0000
0000
0000
,
0000
0000
0000
0000
,
0000
0000
0000
1000
,
0001
1000
0000
0020
,
0000
0130
0000
0001
,
0100
0001
0000
2000
,
0000
3001
0000
0100
,
0001
0100
0000
0020
,
0000
1030
0000
0001
,
1000
0100
0000
0100
,
0000
0000
0000
0010
,
0000
0010
0000
0001
,
0000
0001
0000
1000
,
0000
1000
0000
0010
,
0000
0010
0000
1000
,
0001
0100
0000
0001
,
1000
0010
0000
1000
,
0001
0100
0000
0002
,
0000
0013
0000
0100
,
0010
0100
0000
2000
,
0000
3010
0000
1000
,
0001
0100
0000
0002
,
0000
0013
0000
0100
,
0010
0100
1000
0010
,
1000
0001
0100
0020
,
0000
1030
0000
1000
,
0000
0000
0000
0002
,
0000
1003
0000
2000
,
0000
3001
0000
0020
,
0000
0130
0000
0100
,
0200
0310
0000
1000
,
0100
0010
0001
0010
,
0100
1000
0001
0200
,
0000
0001
0000
0301
,
0000
0000
0000
0000
,
0000
0000
0000
0000
,
0000
0000
0000
2000
,
0000
3001
0000
0100
,
0001
0100
0000
0020
,
0000
1030
0000
2000
,
0000
3010
1000
0020
,
0000
0130
0000
0001
,
0000
0010
0000
0200
,
0000
1300
0000
0002
,
0000
1003
0000
0001
,
0000
0001
0000
1000
,
0000
1000
0000
0010
,
0000
0010
0000
1000
,
0000
1000
0000
0002
,
0000
0013
0000
0020
,
0000
0031
0000
1000
,
0001
1000
0000
0020
,
0000
0000
0000
0230
,
0000
0000
0000
0301
,
0000
0000
0000
0002
,
0000
0000
0000
0013
,
0000
0000
0000
1001
,
0000
0010
0000
1000
,
0000
0100
0000
0020
,
0000
0031
0000
0002
,
0000
1003
0000
0010
,
0000
0010
0000
1000
,
0000
1000
0000
0001
,
0000
0001
0000
0100
,
0000
0100
0000
0020
,
0000
1030
0000
2000
,
0000
3001
0000
0100
,
0000
0100
0000
0001
,
0000
0001
0000
2000
,
0000
3010
0000
0020
,
0000
0130
0000
0200
,
0000
0301
0000
0001
,
0000
0010
0000
0200
,
0000
1300
0000
2000
,
0000
3010
0000
0200
,
0000
0301
0000
0001
,
0000
0010
0000
0100
,
0000
0100
0000
0010
,
0000
0010
0000
0100
,
0000
0100
0000
0010
,
0000
0010
0000
0002
,
0000
1003
0000
2000
,
0000
3001
0000
0100
,
0000
0100
0000
0002
,
0000
0003
0000
0000
;

//---------------dance-single - ----------------
#NOTES:
     dance-single:
     :
     Beginner:
     1:
     0.122393,0.181960,0.000000,0.111060,0.000000,108.000000,108.000000,0.000000,14.000000,0.000000,0.000000,0.122393,0.181960,0.000000,0.111060,0.000000,108.000000,108.000000,0.000000,14.000000,0.000000,0.000000:
0000
0000
0000
0000
,
0000
0000
0000
0000
,
0000
0000
0000
0000
,
0000
0000
0000
0000
,
0000
0000
0000
0000
,
0000
0000
0000
0000
,
0000
0000
0000
0000
,
0000
0000
0000
0000
,
0000
0000
0000
0000
,
0000
0000
0000
0000
,
0000
0000
0000
1000
,
0000
1000
0000
1000
,
0000
0000
0000
0001
,
0000
0001
0000
0001
,
0000
0000
0000
0010
,
0000
0010
0000
0010
,
0000
0000
0000
0100
,
0000
0100
0000
0100
,
0000
0000
0000
0001
,
0000
0000
0000
0001
,
0000
0000
0000
1000
,
0000
0000
0000
1000
,
0000
0000
0000
0010
,
0000
0000
0000
0010
,
0000
0000
0000
0100
,
0000
0000
0000
0100
,
0000
0000
0000
0001
,
0000
1000
0000
0001
,
0000
0000
0000
0010
,
0000
0100
0000
0010
,
0000
0000
0000
0001
,
0000
1000
0000
0010
,
0000
1000
0000
0010
,
0000
0000
0000
0010
,
0000
0000
0000
2000
,
0000
0000
0000
3002
,
0000
0000
0000
0023
,
0000
0000
0000
0230
,
0000
0000
0000
1300
,
0000
0001
0000
1000
,
0000
0010
0000
0200
,
0000
0000
0000
0310
,
0000
0000
0000
0000
,
0000
0000
0000
0000
,
0000
0000
0000
1000
,
0000
1000
0000
2000
,
0000
0000
0000
3001
,
0000
0001
0000
0002
,
0000
0000
0000
0103
,
0000
0100
0000
0200
,
0000
0000
0000
0320
,
0000
0000
0000
1030
,
0000
1000
0000
0001
,
0000
0001
0000
1000
,
0000
1000
0000
0010
,
0000
0010
0000
0100
,
0000
0100
0000
0002
,
0000
0000
0000
0013
,
0000
0000
0000
0020
,
0000
0000
0000
0130
,
0000
0000
0000
1000
,
0000
0000
0000
0000
,
0000
0000
0000
0001
,
0000
0000
0000
0000
,
0000
0000
0000
1000
,
0000
0000
0000
0001
,
0000
0000
0000
0100
,
0000
0100
0000
0100
,
0000
0000
0000
0010
,
0000
0010
0000
0010
,
0000
0000
0000
1000
,
0000
1000
0000
1000
,
0000
0000
0000
0002
,
0000
0000
0000
0103
,
0000
0000
0000
0200
,
0000
0000
0000
0310
,
0000
0000
0000
1000
,
0000
0001
0000
1000
,
0000
0000
0000
0010
,
0000
1000
0000
0100
,
0000
0000
0000
1000
,
0000
0001
0000
0010
,
0000
0000
0000
0001
,
0000
0100
0000
0010
,
0000
0000
0000
1000
,
0000
1000
0000
0001
,
0000
0001
0000
0100
,
0000
0100
0000
0010
,
0000
0010
0000
2000
,
0000
0000
0000
3001
,
0000
0000
0000
0001
,
0000
0001
0000
0001
;
