#VERSION:0.83;
#TITLE:Plot Twist;
#SUBTITLE:;
#ARTIST:TWS;
#TITLETRANSLIT:;
#SUBTITLETRANSLIT:;
#ARTISTTRANSLIT:;
#GENRE:;
#ORIGIN:;
#CREDIT:;
#BANNER:AV.avi;
#BACKGROUND:bg.png;
#PREVIEWVID:;
#JACKET:jacket.png;
#CDIMAGE:;
#DISCIMAGE:;
#LYRICSPATH:;
#CDTITLE:;
#MUSIC:audio.ogg;
#OFFSET:-0.191000;
#SAMPLESTART:45.559982;
#SAMPLELENGTH:15.000004;
#SELECTABLE:YES;
#BPMS:0.000=112.000;
#STOPS:147.500=0.540;
#DELAYS:;
#WARPS:148.000=17.000;
#TIMESIGNATURES:0.000=4=4;
#TICKCOUNTS:0.000=4;
#COMBOS:0.000=1;
#SPEEDS:0.000=1.000=0.000=0;
#SCROLLS:0.000=1.000,
147.000=0.500,
152.000=1.000,
165.000=0.500,
169.000=1.000;
#FAKES:;
#LABELS:0.000=Song Start;
#BGCHANGES:0.000=MV.avi=1.000=1=0=0=StretchNoLoop==CrossFade==,
99999=-nosongbg-=1.000=0=0=0 // don't automatically add -songbackground-
;
#KEYSOUNDS:;
#ATTACKS:
;

//---------------dance-single - ----------------
#NOTEDATA:;
#CHARTNAME:;
#STEPSTYPE:dance-single;
#DESCRIPTION:;
#CHARTSTYLE:;
#DIFFICULTY:Hard;
#METER:12;
#RADARVALUES:0.514678,0.617057,0.415702,0.732427,0.326623,364.000000,322.000000,42.000000,74.000000,0.000000,0.000000,0.000000,0.000000,52.000000,0.514678,0.617057,0.415702,0.732427,0.326623,364.000000,322.000000,42.000000,74.000000,0.000000,0.000000,0.000000,0.000000,52.000000;
#CREDIT:Musey;
#NOTES:
// measure 0
0000
0000
0000
0000
,  // measure 1
1002
0000
0013
0000
0001
0100
0100
0010
,  // measure 2
1000
0010
0001
0001
0010
0200
0000
0000
,  // measure 3
0301
0001
2000
0000
3001
0010
0010
0100
,  // measure 4
0001
0100
1000
1000
0100
0020
0000
0030
,  // measure 5
0110
0000
0002
1000
0000
1003
0001
0100
,  // measure 6
0110
0001
1000
0100
0010
0001
0000
0001
,  // measure 7
0100
0010
2000
0000
0010
0001
3001
1000
,  // measure 8
0001
1000
0010
0010
0100
0001
0010
0010
,  // measure 9
0100
0010
0002
0000
0103
1000
0100
0010
,  // measure 10
2000
0000
3100
0001
0100
0010
0200
0000
,  // measure 11
1300
0000
0000
0000
1010
0000
0100
0010
1000
0000
0010
0000
1000
0000
0001
0010
,  // measure 12
0100
1000
1001
0100
0010
2000
0000
3000
,  // measure 13
1001
0100
0002
0000
1003
0100
0001
2000
,  // measure 14
0000
0000
3100
0000
0001
0000
0001
0000
0010
0000
0100
0000
0000
0000
0010
0100
,  // measure 15
0010
0000
0100
0000
2000
0000
0000
0000
3001
0000
0010
0000
1000
0000
1000
0010
,  // measure 16
0001
0000
0100
0000
0001
0000
0001
1000
0000
0010
0000
0200
0000
0300
0110
0000
,  // measure 17
0110
0000
2000
0000
3010
0100
1000
0100
,  // measure 18
0010
0000
0000
0000
1000
0000
0010
1000
0010
0100
0000
0002
0000
0000
0013
0000
,  // measure 19
0010
0000
0022
0033
0000
0000
0220
0330
,  // measure 20
0000
0000
0000
0000
0000
1000
0002
0000
0003
0000
0000
0000
0000
0000
0000
0000
0000
0000
0000
0000
0000
0000
0000
0000
,  // measure 21
0202
0303
2020
3030
0000
0110
0110
1000
,  // measure 22
0100
0010
0202
0303
2020
3030
0202
0303
,  // measure 23
0000
0100
0220
0330
0000
0010
1010
1000
,  // measure 24
0001
0100
0220
0330
2002
3003
0220
0330
,  // measure 25
1001
0000
0000
0001
0100
0001
0200
0000
0000
0300
0000
0000
0110
0000
0000
0001
0000
0000
0010
0000
0000
0100
0000
0000
,  // measure 26
0010
0001
0202
0303
0220
0330
2002
3003
,  // measure 27
1000
0000
0010
0000
1000
0010
1000
0010
0100
0001
0100
0001
0100
0010
0100
0010
,  // measure 28
1000
0000
0000
0001
0000
0000
0100
0000
0000
0010
0000
0000
2000
0000
0000
0000
0000
0000
0000
0000
0000
3000
0000
0000
0000
0000
0000
0000
0000
0000
0001
0000
1000
0000
0001
0000
1000
0000
0000
0000
0000
0000
0000
0000
0000
0000
0000
0000
,  // measure 29
0001
0000
0010
0100
1000
0000
1000
0000
0100
0000
0000
1000
0000
0001
0000
0010
,  // measure 30
0100
0000
1000
0100
0010
0000
0010
0000
0100
0000
0000
0100
0000
0010
0000
0100
,  // measure 31
1000
0000
0001
1000
0010
0000
0010
0000
0100
0000
0000
0001
0000
1000
0000
0010
,  // measure 32
0000
0000
0010
0000
0100
0000
0001
1000
0100
0000
0010
0000
0001
1000
0001
0100
,  // measure 33
0010
0000
0010
0100
0001
0000
0001
0000
0010
0000
0000
0010
0000
0100
0000
1000
,  // measure 34
0100
0010
0001
1000
0010
0000
0010
0000
0100
0000
0000
0100
0000
0001
0000
1000
,  // measure 35
0100
1000
0100
0010
0001
0000
0001
0010
0100
0000
1000
0000
0010
1000
0010
0100
,  // measure 36
0001
0010
0002
0000
0000
1000
1003
0000
,  // measure 37
0002
0000
0003
0000
0M00
0000
0M00
0000
0M00
0M00
0M00
0000
00M0
0000
0M00
0000
,  // measure 38
00M0
0000
0MM0
0000
M000
0000
M00M
M00M
M00M
0000
0M00
0000
00M0
0000
MM00
MM00
,  // measure 39
MM00
0000
00M0
0000
M000
0000
00MM
00MM
00MM
0000
MM00
MM00
MM00
0000
0MM0
0000
,  // measure 40
0MM0
0MM0
0MM0
0MM0
0MM0
0000
0000
0000
0000
0000
0000
0000
0000
0000
0000
0000
,  // measure 41
0000
0000
0002
0003
0100
0100
0200
0300
,  // measure 42
0020
0230
0320
0030
0110
1000
2002
3003
,  // measure 43
0100
0010
2200
3300
0010
1000
0022
0033
,  // measure 44
2200
3300
0220
0330
2002
3003
0110
0010
,  // measure 45
0100
0010
2002
3003
0000
0011
0022
0033
,  // measure 46
1010
1000
1002
0000
1003
0001
0010
0100
,  // measure 47
1000
0000
0001
0000
0100
0000
0010
0100
0020
0000
1000
0030
1000
0000
0001
0010
,  // measure 48
0001
1000
0100
1000
0001
0000
0100
0001
0010
0000
0100
0000
1000
0001
0100
0001
,  // measure 49
1000
0010
2000
0000
3000
0011
2002
3003
;

//---------------dance-single - ----------------
#NOTEDATA:;
#CHARTNAME:;
#STEPSTYPE:dance-single;
#DESCRIPTION:;
#CHARTSTYLE:;
#DIFFICULTY:Medium;
#METER:8;
#RADARVALUES:0.395906,0.419599,0.346418,0.386009,0.054437,280.000000,245.000000,35.000000,39.000000,0.000000,0.000000,0.000000,0.000000,28.000000,0.395906,0.419599,0.346418,0.386009,0.054437,280.000000,245.000000,35.000000,39.000000,0.000000,0.000000,0.000000,0.000000,28.000000;
#CREDIT:Musey;
#NOTES:
0000
0000
0000
0000
,
1000
0000
0001
0000
0100
0100
0010
1000
,
0010
0000
0100
0100
0001
2000
0000
0000
,
3001
0000
0100
0000
0001
0010
0100
0100
,
0010
0000
0001
0001
0100
0002
0000
0000
,
1003
1010
0010
0010
,
0110
0000
0001
1000
0100
1000
0000
1000
,
0001
0100
0020
0000
1000
0000
0130
0000
,
0110
0000
0001
1000
0100
2000
0000
3001
,
0100
0001
0020
0000
0031
0100
0001
1000
,
0020
0000
1030
0001
1000
0001
0200
0000
,
0301
0011
0110
1001
,
1010
0000
0001
0100
0001
0200
0000
0000
,
0301
0000
1100
0000
0011
0000
0100
0010
,
0001
1000
0010
0010
1000
0020
0000
0130
,
0001
0100
0020
0000
1030
0100
0010
0001
,
0000
0001
0100
0010
1000
0001
0200
0300
,
0110
1002
1003
1020
,
1030
0000
1000
0100
0010
0001
0200
0000
,
0301
0102
0103
0210
,
0310
1002
0000
0000
,
1003
0000
0110
0000
0000
0010
0100
0010
,
1000
0100
1100
0000
0011
0000
0110
0000
,
0000
0100
0110
0000
0000
0001
1000
0010
,
0100
0010
1010
0000
1100
0000
0011
0000
,
1100
0000
1002
0000
1003
0010
1000
0010
,
0001
0010
0200
0000
0302
0000
1003
0000
,
1100
0001
1001
0100
,
1100
0000
0210
0000
0000
0310
0100
0000
,
0110
0000
0000
0000
0001
0000
1000
0000
0001
0000
0000
0001
0000
0100
0000
0010
,
0000
0000
0000
0000
0010
0000
1000
0000
0010
0000
0000
0100
0000
0001
0000
0100
,
0000
0000
0000
0000
0001
0000
1000
0000
0100
0000
0000
1000
0000
0100
0000
1000
,
0000
0020
0230
0302
,
0203
0000
0301
1000
0001
1000
0100
0100
,
0010
0000
0100
0010
0001
0010
0001
0001
,
1000
0000
0010
1000
0001
0100
0010
1000
,
0001
1000
0200
0000
0000
1000
1300
0000
,
0020
0030
0M00
0M00
0M00
0000
00M0
0000
,
M0M0
00M0
M0M0
00M0
0M00
0M00
0M0M
0M00
,
000M
000M
00MM
000M
00M0
00M0
0MM0
00M0
,
0MM0
0000
0000
0000
,
0000
0000
0020
0030
0100
0100
0100
0000
,
0010
0000
1020
0000
1030
0010
0200
0000
,
0301
0100
0002
0000
0013
0001
0020
0000
,
0130
0000
0110
0000
0001
0000
1001
0100
,
0001
0100
0020
0000
1030
0010
0020
0000
,
0130
0000
1002
0000
1003
0100
0010
0001
,
0010
0100
2000
0000
3020
0000
0230
0000
,
0301
1000
0100
0010
0001
0010
0100
1000
,
0010
0100
0001
1000
0100
0000
0000
0000
0000
0000
0001
0000
0022
0000
0033
0000
;

//---------------dance-single - ----------------
#NOTEDATA:;
#CHARTNAME:;
#STEPSTYPE:dance-single;
#DESCRIPTION:;
#CHARTSTYLE:;
#DIFFICULTY:Easy;
#METER:4;
#RADARVALUES:0.248855,0.270825,0.069284,0.306827,0.000000,176.000000,169.000000,7.000000,31.000000,0.000000,0.000000,0.000000,0.000000,10.000000,0.248855,0.270825,0.069284,0.306827,0.000000,176.000000,169.000000,7.000000,31.000000,0.000000,0.000000,0.000000,0.000000,10.000000;
#CREDIT:Musey;
#NOTES:
0000
0000
0000
0000
,
1001
0100
0100
0010
,
0010
1000
1000
0001
,
0101
0001
0001
1000
,
1000
0010
0010
0100
,
0110
1000
1000
0200
,
1300
0000
0001
0000
0100
0000
0001
0100
,
0001
2000
3010
0020
,
0130
0000
0001
0100
0001
0000
2000
0000
,
3001
0000
0001
0000
0100
0000
0001
0010
,
0100
1000
0001
1000
,
0010
0200
0310
0020
,
0130
0000
2000
0000
3010
0000
0001
1000
,
0001
0200
0000
0301
,
1000
0100
0100
1000
,
0001
0200
0000
0310
,
1000
0000
0001
0010
0100
0000
1000
0000
,
1000
0002
0000
0103
,
0100
0000
0010
1000
0100
0000
1000
0000
,
0001
0020
0000
0230
,
0000
2300
0000
0000
,
3001
0000
0100
0000
0000
0100
0001
0000
,
0000
0001
0100
0010
,
0000
0000
1000
0000
0000
1000
0010
0000
,
0000
0100
0001
0200
,
0000
0301
1000
0001
,
0010
0100
0010
0001
,
1000
0010
0010
1000
,
1000
0002
0000
0103
,
0000
1020
0000
1030
,
0001
0102
0000
0103
,
0010
1200
0000
1300
,
0001
0001
0100
0010
,
1000
0200
1300
2000
,
3001
0002
0103
0200
,
0310
0020
1030
2000
,
3100
0000
0002
0100
0000
1000
1003
0000
,
0010
0000
0M00
0000
,
0MM0
0000
M000
0000
00M0
0000
0M00
00M0
,
0M00
000M
0000
0000
,
0000
0000
0000
0000
,
0000
0010
0000
0100
,
0000
0110
1000
0010
,
0100
0010
0100
0000
0001
0000
1000
0000
,
0010
0100
0100
0010
,
1000
0002
0103
2000
,
3001
0000
0200
0000
0310
0000
1000
0010
,
1000
0002
0103
2000
,
3001
0000
0010
0000
0100
0000
1000
0001
,
1000
0020
0000
0030
;

//---------------dance-single - ----------------
#NOTEDATA:;
#CHARTNAME:;
#STEPSTYPE:dance-single;
#DESCRIPTION:;
#CHARTSTYLE:;
#DIFFICULTY:Beginner;
#METER:2;
#RADARVALUES:0.144223,0.193004,0.019795,0.128670,0.000000,102.000000,100.000000,2.000000,13.000000,0.000000,0.000000,0.000000,0.000000,7.000000,0.144223,0.193004,0.019795,0.128670,0.000000,102.000000,100.000000,2.000000,13.000000,0.000000,0.000000,0.000000,0.000000,7.000000;
#CREDIT:Musey;
#NOTES:
0000
0000
0000
0000
,
0000
1000
1000
0010
,
0000
0100
0100
0010
,
0000
1000
0001
1000
,
0000
0001
0100
0001
,
0000
1000
0000
1000
,
0000
0010
0100
0010
,
0000
1000
0000
0001
,
0000
0100
0001
0100
,
0000
1000
1000
0010
,
0000
0001
1000
0001
,
0000
0100
0000
0100
,
0000
0020
0000
0130
,
0000
1000
0100
1000
,
0000
0001
0000
0001
,
0000
0010
0001
0010
,
0000
1000
0000
1000
,
0000
0001
0000
0001
,
0000
0100
0010
0100
,
0000
0001
0000
1000
,
0000
0002
0000
0000
,
0000
0103
0000
0100
,
0000
0010
0000
0010
,
0000
1000
0000
1000
,
0000
0010
0000
0010
,
0000
0110
0000
0001
,
0000
1000
0000
1000
,
0000
0100
0000
0100
,
0000
2000
0000
3001
,
0000
0100
0000
0100
,
0000
0010
0000
0010
,
0000
1000
0000
1000
,
0000
0002
0000
0103
,
0000
0001
1000
0000
,
0000
1000
0001
0000
,
0000
0010
1000
0000
,
0000
2000
0000
3000
,
1002
0000
1003
0001
,
0200
0000
0301
1000
,
0000
0000
0000
0000
,
0000
0000
0000
0000
,
0000
1002
0000
1003
,
0001
0200
0000
0301
,
1000
0002
0000
2003
,
0000
3020
0000
0230
,
0000
0301
0001
1000
,
0000
0010
1000
0010
,
0000
0200
0000
0301
,
0000
2000
0000
3000
;
