#TITLE:Please Please Please;
#SUBTITLE:;
#ARTIST:Sabrina Carpenter;
#TITLETRANSLIT:;
#SUBTITLETRANSLIT:;
#ARTISTTRANSLIT:;
#GENRE:;
#CREDIT:;
#BANNER:AV.avi;
#BACKGROUND:bg.png;
#LYRICSPATH:;
#CDTITLE:;
#MUSIC:audio.ogg;
#OFFSET:-0.218000;
#SAMPLESTART:53.932758;
#SAMPLELENGTH:14.999991;
#SELECTABLE:YES;
#BPMS:0.000000=107.000000
;
#STOPS:
;
#BGCHANGES:0.000=MV.avi=1.000=1=0=1===CrossFade==,
99999=-nosongbg-=1.000=0=0=0 // don't automatically add -songbackground-
;
#KEYSOUNDS:;
#ATTACKS:;

//---------------dance-single - ----------------
#NOTES:
     dance-single:
     :
     Challenge:
     11:
     0.404050,0.456308,0.052796,0.279064,0.358258,375.000000,368.000000,7.000000,37.000000,0.000000,0.000000,0.404050,0.456308,0.052796,0.279064,0.358258,375.000000,368.000000,7.000000,37.000000,0.000000,0.000000:
0000
0000
0000
0000
,
0000
0000
0000
0000
,
0000
0000
0000
0000
,
0000
0000
0000
0000
,
0000
0000
0000
0000
,
0000
0000
0000
0000
,
0000
0000
0000
0000
,
0000
0000
0000
0000
0000
0000
0000
0000
0000
0000
0000
0000
0000
0000
0000
0010
,
0000
0010
0000
1000
0100
0000
0010
0000
0200
0000
0000
0000
1300
0000
0000
1000
,
0000
0100
0000
0010
0001
0000
1000
0000
0020
0000
0000
0000
0130
0000
0001
0010
,
0000
0001
0000
0100
0010
0000
1000
0000
0002
0000
0000
0000
0103
0000
0001
1000
,
0001
0100
0010
0000
0100
0000
0001
0000
0020
0000
0000
0000
0130
0000
0000
1000
,
0000
1000
0000
0100
0010
0000
0001
0000
1000
0000
0000
0000
0010
0000
1000
0001
,
0000
0001
0100
0000
1000
0000
0100
0000
0002
0000
0000
0000
0013
0000
0001
0000
,
1000
0001
0000
0001
0100
0000
0001
0000
1000
0010
0000
0010
1000
0000
0100
0000
,
0100
1000
0001
0100
0000
0010
1000
0000
0001
0000
0010
0100
1000
0000
0001
0000
,
0010
0001
0000
0001
0100
0000
0010
0000
2000
0000
0000
0000
3001
0000
1000
0010
,
0100
0010
0001
0000
0010
0000
0100
0000
0002
0000
0000
0000
1003
0000
0000
0010
,
0000
0010
1000
0000
0001
0000
0010
0000
0002
0000
0000
0000
0103
0000
0000
0010
,
0000
0010
0000
1000
0010
0000
0100
0000
0002
0000
0000
0000
1003
0000
0000
0010
,
0000
0010
0100
1000
0100
0000
0001
0000
2000
0000
0000
0000
3001
0000
1000
0010
,
0001
0010
0100
0000
0010
0000
0100
0000
0002
0000
0000
0000
1003
0000
0100
0000
,
0010
0001
0000
0001
0100
0000
0010
0000
1000
0001
0000
0001
1000
0000
0001
0000
,
0100
0010
0000
0010
0100
0000
0001
0000
0010
0000
0001
0010
0001
0000
0001
0000
,
0200
0000
0310
1000
0200
0000
0310
0001
,
0200
0000
0000
0000
0310
0000
1000
0000
0001
0000
0000
0010
0001
0000
0100
0000
,
0001
1000
0100
1000
0010
0000
0100
0000
0001
0000
0000
0000
0101
0000
0000
0000
,
0010
1000
0000
1000
0001
0000
0100
0000
0020
0000
0100
0000
0130
0000
0001
0000
,
0020
0000
0031
0100
0020
0000
0130
0001
,
0020
0000
0000
0000
0031
0000
1000
0000
0100
0000
0000
1000
0001
0000
0010
0000
,
0001
0000
0000
1000
0100
0000
0010
0000
0100
0000
0000
1000
0001
0000
1000
0000
,
0010
0000
1000
0001
1000
0000
0100
0000
0010
0000
0001
0010
0001
0000
1000
0000
,
0100
0010
0100
0000
1000
0000
0001
0000
0010
0000
0000
0000
1001
0000
0000
0000
,
0100
0010
1000
0000
1000
0000
0001
0000
0010
0000
0000
0000
1001
0000
0000
0000
,
0001
0010
0100
0000
0010
0000
0100
0000
1000
0000
0000
0000
1010
0000
0000
0000
,
1000
0010
0100
0000
0001
0000
1000
0000
0100
0000
0000
0000
1000
0000
0100
0000
,
0020
0000
0031
0010
0200
0000
1300
0100
,
0020
0000
0130
0010
1001
0000
1100
0000
,
1001
0000
0000
0000
0010
0000
0001
0000
1000
0010
1000
0000
0100
0000
1000
0000
,
0010
0100
0000
0100
0001
0000
0010
0000
0100
0000
1000
0010
1000
0000
0001
0000
,
0100
0000
0000
0000
0001
0000
1000
0000
0010
1000
0000
1000
0001
0000
0010
0000
,
0200
0000
0000
0000
1300
0000
0001
0000
0010
0001
0000
0001
0010
0000
0001
0000
,
2000
0000
0000
0000
3100
0000
1000
0000
0100
1000
0000
1000
0001
0000
0100
0000
,
1000
0100
0000
0100
1000
0000
0100
0000
0001
1000
0000
1000
0001
0000
0010
0000
,
0002
0000
0000
0000
1003
0000
0100
0000
0010
0001
0000
0001
1000
0000
0010
0000
,
2000
0000
0000
0000
3100
0000
0010
0000
0001
1000
0000
1000
0001
0000
0001
0000
,
0200
0000
0000
0000
0310
0000
1000
0000
0001
1000
0000
1000
0001
0000
0100
0000
,
1000
0100
0000
0100
1000
0000
0100
0000
0001
0000
1000
0001
1000
0000
0010
0000
,
2000
0000
0000
0000
3001
0000
0010
0000
0200
0000
0000
1300
0200
0000
0000
0301
,
0200
0000
0000
1300
0100
0000
0010
0000
0002
0000
0000
1003
0002
0000
0000
0103
,
0002
0000
0000
1003
0001
0000
0010
0000
0200
0000
0000
0310
0001
0000
1000
0000
,
0200
0000
0000
1300
0010
0000
1000
0000
0200
0000
0000
0000
0310
0000
0001
0000
,
1000
0000
0000
1000
0100
0000
1000
0000
0001
0000
0010
0000
0100
0000
1000
0000
,
0001
0000
1000
0000
0001
0000
0100
0000
0010
0000
1000
0000
,
0002
0000
0000
0000
,
0003
0000
0000
0000
;

//---------------dance-single - ----------------
#NOTES:
     dance-single:
     :
     Hard:
     8:
     0.313543,0.352601,0.030169,0.437452,0.094278,291.000000,287.000000,4.000000,58.000000,0.000000,0.000000,0.313543,0.352601,0.030169,0.437452,0.094278,291.000000,287.000000,4.000000,58.000000,0.000000,0.000000:
0000
0000
0000
0000
,
0000
0000
0000
0000
,
0000
0000
0000
0000
,
0000
0000
0000
0000
,
0000
0000
0000
0000
,
0000
0000
0000
0000
,
0000
0000
0000
0000
,
0000
0000
0000
0000
,
1000
0000
0001
0010
0200
0000
0310
0000
,
0001
1000
0100
1000
0002
0000
1003
0000
,
0001
0000
1000
0010
0200
0000
0310
0000
,
1000
0010
0001
0010
2000
0000
3001
0000
,
0100
0010
1000
0100
0020
0000
0130
0010
,
0100
1000
0010
0100
0002
0000
0013
0100
,
1000
1000
0002
0000
0013
0010
0200
0000
,
0310
0001
0200
0000
0301
0010
0001
0010
,
0001
0000
1000
0001
1000
0000
0010
0000
0200
0000
0000
0000
0310
0000
0000
0000
,
0100
0000
0001
0010
0001
0000
0010
0000
0200
0000
0000
0000
1300
0000
0000
0000
,
0001
0000
1000
0001
1000
0000
0010
0000
0200
0000
0000
0000
0301
0000
0000
0000
,
0010
0000
0100
0010
0100
0000
1000
0000
0020
0000
0000
0000
1030
0000
0000
0000
,
0010
0000
1000
0010
0100
0000
0001
0000
2000
0000
0000
0000
3001
0000
0010
0000
,
0100
0000
1000
0001
0100
0000
0010
0000
0200
0000
0000
0000
0301
0000
0010
0000
,
0001
0001
0200
0000
0310
0100
0020
0000
,
1030
0100
0010
0001
0100
0010
1000
0001
,
0200
0000
0301
1000
0200
0000
1300
0001
,
0200
0000
0301
1000
0010
0100
0001
0010
,
0200
0000
0310
0010
0100
0000
1001
0000
,
0010
0000
1000
0100
1000
0001
0001
0100
,
0020
0000
1030
0001
0020
0000
0031
1000
,
0020
0000
0000
0000
0130
0000
0001
0000
2000
0000
0000
3001
0000
0000
0001
0000
,
0200
0000
0000
0310
0000
0000
0010
0000
2000
0000
0000
3100
0000
0000
0100
0000
,
0020
0000
0000
0031
0000
0000
0100
0000
0020
0000
0000
0000
0130
0000
0000
0000
,
0001
0000
0000
1000
0000
0000
0010
0000
0100
0000
0000
0000
0110
0000
0000
0000
,
1000
0000
0000
0001
0000
0000
0100
0000
0001
0000
0000
0000
1010
0000
0000
0000
,
0010
0000
0000
0001
0000
0000
1000
0000
0010
0000
0000
0000
1010
0000
0000
0000
,
0001
0000
0100
0001
1000
0100
0100
1000
,
0002
0000
0013
0001
0200
0000
0301
0010
,
0002
0000
0013
0100
2000
3100
2000
3100
,
2000
0000
3010
1000
0002
0000
0103
0010
,
0100
0000
0000
0001
0100
0000
0001
0000
1000
0000
0000
1000
0001
0000
0100
0000
,
0002
0000
0000
0000
0000
0000
1003
0000
0001
0000
0000
0100
0000
0000
0001
0000
,
0010
0000
0000
0010
0000
0000
0100
0000
1000
0000
0000
0001
0000
0000
0100
0000
,
0002
0000
1003
1000
2000
0000
3010
0010
,
0020
0000
0130
0100
0200
0000
0301
1000
,
0002
0000
0000
0000
0013
0000
0001
0000
1000
0000
0000
0001
0000
0000
0100
0000
,
0010
0000
0000
1000
0000
0000
0100
0000
1000
0000
0000
0001
0000
0000
0100
0000
,
0002
0000
0000
0000
0103
0000
0100
0000
2000
0000
0000
3000
0100
0000
0100
0000
,
0002
0000
1003
1000
0100
0010
0100
0010
,
0002
0000
1003
0000
0020
0130
0020
0130
,
0020
0000
0130
0000
0002
1003
0002
1003
,
0002
0000
1003
1000
2000
0000
3100
0100
,
0200
0000
0310
0010
0020
0000
0031
0010
,
0002
0010
0203
0010
,
0310
0000
0001
0000
0010
0000
0001
0000
1000
0000
0010
0000
,
0200
0000
0000
0000
,
0300
0000
0000
0000
;

//---------------dance-single - ----------------
#NOTES:
     dance-single:
     :
     Medium:
     6:
     0.262902,0.331860,0.015085,0.535501,0.000000,244.000000,242.000000,2.000000,71.000000,0.000000,0.000000,0.262902,0.331860,0.015085,0.535501,0.000000,244.000000,242.000000,2.000000,71.000000,0.000000,0.000000:
0000
0000
0000
0000
,
0000
0000
0000
0000
,
0000
0000
0000
0000
,
0000
0000
0000
0000
,
0000
0000
0000
0000
,
0000
0000
0000
0000
,
0000
0000
0000
0000
,
0000
0000
0000
0000
,
1000
0000
0001
0100
0002
0000
1003
0000
,
0010
0000
1000
0100
2000
0000
3100
0000
,
0010
0000
0001
0100
0020
0000
0130
0000
,
0001
0000
1000
0001
2000
0000
3100
0000
,
0200
0000
0310
0100
0020
0000
0031
0000
,
1000
0000
1000
0001
0200
0000
0301
0000
,
2000
3001
0002
0103
,
2000
0000
3010
0000
0100
0001
0100
0010
,
1000
0100
1000
0001
2000
0000
3010
0000
,
1000
0001
0100
0001
0020
0000
0130
0000
,
0001
1000
0010
1000
0200
0000
0310
0000
,
0001
0100
0010
0100
0002
0000
1003
0000
,
2000
0000
3001
1000
0020
0000
0130
0000
,
0100
0001
0010
0001
2000
0000
3010
0000
,
0020
0130
0200
0310
,
2000
3001
0002
1003
,
0020
1030
2000
3010
,
0020
0000
1030
0000
1000
0001
1000
0000
,
0001
0100
0010
0100
0010
0000
0110
0000
,
0010
1000
0010
1000
0010
0000
1010
0000
,
0002
0103
0200
0301
,
0002
0000
0103
0000
0001
1000
0001
0000
,
0100
0001
0100
0000
0010
1000
0010
0000
,
1000
0100
0010
0001
0010
0100
1000
0001
,
1000
0010
1000
0001
0200
0000
0310
0000
,
0100
0010
1000
0001
0020
0000
0031
0000
,
0100
0001
0010
0001
2000
0000
3010
0000
,
1000
0100
0010
0100
1000
0001
1000
0010
,
0200
0310
0020
0130
,
0200
0000
0310
0000
2000
3001
2000
3001
,
2000
3020
0230
0320
,
2030
3002
0203
0320
,
2030
0000
3001
1000
0001
0100
0020
0000
,
0230
0000
0310
1000
0001
0010
0200
0000
,
0320
0130
0200
0310
,
0020
0130
0200
1300
,
2000
0000
3010
0000
1000
0001
0100
0000
,
0001
0010
0100
0000
1000
0001
1000
0000
,
0020
1030
2000
3010
,
0020
0000
1030
0000
1000
0001
0100
0001
,
0020
0000
0130
0000
2000
3100
2000
3100
,
2000
0000
3100
0000
0002
0103
0002
0103
,
0002
0000
1003
0100
2000
0000
3100
1000
,
0002
0000
0103
0001
2000
0000
3100
1000
,
0002
0203
0320
0230
,
0320
0000
0000
0000
,
2030
0000
0000
0000
,
3000
0000
0000
0000
;

//---------------dance-single - ----------------
#NOTES:
     dance-single:
     :
     Easy:
     3:
     0.184247,0.207413,0.007542,0.362029,0.000000,171.000000,170.000000,1.000000,48.000000,0.000000,0.000000,0.184247,0.207413,0.007542,0.362029,0.000000,171.000000,170.000000,1.000000,48.000000,0.000000,0.000000:
0000
0000
0000
0000
,
0000
0000
0000
0000
,
0000
0000
0000
0000
,
0000
0000
0000
0000
,
0000
0000
0000
0000
,
0000
0000
0000
0000
,
0000
0000
0000
0000
,
0000
0000
0000
0000
,
1000
1000
2000
3100
,
0001
0001
0002
0103
,
0010
0010
0020
1030
,
1000
1000
2000
3100
,
1000
0001
2000
3001
,
0100
0010
0200
0310
,
0020
1030
2000
3010
,
0020
1030
0001
1000
,
0001
0100
0020
1030
,
0100
0010
0002
0103
,
0001
1000
0020
1030
,
0100
1000
0002
0013
,
0001
0001
0200
0310
,
1000
1000
0200
1300
,
0002
0103
0200
0310
,
0020
1030
1000
0001
,
0200
0301
0002
0103
,
0200
0301
1000
0100
,
0010
0010
0100
0110
,
0001
1000
0010
1000
,
0002
0103
0200
0301
,
0002
0103
0010
1000
,
0100
0100
1000
1000
,
0010
0010
2000
3001
,
0001
0100
0010
0010
,
1000
0001
0010
0010
,
0001
0100
0010
0010
,
1000
0100
1000
1000
,
0002
1003
2000
3001
,
0002
1003
1000
1000
,
2000
3010
0020
0130
,
0200
0310
0020
0130
,
0001
0001
1000
1000
,
0100
0100
1000
1000
,
0020
0000
2030
0000
,
3002
0000
0203
0000
,
0301
0000
0001
0000
,
1000
0000
1000
0000
,
0020
0000
0230
0000
,
0302
0000
2003
0000
,
3010
0010
0100
0100
,
0200
0310
0010
0010
,
0020
1030
2000
3010
,
0020
1030
2000
3010
,
0020
0130
0100
0100
,
0002
0000
0000
0000
,
2003
0000
0000
0000
,
3000
0000
0000
0000
;

//---------------dance-single - ----------------
#NOTES:
     dance-single:
     :
     Beginner:
     1:
     0.092662,0.103706,0.000000,0.248895,0.000000,86.000000,86.000000,0.000000,33.000000,0.000000,0.000000,0.092662,0.103706,0.000000,0.248895,0.000000,86.000000,86.000000,0.000000,33.000000,0.000000,0.000000:
// measure 0
0000
0000
0000
0000
,  // measure 1
0000
0000
0000
0000
,  // measure 2
0000
0000
0000
0000
,  // measure 3
0000
0000
0000
0000
,  // measure 4
0000
0000
0000
0000
,  // measure 5
0000
0000
0000
0000
,  // measure 6
0000
0000
0000
0000
,  // measure 7
0000
0000
0000
0000
,  // measure 8
1000
0000
1000
0000
,  // measure 9
0001
0000
0001
0000
,  // measure 10
0100
0000
0100
0000
,  // measure 11
0010
0000
0010
0000
,  // measure 12
2000
0000
3001
0000
,  // measure 13
0002
0000
1003
0000
,  // measure 14
0100
0000
0100
0000
,  // measure 15
0010
0000
0010
0000
,  // measure 16
1000
0000
2000
0000
,  // measure 17
3001
0000
0002
0000
,  // measure 18
0103
0000
0200
0000
,  // measure 19
0310
0000
0020
0000
,  // measure 20
1030
0000
2000
0000
,  // measure 21
3001
0000
0002
0000
,  // measure 22
0103
0000
0100
0000
,  // measure 23
0200
0000
0310
0000
,  // measure 24
2000
0000
3020
0000
,  // measure 25
2030
0000
3010
0000
,  // measure 26
0100
0000
0100
0000
,  // measure 27
0001
0000
0001
0000
,  // measure 28
0200
0000
0302
0000
,  // measure 29
0203
0000
0310
0000
,  // measure 30
1000
0000
1000
0000
,  // measure 31
0001
0000
0001
0000
,  // measure 32
0010
0000
0010
0000
,  // measure 33
1000
0000
1000
0000
,  // measure 34
0001
0000
0001
0000
,  // measure 35
1000
0000
1000
0000
,  // measure 36
0010
0000
0010
0000
,  // measure 37
0010
0000
0010
0000
,  // measure 38
0200
0000
0310
0000
,  // measure 39
0020
0000
0130
0000
,  // measure 40
1000
0000
1000
0000
,  // measure 41
0001
0000
0001
0000
,  // measure 42
0200
0000
0000
0000
,  // measure 43
0320
0000
0000
0000
,  // measure 44
2030
0000
0000
0000
,  // measure 45
3002
0000
0000
0000
,  // measure 46
0203
0000
0320
0000
,  // measure 47
0230
0000
0000
0000
,  // measure 48
0302
0000
1003
0000
,  // measure 49
2000
0000
3001
0000
,  // measure 50
0002
0000
0203
0000
,  // measure 51
0302
0000
0203
0000
,  // measure 52
0302
0000
0000
0000
,  // measure 53
2003
0000
0000
0000
,  // measure 54
3020
0000
0000
0000
,  // measure 55
0030
0000
0000
0000
;
