#VERSION:0.83;
#TITLE:-Pixel Planet;
#SUBTITLE:;
#ARTIST:Lime;
#TITLETRANSLIT:;
#SUBTITLETRANSLIT:;
#ARTISTTRANSLIT:;
#GENRE:;
#ORIGIN:;
#CREDIT:;
#BANNER:bn.png;
#BACKGROUND:bg.png;
#PREVIEWVID:;
#JACKET:jacket.png;
#CDIMAGE:;
#DISCIMAGE:;
#LYRICSPATH:;
#CDTITLE:;
#MUSIC:Pixel Planet.mp3;
#OFFSET:-0.034000;
#SAMPLESTART:18.400990;
#SAMPLELENGTH:14.999981;
#SELECTABLE:YES;
#DISPLAYBPM:*;
#BPMS:0.000=222.000;
#STOPS:;
#DELAYS:;
#WARPS:;
#TIMESIGNATURES:0.000=4=4;
#TICKCOUNTS:0.000=4;
#COMBOS:0.000=1;
#SPEEDS:0.000=1.000=0.000=0;
#SCROLLS:0.000=1.000;
#FAKES:;
#LABELS:0.000=Song Start;
#BGCHANGES:;
#KEYSOUNDS:;
#ATTACKS:
;

//---------------dance-single - ----------------
#NOTEDATA:;
#CHARTNAME:;
#STEPSTYPE:dance-single;
#DESCRIPTION:;
#CHARTSTYLE:Rajes;
#DIFFICULTY:Challenge;
#METER:18;
#RADARVALUES:0.977363,1.134174,0.250300,0.367107,0.533974,820.000000,790.000000,30.000000,44.000000,0.000000,0.000000,0.000000,0.000000,0.000000,0.977363,1.134174,0.250300,0.367107,0.533974,820.000000,790.000000,30.000000,44.000000,0.000000,0.000000,0.000000,0.000000,0.000000;
#CREDIT:Rajes;
#DISPLAYBPM:*;
#NOTES:
0000
0000
0000
0000
,
0000
0000
0000
0000
,
0000
0000
0000
0000
,
0000
0000
0000
0000
,
0000
0000
0000
0000
,
0000
0000
0000
0000
,
0000
0000
0000
0000
,
0000
0000
0000
0000
,
0000
0000
0000
0000
,
2002
0000
3003
0110
0000
0000
2020
0000
,
0030
0000
3001
0000
1000
0001
1000
0000
,
2200
0000
3300
1001
0000
0000
0022
0000
,
0000
0033
0000
0000
0010
1000
0100
1000
,
0001
0100
0010
0100
0010
1000
0001
0010
,
0100
1000
0001
0100
0010
0100
1000
0100
,
0001
1000
0010
1000
0100
0010
0001
1000
,
0010
0100
0010
0000
1000
0001
1000
0000
0010
0100
0010
0100
0001
0000
0000
0000
,
1000
0000
0001
0000
0100
0010
0100
0000
0001
0100
0001
0000
1000
0010
1000
0000
,
0010
0000
0100
0000
0001
0000
1000
0000
0100
0010
0001
0000
1000
0000
0010
0000
,
0100
0000
0001
0000
0100
0000
0000
0000
1000
0000
0001
0010
0100
0000
1000
0000
,
0100
0010
1000
0010
0001
1000
0100
1000
,
0001
0000
0000
0000
1000
0001
1000
0001
1000
0000
0010
0000
1000
0000
0010
0000
,
0100
0000
0001
0000
0001
0000
1000
0000
0001
0000
0010
0000
0100
1000
0100
0000
,
1000
0000
0001
1000
0001
0000
0100
0000
0001
1000
0001
0000
0100
0000
0001
0000
,
0110
0000
0000
0000
0001
0000
1000
0010
0000
0010
0100
0000
0001
0000
0000
0000
,
1001
0000
0000
0000
0001
1000
0001
0000
1000
0100
1000
0000
0010
0100
0010
0000
,
1000
0000
0010
0000
1000
0000
0001
0000
0100
0010
1000
0000
0001
0000
0100
0000
,
1000
0000
0100
0000
0010
0000
0000
0000
1000
0000
0001
1000
0010
0000
0100
0000
,
0010
1000
0001
1000
0010
0100
0001
0011
,
0000
0000
1000
0000
0001
0000
0100
0001
0100
0000
0010
1000
0010
0000
1000
0000
,
0010
0100
1000
0100
0001
1000
0100
0010
,
0001
0000
1000
0100
1000
0000
0001
0000
1000
0100
1000
0000
0001
0000
1001
0000
,
0000
1000
0001
0100
0010
1000
0001
0010
,
0001
0001
0010
0010
0100
0100
1000
1000
,
0100
0100
0010
0010
0001
0001
1000
1000
,
0010
0000
0001
0000
0010
0000
1000
0000
0010
0000
0001
0000
0010
0100
0010
0100
,
0001
0000
0000
0000
0001
0000
0000
0000
0001
0000
1000
0010
1000
0000
0000
0000
,
0001
0010
0001
0000
0100
0010
0100
0000
0001
0000
1000
0000
0010
0100
0010
0100
,
0001
0000
1000
0000
0001
0000
1000
0100
0010
0100
0010
0000
0001
0000
0000
0000
,
1000
0100
1000
0000
0001
0010
0001
0000
0100
0000
0010
0000
1000
0100
1000
0100
,
0010
0000
0001
1000
0001
0000
0100
0000
0000
0000
0100
0000
0010
0000
1000
0000
,
0100
0000
0100
0000
1000
0001
1000
0000
0010
0000
1000
0000
0001
0010
0001
0010
,
0100
0000
1000
0000
0001
0000
0100
0010
1000
0010
0100
0000
0001
0000
0000
0000
,
0001
0100
0001
0100
0010
0000
1000
0000
1001
0000
0000
0011
0000
0000
0110
0000
,
0000
1100
0000
0000
0001
1000
0001
1000
0010
0000
0000
0000
1001
0000
0000
0000
,
0001
1000
0010
0000
1000
0001
0100
0000
0002
0000
1003
0100
2000
0000
3001
0100
,
0002
0000
1003
0010
2000
0000
3010
0100
0020
0000
0130
0000
0001
0000
0000
0000
,
0001
1000
0001
0000
1000
0100
1000
0000
0001
0000
0100
0000
0010
1000
0010
1000
,
0001
0000
0100
0001
0100
0000
0020
0000
0000
0000
0130
0000
0001
0000
1000
0000
,
1100
0001
0100
0101
0010
1000
0010
1000
,
1001
0010
0100
0101
0001
1000
1100
0100
,
2000
0000
3010
0000
0002
0000
0013
0000
2000
0000
3010
0000
0100
0010
0100
0010
,
1000
0000
0000
0000
0001
1000
0001
0000
0100
0001
1000
0000
0010
0000
0000
0000
,
0100
0000
0000
0100
0000
0000
0000
0000
,
0001
0000
0000
0001
0000
0000
0000
0000
,
1000
0000
0000
1000
0000
0000
0000
0000
,
0100
0000
0000
0100
0000
0000
0000
0000
,
0002
0000
1003
0100
0000
0000
1000
0000
,
0200
0000
1300
0001
0000
0000
0100
0000
,
0002
0000
0013
0100
0000
0000
1000
0000
,
1010
0000
0000
0101
0000
0000
0000
1100
,
0000
0000
0002
0003
2000
3000
0100
2000
,
3000
1000
0010
0200
0300
0100
0001
0010
,
0002
0003
0002
0003
2000
3000
0010
2000
,
3000
0001
1000
0001
0000
0100
0000
2002
,
0003
3001
0010
0001
0100
0010
1000
0100
,
1000
0010
0100
0001
0010
0001
0000
2002
,
3000
1003
0100
1000
0010
0100
0001
0010
,
0001
0100
0010
1000
0100
1000
0000
0220
,
0030
0310
1000
1000
0100
0100
0010
0010
,
0001
0001
0010
0010
0100
0100
1000
1000
,
0010
0001
0010
1000
0010
0001
0010
1000
,
0001
1000
0001
0000
0100
0010
0100
0000
0001
1000
0001
1000
0010
0000
0000
0000
,
0000
0000
0000
0000
0001
0100
0001
0000
1000
0000
0000
0000
0100
0000
0000
0000
,
0010
0000
0000
0000
0001
0000
0000
0000
1000
0001
1000
0000
0001
0000
0100
0000
,
0000
0000
0100
0000
0010
0000
0000
0000
0000
0000
0001
1000
0001
0000
0100
0000
,
0000
0100
0001
1000
0100
1000
0001
1000
,
0000
0000
0000
0000
0001
0010
0100
1000
,
0000
0000
0010
0000
0000
0000
0100
0000
0000
0000
0010
0000
1000
0001
1000
0000
,
0000
0000
0001
0100
0001
0000
1000
0000
0001
0100
0001
0100
0010
0000
1000
0000
,
0000
0010
0100
1001
0000
1000
0101
0000
,
0001
0000
1000
0000
0001
0010
0001
0000
0100
0010
0100
0000
0010
1000
0010
0000
,
1000
0000
0001
0000
1000
0000
0010
0000
0100
0010
1000
0000
0001
0000
1000
0000
,
0100
0000
1000
0000
0001
0000
0000
0000
0001
0000
0100
0001
1000
0000
0010
0000
,
0100
0001
0010
0001
1000
0010
1000
1001
,
0000
0000
0001
0100
0001
0000
1000
0001
1000
0000
0100
0000
0010
0000
0001
0000
,
0010
0100
1000
0001
1000
0100
0010
0001
,
1000
0000
0001
0010
0001
0000
1000
0000
0001
0010
0001
0000
1000
0000
1100
0000
,
0000
0001
0010
1000
0001
0100
1000
0001
,
1000
0100
1000
0000
0001
0100
0001
0000
1000
0100
1000
0000
0001
0000
1000
0000
,
0001
0010
0001
0010
0100
0000
1000
0000
0010
0000
1000
0000
0100
0000
1000
0000
,
0001
0100
0001
0000
1000
0100
1000
0000
0001
0100
0001
0000
1000
0000
0001
0000
,
1000
0010
1000
0010
0100
0000
0001
0000
0100
0000
1000
0000
0100
0000
0001
0000
,
1000
0100
1000
0100
0010
0000
0001
0000
1000
0001
1000
0001
0100
0000
0010
0000
,
2000
0000
3001
0010
0002
0000
0103
0010
0200
0000
0310
1000
0020
0000
1030
0001
,
2000
0000
3001
0000
1000
0000
0001
0000
0100
0010
1000
0010
0100
0000
0001
0000
,
1000
0000
0000
0000
0001
0000
1000
0100
0000
1000
0100
0000
1000
0000
0000
0000
,
1000
0010
0100
0010
1000
0000
0001
0000
0000
0000
0001
0000
0100
0000
0001
0000
,
1000
0100
0010
0100
1000
0000
0001
0000
0000
0000
0001
0000
0100
0000
0001
0000
,
1000
0001
0100
0001
1000
0000
0010
0000
0000
0000
1000
0000
0001
0000
1000
0000
,
0001
0100
0010
0100
0001
0000
1000
0000
0000
0000
1000
0000
0001
0000
1000
0000
,
0001
0010
0001
0010
0100
0000
1000
0000
0001
1000
0001
1000
0010
0000
0100
0000
,
0002
0000
1003
0100
2000
0000
3010
0100
0020
0000
0130
0001
0200
0000
0310
1000
,
0020
0000
0130
0000
0010
0000
0100
0000
0010
0000
1000
0000
0001
1000
0100
1000
,
0001
1000
0001
0100
0000
0100
0010
1000
,
0001
0001
0100
0100
0010
0010
1000
1000
,
0010
0010
0100
0100
0001
0001
1000
1000
,
0100
0000
0001
0000
0100
0000
1000
0000
0100
0000
0001
0000
0100
1000
0100
1000
,
0001
0000
0000
0000
0001
0000
0000
0000
0001
0000
0100
0010
0100
0000
0000
0000
;

//---------------dance-single - ----------------
#NOTEDATA:;
#CHARTNAME:;
#STEPSTYPE:dance-single;
#DESCRIPTION:;
#CHARTSTYLE:Rajes;
#DIFFICULTY:Hard;
#METER:17;
#RADARVALUES:0.854597,0.907339,0.233614,0.500601,0.279502,717.000000,689.000000,28.000000,60.000000,0.000000,0.000000,0.000000,0.000000,0.000000,0.854597,0.907339,0.233614,0.500601,0.279502,717.000000,689.000000,28.000000,60.000000,0.000000,0.000000,0.000000,0.000000,0.000000;
#CREDIT:Rajes;
#DISPLAYBPM:*;
#NOTES:
0000
0000
0000
0000
,
0000
0000
0000
0000
,
0000
0000
0000
0000
,
0000
0000
0000
0000
,
0000
0000
0000
0000
,
0000
0000
0000
0000
,
0000
0000
0000
0000
,
0000
0000
0000
0000
,
0000
0000
0000
0000
,
1010
0000
0000
0101
0000
0000
1001
0000
,
0000
0000
0100
0000
0000
0001
0000
0000
,
1100
0000
0000
0011
0000
0000
1001
0000
,
0000
0000
0000
0000
0001
0010
0100
1000
,
0010
0000
1000
0100
0010
0000
0001
0000
,
0001
0010
0001
0100
0010
1000
0100
0010
,
0001
0000
0100
0000
0010
0000
1000
0000
0001
0000
0010
0000
0100
0000
1000
0001
,
1000
0000
0000
0000
1000
0000
0000
0000
1000
0000
0010
0100
0001
0000
0000
0000
,
2000
3001
0200
0301
0020
0031
0200
0301
,
2000
0000
3001
0000
0010
0000
0100
0000
1000
0000
0001
0100
0001
0000
1000
0000
,
0010
0000
1000
0000
0100
0000
0000
0000
1000
0000
0010
0100
0001
0000
1000
0000
,
0100
0010
0100
0001
0100
1000
0010
1000
,
0000
0000
0001
0000
0010
0000
0100
1000
0100
0000
0010
0000
0001
0000
0020
0000
,
0000
0100
0000
0130
0000
1000
0001
0100
,
0001
0000
1000
0010
1000
0000
0001
0000
1000
0010
1000
0000
0001
0000
0100
0000
,
0010
0000
0000
0000
0010
0000
1000
0001
0000
1000
0001
0000
0100
0000
0000
0000
,
0011
0000
0002
1003
0020
1030
0200
1300
,
0020
0000
1030
0000
0002
0000
0103
0000
0010
0000
0100
0001
0100
0000
0010
0000
,
1000
0000
0001
0000
0010
0000
0000
0000
0001
0000
1000
0001
0100
0000
0010
0000
,
1000
0010
0100
1000
0100
0001
1000
1010
,
0000
0000
0000
0000
1000
0000
0001
0010
0001
0000
1000
0000
0010
0000
0200
0000
,
0000
1000
0000
0301
0000
1000
0001
0010
,
0100
0000
1000
0001
1000
0000
0010
0000
1000
0001
1000
0000
0100
0000
0010
0000
,
0000
0001
0010
1000
0000
0001
0100
0001
,
1000
0010
0100
0001
1000
0010
0100
0001
,
1000
0100
0010
0001
1000
0100
0010
0001
,
1000
0000
0100
0000
1000
0000
0010
0000
0100
0000
0001
0000
0010
0000
0001
1000
,
0001
0000
0000
0000
0001
0000
0000
0000
0001
0000
0100
0010
0100
0000
0000
0000
,
0002
0000
1003
0000
0020
0000
1030
0000
0200
0000
1300
0000
0001
0100
0001
0000
,
2000
0000
0000
0000
3010
0000
0100
0010
0100
0000
0001
0000
0020
0000
0000
0000
,
0031
0001
2000
3010
0200
0310
2000
3010
,
0100
0001
0100
0000
0001
0000
1000
0000
0000
0000
0001
0000
1000
0000
0001
0000
,
0100
0000
0100
0000
0002
0000
1003
0000
0020
0000
1030
0000
0100
0000
1000
0001
,
2000
0000
0000
0000
3001
0000
0010
0000
0100
1000
0100
0000
0020
0000
0000
0000
,
0031
0000
1000
0000
0001
0010
0001
0000
1000
0000
0000
0110
0000
0000
0001
0000
,
0000
1010
0000
0000
0100
0000
0000
0000
1001
0000
0000
0000
1000
0000
0010
0000
,
0100
0000
0001
0000
1000
0000
0001
0010
0001
0000
2000
0000
3100
0000
2000
0000
,
3010
0000
2000
0000
3001
0000
2000
0000
3010
0000
0100
0001
0100
0000
0000
0000
,
0002
0013
0200
0310
0002
0013
0100
1000
,
0001
0000
0100
0001
0100
0000
0020
0000
0000
0000
0130
0000
0001
0000
0000
0000
,
1001
0000
1000
1100
0000
0010
1000
0001
,
0011
0000
1000
1001
0000
0010
0110
0000
,
1010
1000
0001
1000
0010
1000
0001
0010
,
0100
0000
0000
0000
0001
1000
0001
0000
0010
0000
0100
0000
1000
0000
0000
0000
,
0001
0000
0000
1000
0000
0000
0000
0000
,
0010
0000
0000
0010
0000
0000
0000
0000
,
0001
0000
0000
0001
0000
0000
0000
0000
,
1000
0000
0000
1000
0000
0000
0000
0000
,
0020
0000
1030
0001
0000
0000
0001
0000
,
2000
0000
3001
0010
0000
0000
1000
0000
,
0020
0000
0130
1000
0000
0000
0001
0000
,
0101
0000
0000
1010
0000
0000
0000
1001
,
0000
0000
0020
0030
0002
0003
1000
0002
,
0003
0001
0100
2000
3000
0010
0100
0010
,
2000
3000
2000
3000
0002
0003
0100
0002
,
0003
0010
0001
0010
0000
1000
0000
2002
,
3000
1003
0100
0010
0001
0010
0100
1000
,
0100
0010
0001
0010
0100
1000
0000
2002
,
0003
3001
0010
0100
1000
0100
0010
0001
,
0010
0100
1000
0100
0010
0001
0000
0202
,
0003
0301
1000
0010
0100
0001
1000
0010
,
1000
0100
0010
0001
1000
0100
0010
0001
,
1000
0000
0010
0000
0100
0000
0001
0000
0100
0000
0010
0000
1000
0000
0001
1000
,
0001
0000
0000
0000
0001
0000
0000
0000
0001
0000
1000
0001
0100
0000
0000
0000
,
0000
0000
0000
0000
0010
1000
0010
0000
0100
0000
0000
0000
0001
0000
0000
0000
,
0100
0000
0000
0000
0010
0000
0000
0000
0100
0001
0100
0000
0010
0000
1000
0000
,
0000
0000
1000
0000
0100
0000
0000
0000
0000
0000
0001
0010
0001
0000
1000
0000
,
0000
1000
0010
0001
0010
0100
0001
1000
,
0000
0000
0000
0000
0001
1000
0010
0001
,
0000
0000
0010
0000
0000
0000
1000
0000
0000
0000
1000
0000
0001
0010
0001
0000
,
0000
0000
0100
0001
0100
0000
0010
0000
1000
0001
1000
0000
0100
0000
0010
0000
,
0000
0100
0010
0001
0000
0001
0000
0100
,
0000
0000
0002
1003
0020
1030
0002
1003
,
0100
0000
0010
0000
0001
1000
0001
0000
1000
0000
0100
0000
0010
0000
0100
0000
,
1000
0000
0100
0000
1000
0000
0000
0000
0001
0000
0100
0001
1000
0000
0100
0000
,
1000
0010
0100
0001
1000
0001
0100
0110
,
0000
0000
0001
0000
1000
0000
0001
0000
0100
0010
0100
0000
0001
0000
0010
0000
,
0100
1000
0100
0010
0001
1000
0010
1000
,
0001
0000
0100
0010
0100
0000
0001
0000
0100
0010
0100
0000
0001
0000
1001
0000
,
0000
0001
1000
0001
1000
0010
1000
0001
,
0100
0010
1000
0000
0001
0000
0100
0000
0001
0000
0010
0000
0100
0000
1000
0000
,
0001
0100
0010
0000
1000
0000
0001
0000
0100
0000
0001
0000
0010
0000
0001
0000
,
1000
0010
1000
0000
0001
0000
0100
0000
0001
0000
1000
0000
0100
0000
0010
0000
,
0001
1000
0001
0000
0100
0000
0010
0000
0100
0000
0001
0000
0010
0000
0001
0000
,
1000
0100
1000
0000
0001
0000
1000
0000
0100
0000
0010
0000
0001
0000
1000
0000
,
0100
0000
0000
0010
0002
0000
0003
0100
0020
0000
0030
1000
0200
0000
0300
1000
,
0002
0000
0103
0000
0001
0000
1000
0000
0010
0100
0010
0100
0010
0000
0000
0000
,
1001
0000
0000
0000
1000
0000
0010
0100
0000
0010
0100
0000
0001
0000
0000
0000
,
0001
1000
0001
0000
0100
0000
0010
0000
0000
0000
1010
0000
0000
0000
0000
0000
,
0001
0000
0100
0010
0100
0000
0001
0000
0000
0000
1000
0000
0100
0000
1000
0000
,
0001
0010
0001
0000
1000
0000
0010
0000
0000
0000
1001
0000
0000
0000
0001
0000
,
1000
0100
1000
0000
0001
0000
0100
0000
0000
0000
0001
0000
1000
0000
0001
0000
,
1000
0100
1000
0000
0001
0000
0100
0000
0010
0000
1000
0000
0100
0000
1000
0000
,
0002
0000
0003
0010
0002
0000
0003
0100
0020
0000
0030
1000
0200
0000
0300
1000
,
0001
0000
0100
0000
0010
0000
1000
0000
0010
0000
0100
0000
0001
1000
0001
1000
,
0001
0000
0010
0100
0000
1000
0010
1000
,
0001
0100
0010
1000
0001
0100
0010
1000
,
0001
0010
0100
1000
0001
0010
0100
1000
,
0010
0000
0100
0000
0001
0000
0010
0000
0001
0000
1000
0000
0010
0000
1000
0001
,
1000
0000
0000
0000
1000
0000
0000
0000
1000
0000
0010
0100
0010
0000
0000
0000
;

//---------------dance-single - ----------------
#NOTEDATA:;
#CHARTNAME:;
#STEPSTYPE:dance-single;
#DESCRIPTION:;
#CHARTSTYLE:Rajes;
#DIFFICULTY:Medium;
#METER:13;
#RADARVALUES:0.694881,0.771238,0.075090,0.000000,0.008343,583.000000,574.000000,9.000000,0.000000,0.000000,0.000000,0.000000,0.000000,0.000000,0.694881,0.771238,0.075090,0.000000,0.008343,583.000000,574.000000,9.000000,0.000000,0.000000,0.000000,0.000000,0.000000,0.000000;
#CREDIT:Rajes;
#DISPLAYBPM:*;
#NOTES:
0000
0000
0000
0000
,
0000
0000
0000
0000
,
0000
0000
0000
0000
,
0000
0000
0000
0000
,
0000
0000
0000
0000
,
0000
0000
0000
0000
,
0000
0000
0000
0000
,
0000
0000
0000
0000
,
0000
0000
0000
0000
,
1100
0000
0000
0010
0000
0000
1001
0000
,
0000
0000
0000
0000
,
1100
0000
0000
0010
0000
0000
0101
0000
,
0000
0000
1000
0100
,
0010
0000
0001
1000
0100
0000
1000
0000
,
0010
0000
0100
0000
0001
0010
0001
0000
,
0100
1000
0100
1000
0100
1000
0010
0100
,
0001
0000
1000
0000
0001
0100
0001
0000
,
1000
0000
0010
1000
0100
0010
0001
0000
,
1000
0000
0001
1000
0001
1000
0001
0010
,
0000
1000
0100
0000
0010
0000
0001
1000
,
0010
0000
0100
0000
0001
1000
0001
1000
,
0100
0000
0010
0000
0001
1000
0001
1000
,
0010
0000
1000
0000
0100
0000
0010
0001
,
1000
0000
0010
0000
1000
0100
1000
0010
,
0000
1000
0001
0010
0000
0100
0000
1000
,
0000
0000
0001
0010
0001
0000
1000
0000
,
0010
1000
0100
1000
0001
0000
1000
0010
,
0000
1000
0100
0000
0010
0000
0001
1000
,
0010
0000
1000
0000
0100
1000
0100
1000
,
0000
0010
0100
0001
0010
0100
1000
0010
,
0000
1000
0000
0001
0000
0010
0100
1000
,
0010
0000
1000
0001
0000
0010
0100
1000
,
0000
0010
0100
0001
0000
0001
0010
0100
,
1000
0001
1000
0100
0010
0001
1000
0000
,
0001
0010
0100
0010
0001
1000
0100
0000
,
1000
1000
0010
0010
0100
0100
0001
0001
,
1000
1000
1000
0110
,
1000
0001
0010
0000
0001
0000
0100
0010
,
1000
0100
0010
0000
0001
1000
0100
0000
,
0010
0001
0100
0000
0100
0000
0001
0010
,
0100
1000
0001
0100
0000
0001
0010
0000
,
0100
1000
0001
0000
0010
0000
0100
1000
,
0001
0100
0001
0000
0010
0001
1000
0000
,
0100
0000
0000
0000
0010
0000
0001
0000
1000
0000
0000
1000
0000
0000
0010
0000
,
0000
0010
0000
0000
1000
0000
0000
0000
1000
0000
0000
0000
1000
0000
0001
0000
,
1000
0001
0100
0000
0001
0010
0100
1000
,
0001
0100
0001
1000
0010
0100
0010
0000
,
1000
0001
0100
0000
0011
0000
0100
1000
,
0001
0010
0001
0100
0000
0010
1000
0000
,
0001
0010
0100
1000
0000
0001
0100
0010
,
1000
0001
0010
0100
0000
1000
0001
0100
,
0010
1000
0001
0010
0001
0100
0001
0100
,
0001
0000
1000
0000
0100
0010
0001
0000
,
1000
0000
0000
0001
0000
0000
0000
0000
,
0100
0000
0000
0010
0000
0000
0000
0000
,
0001
0000
0000
1000
0000
0000
0000
0000
,
0100
0000
0000
1000
0000
0000
0000
0000
,
0001
0000
0010
0001
0000
0000
0100
0000
,
0010
0000
1000
0100
0000
0000
1000
0000
,
0001
0000
0010
0001
0000
0000
0100
0000
,
0101
0000
0000
1001
0000
0000
0000
0010
,
0000
0000
0001
0000
0100
0000
0001
0100
,
0000
0001
0010
0001
0000
0010
0100
1000
,
0100
0000
0100
0000
0010
0000
0001
0100
,
0000
0001
0010
0001
0000
1000
0001
0100
,
0000
0001
1000
0001
,
1000
0010
0001
0010
1000
0001
0010
0001
,
0000
1000
0001
1000
,
0001
1000
0010
1000
0001
0010
0000
1000
,
0001
0100
0010
1000
0001
0100
0010
0000
,
1000
0100
0010
0001
1000
0100
0010
0000
,
0001
0010
1000
0010
0001
0010
1000
0010
,
0001
0001
0001
1001
,
1000
0001
0001
0100
,
0001
0000
1000
0000
0010
0001
0100
0001
,
0000
0001
0010
0000
0000
0000
0100
0000
,
0010
0000
1000
0001
0100
0010
1000
0001
,
0000
0000
0000
0000
0010
0001
0100
0001
,
0000
1000
0000
0100
0000
0010
0001
0100
,
0000
0001
1000
0100
0000
0010
0001
0100
,
0000
0001
1000
0100
0000
0010
0000
0001
,
0000
0000
1000
0001
1000
0000
0001
0000
,
1000
0100
0010
0001
0100
0001
1000
0100
,
0000
0010
0001
0000
0100
0001
1000
0100
,
0000
0001
0010
0001
0100
0010
0100
0010
,
0000
1000
0100
0010
0001
1000
0001
0010
,
0000
0100
0000
1000
0000
0001
0010
0001
,
0100
0010
1000
0001
0010
0100
1000
0001
,
0000
0010
0001
0100
0000
0100
0010
1000
,
0100
0010
0001
0010
0001
0100
0010
1000
,
0001
0010
0100
1000
0001
0010
0001
0100
,
0010
0100
0001
0100
0001
0010
0100
1000
,
0001
0010
0100
1000
0001
0100
0001
0100
,
0001
0010
0100
1000
0100
1000
0001
1000
,
0100
0010
0001
1000
0100
0010
0100
1000
,
0001
0010
0100
0010
0001
1000
0001
1000
,
0100
0000
0001
1000
0000
0100
0010
0000
,
0100
0001
0010
0100
0000
0100
1000
0001
,
0100
0001
0010
0001
0000
1000
0010
1000
,
0100
0010
0001
0100
0000
0001
1000
0100
,
0010
0001
0100
0010
0000
0001
1000
0000
,
0100
1000
0001
0010
0001
0100
0010
1000
,
0001
1000
0010
1000
0001
0010
0100
1000
,
0100
1000
0001
0010
0001
1000
0100
0010
,
0100
0000
1000
0001
0000
0001
0100
0000
,
0001
0010
0100
1000
0001
0100
0001
0000
,
1000
0100
0010
0001
0100
0010
1000
0000
,
0001
0010
0100
1000
0001
0100
0001
0010
,
0001
0100
0001
1000
;

//---------------dance-single - ----------------
#NOTEDATA:;
#CHARTNAME:;
#STEPSTYPE:dance-single;
#DESCRIPTION:;
#CHARTSTYLE:Rajes;
#DIFFICULTY:Easy;
#METER:10;
#RADARVALUES:0.502985,0.725871,0.275330,0.000000,0.000000,422.000000,389.000000,33.000000,0.000000,0.000000,0.000000,0.000000,0.000000,0.000000,0.502985,0.725871,0.275330,0.000000,0.000000,422.000000,389.000000,33.000000,0.000000,0.000000,0.000000,0.000000,0.000000,0.000000;
#CREDIT:Rajes;
#DISPLAYBPM:*;
#NOTES:
// measure 0
0000
0000
0000
0000
,  // measure 1
0000
0000
0000
0000
,  // measure 2
0000
0000
0000
0000
,  // measure 3
0000
0000
0000
0000
,  // measure 4
0000
0000
0000
0000
,  // measure 5
0000
0000
0000
0000
,  // measure 6
0000
0000
0000
0000
,  // measure 7
0000
0000
0000
0000
,  // measure 8
0000
0000
0000
0000
,  // measure 9
1001
0000
0000
1100
,  // measure 10
0000
0000
0000
0000
,  // measure 11
0110
0000
0000
1001
,  // measure 12
0000
0000
0000
0000
,  // measure 13
1000
1000
0100
0100
,  // measure 14
0010
0010
0001
0001
,  // measure 15
1000
0000
0100
0000
1000
0010
1000
0010
,  // measure 16
1000
0100
0100
1000
,  // measure 17
0001
0001
1000
0100
,  // measure 18
0010
0000
0001
0000
0100
1000
0010
1000
,  // measure 19
0000
0001
0010
0000
1000
0000
1000
0000
,  // measure 20
0010
0000
1000
0000
0100
1000
0100
1000
,  // measure 21
0001
0010
0100
1000
,  // measure 22
0010
1000
0001
0010
,  // measure 23
0100
0000
1000
0010
0000
1000
0010
0000
,  // measure 24
1000
0000
0100
0010
0000
0001
1000
0001
,  // measure 25
1000
0010
1000
0100
,  // measure 26
0010
0000
0001
0000
1000
0100
1000
0100
,  // measure 27
0000
1000
0010
0000
0100
0000
0001
0000
,  // measure 28
0010
0000
0100
0000
1000
0010
1000
0010
,  // measure 29
0000
1000
0100
0000
0010
0000
0001
0000
,  // measure 30
1000
0010
1000
0100
,  // measure 31
1000
0000
0100
1000
0000
0100
1000
0001
,  // measure 32
0000
1000
0000
0010
0000
1000
0100
1000
,  // measure 33
0001
0001
0010
0100
,  // measure 34
1000
0001
0010
0001
,  // measure 35
0001
0001
1000
1000
,  // measure 36
0010
0010
1000
0100
,  // measure 37
1100
1100
0011
0011
,  // measure 38
1000
0100
0010
0000
0100
0010
0001
0000
,  // measure 39
0101
0101
1100
1100
,  // measure 40
0010
0000
1000
0001
0000
1000
0100
0000
,  // measure 41
0110
0110
1001
1001
,  // measure 42
0100
0010
0100
0000
0010
0100
0010
0000
,  // measure 43
1001
0000
1000
0001
,  // measure 44
1000
0000
0001
0000
0100
0010
0100
0000
,  // measure 45
0001
0000
1000
0000
0001
0100
0000
0100
,  // measure 46
0000
0010
0000
0010
0000
1000
0001
0000
,  // measure 47
1100
1100
0011
0011
,  // measure 48
0001
0010
0000
0001
0000
0001
1000
0000
,  // measure 49
1100
0000
0000
0010
0000
0000
1000
0000
,  // measure 50
0101
0000
0000
1000
0000
0000
0010
0000
,  // measure 51
0101
0000
0000
0000
,  // measure 52
1100
0000
0000
0000
,  // measure 53
0010
0000
0000
0000
,  // measure 54
1000
0000
0000
0000
,  // measure 55
0100
0000
0000
0000
,  // measure 56
1000
0000
0000
0000
,  // measure 57
0001
0000
0000
0000
,  // measure 58
1000
0000
0000
0000
,  // measure 59
0010
0000
0000
0000
,  // measure 60
1001
0000
0000
0000
0000
0000
0000
1100
,  // measure 61
0000
0000
0010
0000
,  // measure 62
1000
0000
0001
0000
,  // measure 63
0100
0000
0010
0000
,  // measure 64
0010
0000
0000
0000
1000
0000
0000
0001
,  // measure 65
0000
1000
0100
1000
,  // measure 66
0010
0000
1000
0000
0000
0001
0000
0001
,  // measure 67
0000
1000
1000
0010
,  // measure 68
0010
0000
0100
0000
0000
0001
0000
0001
,  // measure 69
0000
1000
0001
1000
,  // measure 70
0100
1000
0010
1000
,  // measure 71
0100
0100
1000
0010
,  // measure 72
1000
0000
0001
0000
1000
0100
1000
0000
,  // measure 73
0000
0010
1000
0100
,  // measure 74
0010
0000
0001
0000
1000
0000
0100
1000
,  // measure 75
0000
1000
0100
0000
0000
0000
0010
0000
,  // measure 76
1000
0000
0100
0000
0010
0001
0000
0001
,  // measure 77
1000
0000
0100
1000
,  // measure 78
0010
1000
0100
1000
,  // measure 79
0000
0001
0000
0000
0000
0001
0000
1000
,  // measure 80
0000
0000
0000
0010
0000
1000
0000
0100
,  // measure 81
0000
1100
1100
0011
,  // measure 82
0011
0000
0001
1000
0010
0000
1000
0100
,  // measure 83
1000
0001
0100
0100
,  // measure 84
0010
0000
0010
0000
1000
0001
0010
0100
,  // measure 85
0000
1000
0010
1000
,  // measure 86
0001
0010
0100
1000
,  // measure 87
0001
0000
1000
0100
0000
1000
0010
1000
,  // measure 88
0000
0000
0000
0100
0000
0100
0001
0000
,  // measure 89
0010
0000
0010
0000
0100
0000
1000
0010
,  // measure 90
1000
0000
1000
0000
0100
0000
0010
0001
,  // measure 91
0010
0000
0100
0000
1000
0000
0010
1000
,  // measure 92
0010
1000
0100
0010
,  // measure 93
0001
1000
0001
0000
1000
0100
1000
0000
,  // measure 94
0010
1000
0100
0010
,  // measure 95
0001
1000
0001
0000
1000
0100
1000
0000
,  // measure 96
1010
0000
0000
0001
0000
1000
0001
0000
,  // measure 97
0001
0010
0100
0000
1000
0000
0001
0000
,  // measure 98
1000
0010
1000
0000
0100
0000
1000
0000
,  // measure 99
0001
0010
0100
0000
1000
0000
0001
0000
,  // measure 100
1000
0001
0100
0000
0010
0000
1000
0000
,  // measure 101
0001
0000
1000
0000
0100
1000
0100
0000
,  // measure 102
1000
0000
0010
0000
0100
0001
1000
0000
,  // measure 103
0001
0000
1000
0000
0001
1000
0100
0010
,  // measure 104
0001
0000
1000
0000
0010
1000
0001
0000
,  // measure 105
1000
1000
0001
1000
,  // measure 106
0100
1000
0100
0000
1000
0000
0010
0000
,  // measure 107
1000
0001
0010
0000
0001
1000
0010
0000
,  // measure 108
1000
1000
1000
0011
;
