#TITLE:PARADISE;
#SUBTITLE:;
#ARTIST:TREASURE;
#TITLETRANSLIT:;
#SUBTITLETRANSLIT:;
#ARTISTTRANSLIT:;
#GENRE:;
#CREDIT:;
#BANNER:AV.avi;
#BACKGROUND:bg.png;
#LYRICSPATH:;
#CDTITLE:;
#MUSIC:audio.ogg;
#OFFSET:-0.493000;
#SAMPLESTART:38.339920;
#SAMPLELENGTH:15.000004;
#SELECTABLE:YES;
#BPMS:0.000000=114.000000
;
#STOPS:
;
#BGCHANGES:0.000=MV.avi=1.400=1=0=1===CrossFade==,
3.000=MV.avi=1.000=0=0=1=====,
99999=-nosongbg-=1.000=0=0=0 // don't automatically add -songbackground-
;
#KEYSOUNDS:;
#ATTACKS:;

//---------------dance-single - ----------------
#NOTES:
     dance-single:
     :
     Challenge:
     13:
     0.645593,0.682227,0.677389,0.174186,0.546750,467.000000,397.000000,70.000000,18.000000,0.000000,0.000000,0.645593,0.682227,0.677389,0.174186,0.546750,467.000000,397.000000,70.000000,18.000000,0.000000,0.000000:
0000
0000
0000
0000
,
0000
0000
0000
0000
,
1000
0000
0001
0010
0100
1000
0000
0001
1000
0000
0010
0000
1010
0000
0000
0000
,
0100
0000
1000
0100
0010
0000
0100
0000
0020
0000
0030
0000
0011
0000
0000
0000
,
1001
0000
0000
0000
0001
0100
0010
0100
0001
0000
1000
0100
0000
0100
1000
0000
,
0010
0000
0100
1000
0100
0000
0001
0000
0100
0000
0010
0000
0110
0000
0000
0000
,
1001
0000
1000
0001
1000
0000
0010
0000
0200
0000
0001
0000
0310
0000
0000
0000
,
0001
0000
1000
0100
1000
0000
0001
0000
0020
0000
0100
0000
0031
0000
0000
0000
,
0001
0100
1000
0100
0001
1000
0100
1000
,
0001
0000
0100
0000
0010
0000
0100
0000
0010
1000
0001
0000
0200
0000
0000
0000
,
0301
0000
1000
0100
0010
0000
0200
0000
1300
0000
0000
0000
1000
0000
0001
0010
,
0002
0000
0000
2003
0000
0000
3020
0000
0000
0000
1030
0000
0010
0000
0000
0000
,
0100
0000
0001
1000
0100
0000
2000
0000
3001
0000
0000
0000
1000
0000
0001
0010
,
0100
0000
0000
2000
0000
0000
3002
0000
0000
0000
0000
0000
1003
0000
0001
0100
,
0010
0100
0000
0001
0000
0100
0010
0000
1000
0000
0100
0000
0001
0000
0100
0000
,
1000
0010
0000
0100
0000
0001
0100
0000
0001
0000
0010
0000
1000
0000
0010
0000
,
0100
0000
1000
0001
0100
0000
0010
0000
1000
0001
0100
0000
1001
0000
0000
0000
,
0110
0000
0001
1000
0010
0000
0100
0000
0001
1000
0010
0000
1001
0000
0000
0000
,
1000
0100
0000
1000
0000
0001
0010
0000
0011
0000
1010
0000
1001
0000
0000
0000
,
0001
1000
0000
0010
0000
0010
1000
0000
0101
0000
0110
0000
1100
0000
0000
0000
,
0010
1000
0000
0001
0000
0100
0010
0000
1010
0000
0101
0000
1100
0000
0000
0000
,
0001
0000
1000
0100
1000
0001
0010
0100
2000
0000
3000
0000
1001
0000
0000
0000
,
0001
0100
1000
0100
0000
0100
0001
0000
0011
0000
1100
0000
1001
0000
0000
0000
,
0001
1000
0010
1000
0000
1000
0001
0000
0011
0000
0110
0000
1100
0000
0000
0000
,
0010
1000
0010
0100
0000
0001
0010
0000
1100
0000
1001
0000
0110
0000
0000
0000
,
1000
0000
0100
0001
0100
1000
0010
0000
0010
1000
0001
1000
0020
0000
0000
0000
,
0230
0000
0001
0000
0310
1000
0001
1000
,
0010
0100
0001
0100
2000
0000
3100
0001
,
2000
0000
0010
0000
3001
1000
0100
0010
,
0011
0000
1001
0000
1100
0000
1001
0000
0001
1000
0001
0000
1000
0100
0010
0001
,
1000
0010
0000
0010
0000
0010
1000
0000
0011
0000
1100
0000
0110
0000
0000
0000
,
1001
0000
0001
0100
1000
0000
0100
0010
1000
0000
0010
0100
1000
0000
0100
0010
,
1000
0001
0000
0001
0000
0001
0100
0000
1100
0000
0011
0000
1001
0000
0000
0000
,
0110
0000
1000
0010
0001
0000
0010
0100
0001
0000
0010
0100
1000
0000
0100
0010
,
0100
0010
0000
0001
0000
1000
0010
0000
1100
0000
0011
0000
1001
0000
0000
0000
,
0101
0000
1000
0010
0001
0000
0010
0100
0001
0000
0100
0010
0001
0000
0010
0100
,
0001
0100
0000
0001
0000
0001
0100
0000
0011
0000
1100
0000
1001
0000
1001
0000
,
0010
0001
0010
0001
1000
0001
1000
0001
0010
0100
1000
0010
0100
0000
0000
0000
,
0001
1000
0100
0001
0100
0010
0001
0000
1100
0000
0011
0000
1001
0000
0000
0000
,
0001
0100
1000
0100
0010
1000
0100
0000
1100
0000
0011
0000
1001
0000
0000
0000
,
1000
0100
1000
0010
0001
0010
0100
0000
0110
0000
1010
0000
1001
0000
0000
0000
,
0001
0100
0001
1000
0010
0100
1000
0100
0010
1000
0100
1000
0001
0000
0000
0000
,
1000
0001
1000
0010
0100
1000
0100
0000
0110
0000
1010
0000
1001
0000
0000
0000
,
0001
1000
0001
0100
0010
1000
0100
0000
0011
0000
0101
0000
1001
0000
0000
0000
,
0001
0010
1000
0010
0100
0010
0001
0000
0011
0000
0110
0000
1001
0000
0000
0000
,
1100
0000
1100
0000
0011
0000
1001
0000
0100
0001
1000
0010
1000
0000
0000
0000
,
2002
0000
0000
0000
,
3003
0000
0000
0000
;

//---------------dance-single - ----------------
#NOTES:
     dance-single:
     :
     Hard:
     10:
     0.470025,0.454213,0.164509,0.280632,0.285471,340.000000,323.000000,17.000000,29.000000,0.000000,0.000000,0.470025,0.454213,0.164509,0.280632,0.285471,340.000000,323.000000,17.000000,29.000000,0.000000,0.000000:
// measure 0
0000
0000
0000
0000
,  // measure 1
0000
0000
0000
0000
,  // measure 2
1000
0000
0001
0100
0001
0000
0100
0000
0020
0000
0000
0000
1030
0000
0000
0000
,  // measure 3
0001
0000
1000
0100
1000
0000
0010
0000
0200
0000
0000
0000
0310
0000
0000
0000
,  // measure 4
1000
0000
0000
0000
0001
0000
1000
0100
1000
0000
0001
0000
0100
0000
0010
0000
,  // measure 5
2000
0000
3001
0000
0001
0100
0020
0000
,  // measure 6
1030
0000
0001
0100
0001
0000
0100
0000
0002
0000
0000
0000
1003
0000
0000
0000
,  // measure 7
0010
0000
1000
0100
1000
0000
0010
0000
0200
0000
0000
0000
0310
0000
0000
0000
,  // measure 8
1000
0100
1000
0001
0100
0001
0020
0000
,  // measure 9
0031
0000
0010
0000
0001
0000
0100
0000
0001
0100
0001
0000
2000
0000
0000
0000
,  // measure 10
3100
0000
1000
0000
0010
0000
0100
0000
0002
0000
0000
0000
0103
0000
0001
1000
,  // measure 11
0002
0000
0103
0010
2000
0000
3100
0000
,  // measure 12
1000
0000
0001
0000
0100
0000
0010
0000
0200
0000
0000
0000
0310
0000
1000
0010
,  // measure 13
2000
3001
0002
0103
,  // measure 14
1001
0001
0100
0001
0010
0100
1000
0000
,  // measure 15
1100
0010
1000
0001
0100
0001
0010
0000
,  // measure 16
1000
0010
0001
0010
1000
0001
0100
0001
,  // measure 17
0100
0001
0010
1000
0010
0001
0100
0000
,  // measure 18
0001
0100
0000
0010
0000
0100
0001
0000
1000
0000
0100
0000
1001
0000
0000
0000
,  // measure 19
0010
0100
0000
0001
0000
0001
0100
0000
0001
0000
1000
0000
1010
0000
0000
0000
,  // measure 20
0010
0100
0000
0010
0000
1000
0001
0000
0100
0000
0010
0000
1001
0000
0000
0000
,  // measure 21
0100
0000
1000
0010
1000
0000
0001
0000
0200
0000
0000
0000
0301
0000
0000
0000
,  // measure 22
0010
0100
0000
0001
0000
0100
0001
0000
1000
0000
0100
0000
1010
0000
0000
0000
,  // measure 23
0010
1000
0000
0100
0000
0010
0100
0000
1000
0000
0010
0000
0101
0000
0000
0000
,  // measure 24
0001
1000
0000
0001
0000
0100
0010
0000
0100
0000
0001
0000
0011
0000
0000
0000
,  // measure 25
0001
0000
1000
0100
1000
0000
0010
0000
0200
0000
0000
0000
0301
0000
1000
0000
,  // measure 26
0200
1000
0010
1000
,  // measure 27
2300
0000
0001
0000
3010
0100
0001
0010
,  // measure 28
0200
1000
0010
1300
,  // measure 29
0001
1000
0001
0100
0010
0000
0110
0000
,  // measure 30
0001
0100
0001
0100
0001
0000
0010
0000
0200
0000
0000
0000
1300
0000
0000
0000
,  // measure 31
0010
0000
1000
0100
1000
0000
0010
0000
1000
0000
0001
0100
0001
0000
0000
0000
,  // measure 32
1000
0100
1000
0100
1000
0000
0001
0000
0200
0000
0000
0000
0310
0000
0000
0000
,  // measure 33
1000
0000
0001
0100
0001
0000
0010
0000
0100
0000
1000
0100
1000
0000
0000
0000
,  // measure 34
0001
1000
0001
1000
0001
0000
0100
0000
0010
0000
1000
0000
0100
0000
0000
0000
,  // measure 35
1000
0000
0001
0010
0001
0000
0100
0000
0010
0000
1000
0010
1000
0000
0000
0000
,  // measure 36
0001
0100
0001
0100
0001
0000
0100
0000
0020
0000
0000
0000
1030
0000
0000
0000
,  // measure 37
0101
1100
0101
1001
,  // measure 38
0001
0100
0000
0001
0000
1000
0100
0000
1000
0000
0010
0000
1010
0000
0000
0000
,  // measure 39
1000
0100
0000
1000
0000
0100
0010
0000
0100
0000
1000
0000
1001
0000
0000
0000
,  // measure 40
0010
0100
0000
0001
0000
0100
0010
0000
1000
0000
0100
0000
0110
0000
0000
0000
,  // measure 41
0001
0000
1000
0001
1000
0000
0010
0000
0200
0000
0000
0000
0301
0000
0000
0000
,  // measure 42
0001
1000
0001
1000
0001
0000
0100
0000
0020
0000
1000
0000
1030
0000
0000
0000
,  // measure 43
0100
1000
0100
1000
0100
0000
1000
0000
0020
0000
0100
0000
0130
0000
0000
0000
,  // measure 44
0100
0010
0100
0010
0100
0000
0001
0000
2000
0000
0100
0000
3100
0000
0000
0000
,  // measure 45
1000
0000
0010
0100
0010
0000
1000
0000
0002
0000
0000
0000
0013
0000
0000
0000
,  // measure 46
2002
0000
0000
0000
0000
0000
0000
0000
0000
0000
0000
0000
0000
0000
0000
3003
;

//---------------dance-single - ----------------
#NOTES:
     dance-single:
     :
     Medium:
     7:
     0.362196,0.363855,0.058062,0.425787,0.000000,262.000000,256.000000,6.000000,44.000000,0.000000,0.000000,0.362196,0.363855,0.058062,0.425787,0.000000,262.000000,256.000000,6.000000,44.000000,0.000000,0.000000:
0000
0000
0000
0000
,
0000
0000
0000
0000
,
1000
0001
0100
0001
0020
0000
0031
0000
,
1000
0100
1000
0010
0200
0000
0310
0000
,
1000
0000
0001
1000
0001
0010
0001
0000
,
0100
0010
0100
0010
2000
0000
3010
0000
,
1000
0000
0001
0100
0002
0000
0013
0000
,
0100
0000
1000
0010
0200
0000
0310
0000
,
1000
0001
0200
0000
0301
1000
0200
0000
,
1300
0001
0200
0000
0301
0010
0200
0000
,
0310
0000
0001
1000
0020
0000
1030
0000
,
0001
0000
0100
0000
0010
0000
1000
0100
,
2000
3001
0002
0103
,
0010
0100
0010
0000
2000
0000
3001
0000
,
0001
0010
0100
1000
0020
0000
1030
0000
,
1000
0100
0010
0001
0200
0000
0310
0000
,
1000
0001
0100
0001
2000
0000
3010
0000
,
1000
0001
0010
0001
2000
0000
3010
0000
,
0100
0001
0100
0001
0020
0000
0031
0000
,
1000
0100
1000
0100
2000
0000
3010
0000
,
0100
0001
0010
0001
2000
0000
3010
0000
,
0100
0001
0010
0001
2000
0000
3010
0000
,
0100
0010
1000
0010
0200
0000
0301
0000
,
0010
0100
1000
0001
0200
0000
0310
0000
,
1000
0001
0010
0100
2000
0000
3010
0000
,
1100
0101
0020
1030
,
0002
0010
0103
1000
,
0020
1000
0130
0001
,
0020
0100
0031
1000
,
0001
1000
0001
1000
0020
0000
0130
0000
,
0010
1000
0100
1000
0020
0000
0130
0000
,
0001
0010
0100
0010
0002
0000
1003
0000
,
0010
1000
0100
1000
0020
0000
0130
0000
,
0001
0100
0001
0100
0010
1000
0010
1000
,
0100
0010
0001
0100
0020
0000
1030
0000
,
0001
0100
0010
1000
0002
0000
0103
0000
,
0001
0010
0001
1000
0020
0000
0130
0000
,
1001
1100
0101
1100
,
0001
1000
0010
1000
0001
0100
0020
0000
,
1030
0010
1000
0001
0100
0001
0020
0000
,
0031
0100
0010
1000
0100
0010
0002
0000
,
1003
0010
1000
0001
0200
0000
0310
0000
,
1000
0010
0100
0001
0010
0100
2000
0000
,
3001
0100
0010
1000
0100
1000
0002
0000
,
0103
0010
0100
0001
0010
0100
2000
0000
,
3010
1000
0010
1000
0002
0000
0013
0000
,
0200
0000
0000
0000
,
0300
0000
0000
0000
;

//---------------dance-single - ----------------
#NOTES:
     dance-single:
     :
     Easy:
     4:
     0.247454,0.311599,0.232248,0.145155,0.000000,179.000000,155.000000,24.000000,15.000000,0.000000,0.000000,0.247454,0.311599,0.232248,0.145155,0.000000,179.000000,155.000000,24.000000,15.000000,0.000000,0.000000:
0000
0000
0000
0000
,
0000
0000
0000
0000
,
1000
0001
0100
0010
,
1000
1000
0001
0000
,
0100
0001
1000
0010
,
0100
0100
0010
0000
,
1000
0100
1000
1000
,
0001
0100
0010
0000
,
1000
0001
1000
1000
,
0001
0100
0001
0001
,
0020
0000
0130
0000
,
0010
0100
1000
0000
,
0020
0000
0130
0000
,
0001
0100
0002
0000
,
1003
0100
1000
0100
,
0010
0001
0010
0001
,
0100
0010
1000
0001
,
1000
0100
0020
0000
,
0031
0100
1001
1001
,
0010
1000
1100
1100
,
0010
0100
0101
0101
,
1000
0001
0020
0000
,
0031
0100
0101
0101
,
0010
1000
1100
1100
,
0001
0100
0101
1001
,
0010
1000
0200
0000
,
2300
0000
3002
0000
,
0203
0000
0320
0000
,
2030
0000
3002
0000
,
0023
0000
0031
0000
,
1000
0001
1000
0001
,
0100
0100
0010
0010
,
1000
1000
0001
0100
,
0001
0100
0001
0010
,
0001
0001
1000
1000
,
0010
1000
0100
0100
,
1000
0001
0100
0100
,
0001
0010
0100
1000
,
0010
1000
1010
1010
,
0001
0100
0101
0101
,
0001
0010
0011
0011
,
1000
0001
0200
0000
,
0310
1000
1100
1100
,
0001
0100
0101
0101
,
0010
1000
1001
1001
,
0010
1000
0002
0000
,
0103
0000
0000
0000
;

//---------------dance-single - ----------------
#NOTES:
     dance-single:
     :
     Beginner:
     2:
     0.152067,0.178056,0.000000,0.058062,0.000000,110.000000,110.000000,0.000000,6.000000,0.000000,0.000000,0.152067,0.178056,0.000000,0.058062,0.000000,110.000000,110.000000,0.000000,6.000000,0.000000,0.000000:
0000
0000
0000
0000
,
0000
0000
0000
0000
,
0001
0100
0001
0000
,
1000
0000
1000
0000
,
0010
1000
0100
0000
,
1000
0000
1000
0000
,
0001
0100
0001
0000
,
0010
0000
0010
0000
,
0001
1000
0001
0000
,
0100
0000
0100
0000
,
0010
0000
0000
0000
,
0010
0000
0000
0000
,
1000
0000
0000
0000
,
1000
0000
0000
0000
,
0001
0100
0001
0000
,
1000
0100
1000
0000
,
0001
0000
0001
0000
,
0100
0000
0100
0000
,
0010
1000
0010
0000
,
0100
0001
0100
0000
,
0010
1000
0100
0000
,
2000
0000
3001
0000
,
0100
0001
0010
0000
,
0001
1000
0100
0000
,
1000
0001
0100
0000
,
0020
0000
1030
0000
,
0001
0000
0001
0000
,
1000
0000
1000
0000
,
0100
0000
0100
0000
,
1000
0000
1000
0000
,
0001
1000
0001
0000
,
0200
0000
0301
0000
,
1000
0001
0010
0000
,
0002
0000
0103
0000
,
0001
1000
0010
0000
,
2000
0000
3100
0000
,
1000
0001
0100
0000
,
0002
0000
0013
0000
,
0001
1000
0001
0000
,
0100
0001
1000
0000
,
0010
1000
0100
0000
,
1000
0001
0100
0100
,
0001
1000
0010
0000
,
1000
0001
0010
0000
,
0001
1000
0100
0000
,
1000
0001
1000
0000
,
0001
0000
0000
0000
;
