#TITLE:+Outbreak;
#SUBTITLE:;
#ARTIST:Astro Bloc;
#TITLETRANSLIT:;
#SUBTITLETRANSLIT:;
#ARTISTTRANSLIT:;
#GENRE:;
#CREDIT:;
#BANNER:BN.png;
#BACKGROUND:BG.png;
#LYRICSPATH:;
#CDTITLE:;
#MUSIC:Outbreak.ogg;
#OFFSET:1.773000;
#SAMPLESTART:71.583504;
#SAMPLELENGTH:14.999990;
#LASTBEATHINT:1.249683;
#SELECTABLE:YES;
#BPMS:0.000000=97.000000
,99.000000=103.500000
,100.333336=124.999992
,212.000000=125.100006
;
#STOPS:
;
#BGCHANGES:;
#KEYSOUNDS:;
#ATTACKS:;

//---------------dance-single - ----------------
#NOTES:
     dance-single:
     :
     Challenge:
     15:
     0.678518,0.657440,0.252719,0.126359,0.765589,639.000000,605.000000,34.000000,17.000000,4.000000,0.000000,0.678518,0.657440,0.252719,0.126359,0.765589,639.000000,605.000000,34.000000,17.000000,4.000000,0.000000:
// measure 0
0000
0000
0000
0000
,  // measure 1
0000
0000
0000
0000
,  // measure 2
0000
0000
0000
0000
,  // measure 3
0000
0000
0000
0000
,  // measure 4
0000
0000
0000
0000
,  // measure 5
0001
0010
0100
1000
0001
0000
0000
0000
1010
0000
0100
1000
0001
0000
0100
0000
,  // measure 6
1000
0100
0010
0001
1000
0000
0000
0000
0001
0000
0100
0000
1010
0000
0000
0000
,  // measure 7
0001
1000
0001
1000
0010
0000
0000
0000
0110
0000
1000
0010
0100
0000
0001
0000
,  // measure 8
0001
0100
0010
0100
1000
0000
0100
0000
0001
0000
0000
0000
0001
0000
0000
0001
,  // measure 9
0010
0100
0010
0100
2000
0000
3001
0100
0002
0000
1003
0100
0001
0100
0010
0001
,  // measure 10
1000
0000
0001
0000
1000
0100
1000
0000
0010
0000
1000
0001
0000
0010
0001
0010
,  // measure 11
1000
0001
0100
1000
0100
0000
0001
0010
0100
0000
0010
0001
1000
0100
1000
0000
,  // measure 12
0020
0000
0000
2030
0000
3000
0001
0000
0010
0000
0001
0100
1000
0000
0100
0000
,  // measure 13
0010
1000
0010
1000
0002
0000
1003
0100
0020
0000
0031
0100
0001
0010
0001
1000
,  // measure 14
0100
0000
0001
0000
0100
0010
1000
0000
0001
0000
0001
0100
0000
0001
0010
0001
,  // measure 15
0100
0001
0010
0100
1000
0000
0001
0010
1000
0000
0001
0010
0100
0010
1000
0000
,  // measure 16
0002
0000
0000
0203
0000
0300
0100
0000
0011
0000
0001
1000
0100
0001
0100
0000
,  // measure 17
1000
0001
0100
1000
0100
0000
1001
0000
1000
0100
0001
0100
0010
0000
1001
0000
,  // measure 18
0100
0000
0001
0000
0010
0100
1000
0001
0000
0001
0010
0100
1000
0000
0100
0000
,  // measure 19
0010
1000
0010
0001
1000
0000
0101
0000
0010
0001
0100
0001
0010
0000
1001
0000
,  // measure 20
1000
0010
0100
0001
0010
0000
0001
1000
0010
0000
0100
0000
0001
1000
0100
1000
,  // measure 21
0010
0000
1000
0000
0001
0010
0001
1000
0100
0000
1000
0100
0000
1000
0010
0100
,  // measure 22
0001
1000
0001
0000
1000
0100
0010
0100
0000
1000
0001
0000
0100
0010
1000
0000
,  // measure 23
0101
0000
0010
0000
1000
0010
0100
0010
0001
0000
1000
0000
1000
0010
0100
0000
,  // measure 24
0001
0000
1000
0100
0010
0000
0001
1000
0001
0100
0010
0000
1000
0000
0001
0010
,  // measure 25
0100
0000
0000
0000
,  // measure 26
0000
0000
0000
0000
,  // measure 27
0000
0000
0000
0000
,  // measure 28
0000
0000
1001
1100
,  // measure 29
1001
0000
0010
1000
0001
0000
1000
0000
0100
0000
1000
0001
0010
0000
0001
0000
,  // measure 30
1000
0001
0100
0010
1000
0001
0100
0000
0001
0000
1000
0100
0001
0100
1000
0001
,  // measure 31
0010
0000
0001
0010
0100
0000
1000
0000
0010
0000
1000
0010
0001
0000
0010
0000
,  // measure 32
0001
0010
0100
0010
0100
1000
0100
0010
1000
0000
0001
0010
0001
0000
0100
0000
,  // measure 33
0100
0000
0001
0010
1000
0000
0010
0000
0001
0001
0000
0000
0100
0100
0000
0000
,  // measure 34
1000
0010
0001
0010
0100
0000
0010
0000
1000
0100
0001
0100
1000
0001
1000
0001
,  // measure 35
0010
0000
0100
0010
0001
0000
0100
0000
0010
0000
1000
0010
0001
0010
0100
0001
,  // measure 36
1000
0000
0001
1000
0001
0000
0100
0000
0001
0010
0100
1000
0001
0000
0120
0000
,  // measure 37
0000
1000
1000
0001
0001
1000
0100
1030
,  // measure 38
0001
0010
0100
1000
0001
0000
1000
0001
1000
0000
0010
0100
0001
0000
0100
0010
,  // measure 39
0001
0010
1000
0001
0010
0000
0001
0000
1000
0100
0010
0001
0010
0000
0001
1000
,  // measure 40
0001
0100
0010
1000
0100
0000
1000
0001
0100
0000
0001
0000
0100
0010
0100
0010
,  // measure 41
1000
0000
0001
1000
0010
0000
1000
0010
0001
0000
0001
0010
1000
0000
0001
0000
,  // measure 42
0100
0001
1000
0010
0100
0000
0001
0010
0100
0000
1000
0010
0100
0000
0001
0000
,  // measure 43
1000
0100
0010
0100
1000
0000
1000
0000
0001
0010
0100
1000
0001
0000
1000
0100
,  // measure 44
0010
0001
1000
0001
1000
0000
0001
0010
0002
0000
1000
0000
0103
0010
1000
0000
,  // measure 45
0020
0000
1000
0000
0031
0010
0100
0001
0200
0000
0001
0000
1300
0100
0010
1000
,  // measure 46
0001
0000
0110
0000
1001
0000
0110
0000
2000
0000
0010
0000
3001
0010
0100
1000
,  // measure 47
0020
0000
0100
0000
0031
0010
0100
0001
0200
0000
0010
0000
1300
0100
0010
1000
,  // measure 48
0010
0000
1001
0000
0011
0000
1010
0000
0002
0000
0100
0000
1003
0010
0100
0010
,  // measure 49
1000
0000
M011
0000
0001
0010
0100
1000
0001
0000
110M
0000
1000
0100
0010
0001
,  // measure 50
1000
0000
0101
0000
1010
0000
0101
0000
0020
0000
0100
0000
1030
0001
0010
0001
,  // measure 51
0100
0000
1M10
0000
0001
0100
1000
0100
0001
0000
101M
0000
0001
0010
0001
0100
,  // measure 52
0010
0000
0100
0000
0010
0100
0001
0100
0010
0000
0100
0000
0001
1000
0001
0010
,  // measure 53
0100
1000
0100
0000
1001
0000
0100
0010
0001
1000
0100
0000
1010
0000
1000
0001
,  // measure 54
0100
0010
1000
0000
0011
0000
0001
1000
0010
0000
1000
0000
0001
0010
0100
0010
,  // measure 55
0001
1000
0010
0000
1001
0000
1000
0100
0010
0100
0001
0000
0110
0000
0001
0010
,  // measure 56
0100
1000
0001
0000
0101
0000
1000
0000
0100
0010
0001
0000
1000
0000
0100
1000
,  // measure 57
0001
0100
0001
1000
0100
1000
0010
0100
0000
0001
0100
1000
0100
0001
1000
0010
,  // measure 58
0000
1000
0100
1000
0010
0000
0101
0000
0010
0000
1001
0000
1000
0001
1000
0100
,  // measure 59
0001
0100
1000
0001
0100
0010
1000
0100
0000
1000
0100
1000
0001
0000
0001
0100
,  // measure 60
0010
0000
1000
0000
0001
0100
0001
0100
0010
0000
1000
0000
0100
1000
0010
1000
,  // measure 61
0100
0000
0000
0000
;

//---------------dance-single - ----------------
#NOTES:
     dance-single:
     :
     Hard:
     12:
     0.548973,0.544088,0.074329,0.230420,0.524019,517.000000,507.000000,10.000000,31.000000,0.000000,0.000000,0.548973,0.544088,0.074329,0.230420,0.524019,517.000000,507.000000,10.000000,31.000000,0.000000,0.000000:
// measure 0
0000
0000
0000
0000
,  // measure 1
0000
0000
0000
0000
,  // measure 2
0000
0000
0000
0000
,  // measure 3
0000
0000
0000
0000
,  // measure 4
0000
0000
0000
0000
,  // measure 5
1000
0000
0001
1000
0010
0000
0000
0000
1000
0000
0001
1000
0100
0000
0010
0000
,  // measure 6
0001
0010
1000
0000
0001
0000
0000
0000
1000
0000
0000
0000
0001
0000
0000
0000
,  // measure 7
0100
0000
0001
0100
0001
0000
0000
0000
1000
0000
0100
0010
0001
0000
0010
0000
,  // measure 8
1000
0000
0010
0100
1000
0000
0000
0000
1000
0000
0000
0000
0000
0000
0000
0000
,  // measure 9
0100
0000
1000
0010
1000
0000
0100
0010
0001
0000
1000
0000
0010
1000
0100
0000
,  // measure 10
0010
0000
0001
0000
1000
0100
1000
0000
0010
0000
1000
0100
0000
1000
0100
0010
,  // measure 11
0001
0000
1000
0000
0100
0000
1000
0010
1000
0000
0100
0010
0001
0000
1000
0000
,  // measure 12
0010
0000
0000
1000
0100
0000
1000
0001
0010
0000
1000
0000
0010
0000
0001
0000
,  // measure 13
1000
0010
0100
0000
0001
0000
0001
1000
0010
0000
0100
0001
0100
0000
0001
0000
,  // measure 14
1000
0000
0100
0010
0001
0000
0100
0000
0001
0000
1000
0001
0000
1000
0001
0010
,  // measure 15
0100
0000
1000
0000
0001
0000
1000
0010
0001
0000
0010
0000
0100
0001
1000
0000
,  // measure 16
0001
0000
0100
0000
0010
0000
0100
0000
0001
0000
1000
0100
0010
0100
0001
0000
,  // measure 17
1000
0100
1000
0000
0200
0000
1000
0000
0310
0100
0010
0000
0002
0000
1003
0100
,  // measure 18
1000
0000
0001
0000
0010
0001
0100
0001
0000
0010
0100
0000
1000
0000
0001
0000
,  // measure 19
0001
0100
0010
0000
0020
0000
1000
0000
0130
0001
1000
0000
0200
0000
0310
0001
,  // measure 20
1000
0000
0001
0000
0100
0000
1000
0100
0010
0000
0100
0010
1000
0000
0001
0000
,  // measure 21
0100
0010
0100
0000
0001
0000
0100
0010
1000
0000
0000
0000
1000
0000
0001
0000
,  // measure 22
0100
0001
0010
0000
0001
0010
0100
1000
0000
1000
0010
0000
1000
0000
0100
0000
,  // measure 23
0010
0000
0001
0000
1000
0100
1000
0000
0010
0000
1000
0100
0010
0000
0001
0000
,  // measure 24
1000
0000
0010
1000
0001
0000
0010
1000
0001
0000
1000
0000
0010
0000
1000
0000
,  // measure 25
1001
0000
0000
0000
,  // measure 26
0000
0000
0000
0000
,  // measure 27
0000
0000
0000
0000
,  // measure 28
0000
0000
0000
0000
,  // measure 29
2000
0000
3000
0001
0010
0000
1000
0000
0010
0000
0001
1000
0001
0000
0100
0000
,  // measure 30
0010
0100
0010
0000
1000
0001
1000
0000
0100
0000
0010
0000
0001
1000
0100
0000
,  // measure 31
2000
0000
3000
0010
0100
0000
0001
0000
1000
0000
0001
0010
0001
0000
1000
0000
,  // measure 32
0010
0100
0001
0000
1000
0000
0010
1000
0100
0000
1000
0001
0010
0000
0001
0000
,  // measure 33
2000
0000
3000
0001
0100
0000
0010
0000
1010
0000
0000
0000
0101
0000
0000
0000
,  // measure 34
0200
0000
1000
0000
0310
0001
0010
0000
0200
0000
0001
0000
0310
0001
1000
0000
,  // measure 35
0020
0000
1000
0000
0130
0001
1000
0000
0200
0000
0310
0001
2000
0000
3001
0010
,  // measure 36
0002
0000
0103
0010
1000
0000
0100
0000
0010
0100
1000
0001
0100
0000
2100
0000
,  // measure 37
0000
0001
0001
0010
0010
0001
0001
0100
,  // measure 38
3100
1000
0000
0000
1001
0000
0010
0000
0100
0000
1000
0100
0010
0100
0010
0000
,  // measure 39
0001
0000
1000
0100
0001
0000
0100
0000
0010
0000
0100
1000
0001
0000
1000
0000
,  // measure 40
0010
0100
0000
0000
0101
0000
1000
0010
0100
0000
0001
0000
0001
0010
1000
0000
,  // measure 41
0010
0000
0001
0010
0100
0000
1000
0000
0010
0000
0100
0001
0100
0000
0010
0100
,  // measure 42
0001
1000
0000
0000
1100
0000
0001
0000
1000
0000
0010
0100
0001
0000
1000
0010
,  // measure 43
1000
0000
0001
0010
0001
0000
0100
0000
0010
0000
1000
0001
0100
0000
0001
0000
,  // measure 44
1000
0100
0000
0000
0011
0000
0100
0010
0002
0000
0000
0000
0000
0000
0003
0000
,  // measure 45
0110
0000
0001
0000
1000
0001
0100
0002
0000
0003
0100
0000
0001
1000
0010
0200
,  // measure 46
0000
0300
0001
0000
0001
0000
1000
0000
0020
0000
0000
2030
0000
3100
0010
0001
,  // measure 47
1000
0000
0100
0000
1000
0010
1000
0200
0000
0300
1000
0000
0100
0010
0001
2000
,  // measure 48
0000
3000
0001
0000
0010
0000
0100
0000
2000
0000
0000
3002
0000
0013
0001
0010
,  // measure 49
0001
0000
0100
0000
0010
1000
0010
0200
0000
0300
0001
0000
0010
0100
1000
0200
,  // measure 50
0000
0300
1000
0000
0001
0000
0010
0000
0200
0000
0000
2300
0000
3001
1000
0001
,  // measure 51
1000
0000
0100
0000
1000
0010
0100
0020
0000
0030
0100
0000
0100
0000
0001
0010
,  // measure 52
1000
0000
0010
0000
0100
0000
0010
0001
0000
0000
1000
0000
0010
0000
0100
0000
,  // measure 53
0001
0100
1000
0000
0100
0000
0001
0000
1000
0100
0001
0000
1000
0000
0010
0000
,  // measure 54
0100
1000
0001
0000
0010
0000
0100
0000
2000
0000
0000
3001
0000
0001
0100
0001
,  // measure 55
1000
0010
0001
0000
0010
0000
1000
0000
0001
0010
1000
0000
0001
0000
0100
0000
,  // measure 56
1000
0010
0100
0000
0100
0000
0010
0000
0200
0000
0000
0301
0000
0001
1000
0001
,  // measure 57
0100
0010
1000
0000
0100
0010
0001
1000
0000
0010
0100
0000
0001
0010
0001
0100
,  // measure 58
0000
0001
0010
0000
0001
0000
1000
0000
0020
0000
0000
0130
0000
0001
1000
0010
,  // measure 59
0100
0010
1000
0000
0001
0010
0100
1000
0000
0100
0010
0000
0001
0000
1000
0001
,  // measure 60
0100
0000
0010
0000
1000
0010
0100
1000
0000
0000
0001
0000
0010
0100
0010
0000
,  // measure 61
1001
0000
0000
0000
;

//---------------dance-single - ----------------
#NOTES:
     dance-single:
     :
     Medium:
     9:
     0.422613,0.476077,0.081762,0.029732,0.185822,398.000000,387.000000,11.000000,4.000000,0.000000,0.000000,0.422613,0.476077,0.081762,0.029732,0.185822,398.000000,387.000000,11.000000,4.000000,0.000000,0.000000:
// measure 0
0000
0000
0000
0000
,  // measure 1
0000
0000
0000
0000
,  // measure 2
0000
0000
0000
0000
,  // measure 3
0000
0000
0000
0000
,  // measure 4
0000
0000
0000
0000
,  // measure 5
0001
0000
0000
1000
0100
0000
0000
0000
1000
0000
0000
0010
0100
0000
0000
0000
,  // measure 6
0001
0000
0000
1000
0100
0000
0000
0000
0010
0000
0000
0000
0011
0000
0000
0000
,  // measure 7
1000
0000
0000
0001
0010
0000
0000
0000
0100
0000
0000
1000
0010
0000
0000
0000
,  // measure 8
1000
0000
0000
1000
0100
0000
0000
0000
1000
0000
0000
0000
0000
0000
0000
0000
,  // measure 9
1000
0100
0010
0000
0001
1000
0100
0000
,  // measure 10
1000
0010
1000
0001
0010
0000
0100
0000
,  // measure 11
1000
0001
1000
0000
0100
0010
0001
0000
,  // measure 12
1000
0000
0000
0001
0100
0000
0001
0000
1000
0000
0100
0000
0010
0000
0001
0000
,  // measure 13
1000
0001
0100
0000
0001
0010
0100
0000
,  // measure 14
1000
0001
1000
0001
0010
0000
0001
1000
,  // measure 15
0100
0010
0100
0000
1000
0001
0010
0000
,  // measure 16
0100
0000
0000
1000
0001
0000
0100
0000
0001
0000
0010
0000
0001
0000
0100
0000
,  // measure 17
0001
1000
0100
0000
0010
0001
0100
0000
,  // measure 18
0001
0001
0010
1000
0001
0000
1000
0001
,  // measure 19
0010
0001
0100
0000
0001
0010
0100
0000
,  // measure 20
1000
0001
0010
0100
1000
0000
0100
0010
,  // measure 21
0001
1000
0001
0100
0010
0000
1001
0000
,  // measure 22
1000
0100
0010
1000
0001
1000
0001
0010
,  // measure 23
0100
0000
0001
0000
1000
0010
0001
0010
,  // measure 24
1000
0000
0000
0010
0001
0000
0000
1000
0100
0000
1000
0000
1010
0000
0000
0000
,  // measure 25
1001
0000
0000
0000
,  // measure 26
0000
0000
0000
0000
,  // measure 27
0000
0000
0000
0000
,  // measure 28
0000
0000
0000
0000
,  // measure 29
0001
0000
0000
0100
0001
0000
1000
0000
0010
0000
0000
0100
0010
0000
1000
0000
,  // measure 30
0001
0000
0000
0010
0001
0000
0010
0000
1000
0000
0010
0000
0100
0000
1000
0000
,  // measure 31
0001
0000
0000
0001
0010
0000
0001
0000
1000
0000
0000
1000
0010
0000
0100
0000
,  // measure 32
0001
0000
0000
1000
0001
0000
0010
0000
0100
0000
1000
0000
0010
0000
1000
0000
,  // measure 33
0001
0000
0000
0010
0001
0000
1000
0000
0100
1000
0000
0000
1000
0001
0000
0000
,  // measure 34
1000
0001
0010
0100
2000
0000
3002
0000
,  // measure 35
0013
0001
0100
0010
2000
0000
3002
0000
,  // measure 36
0013
0000
0000
0001
0010
0000
0100
0000
1000
0000
0100
0000
0010
0000
0001
0000
,  // measure 37
0000
1000
0001
1000
0001
0100
0001
0010
,  // measure 38
0001
1000
0000
0000
1100
0000
0000
0000
1000
0000
0001
0000
0100
0000
0001
0000
,  // measure 39
0010
0000
0000
0001
1000
0000
0100
0000
0010
0000
0000
0010
0001
0000
1000
0000
,  // measure 40
0001
0010
0100
0010
0001
0000
0100
0001
,  // measure 41
1000
0000
0000
0100
0010
0000
0001
0000
1000
0000
0000
1000
0100
0000
0010
0000
,  // measure 42
0001
1000
0000
0000
0110
0000
0000
0000
0001
0000
1000
0000
0001
0000
0010
0000
,  // measure 43
0100
0000
0000
1000
0001
0000
0100
0000
0010
0000
0000
0100
0001
0000
1000
0000
,  // measure 44
0010
0100
0001
0010
0100
0000
0001
1000
,  // measure 45
0001
0010
0100
1000
0001
1000
0010
0100
,  // measure 46
0001
0000
0010
0000
0100
0000
0001
0000
0100
0000
1000
0100
0000
1000
0001
0000
,  // measure 47
0010
0001
1000
0100
1000
0001
0010
0100
,  // measure 48
1000
0000
0001
0000
1000
0000
0001
0000
0010
0000
0010
0100
0000
0100
1000
0000
,  // measure 49
0001
1000
0001
0010
0100
0001
0100
0010
,  // measure 50
0001
0000
1000
0000
0100
0000
0010
0000
0001
0000
0001
0100
0000
0100
0010
0000
,  // measure 51
1000
0001
1000
0100
1000
0001
1000
0100
,  // measure 52
1000
0001
1000
0001
0100
0010
0001
0010
,  // measure 53
1000
0100
0000
0100
1000
0000
0010
0000
1000
0001
0000
0001
0100
0000
0001
0000
,  // measure 54
1000
0000
0010
0000
0001
0000
1000
0000
0100
0000
0100
0010
0000
0010
1000
0000
,  // measure 55
0001
0010
0000
0010
0001
0000
1000
0000
0010
1000
0000
1000
0001
0000
0100
0000
,  // measure 56
0001
0000
0100
0000
1000
0000
0001
0000
0010
0000
0010
0001
0000
0001
1000
0000
,  // measure 57
0010
1000
0010
0100
0101
0001
0100
0010
,  // measure 58
1010
0000
1000
0000
0100
0000
0010
0000
0001
0000
0001
1000
0000
1000
0010
0000
,  // measure 59
0100
0001
1000
0100
1100
1000
0001
0010
,  // measure 60
0011
0000
0001
0000
1000
0000
1000
0001
0000
1000
0001
0000
0010
0000
0100
0000
,  // measure 61
1100
0000
0000
0000
;

//---------------dance-single - ----------------
#NOTES:
     dance-single:
     :
     Easy:
     5:
     0.210245,0.272044,0.007433,0.007433,0.000000,198.000000,197.000000,1.000000,1.000000,0.000000,0.000000,0.210245,0.272044,0.007433,0.007433,0.000000,198.000000,197.000000,1.000000,1.000000,0.000000,0.000000:
// measure 0
0000
0000
0000
0000
,  // measure 1
0000
0000
0000
0000
,  // measure 2
0000
0000
0000
0000
,  // measure 3
0000
0000
0000
0000
,  // measure 4
0000
0000
0000
0000
,  // measure 5
0001
0010
0001
1000
,  // measure 6
0010
0000
1000
0100
,  // measure 7
0001
0000
1000
0100
,  // measure 8
1000
0000
0010
0000
,  // measure 9
1000
0001
1000
0100
,  // measure 10
1000
0100
0010
0001
,  // measure 11
1000
0100
1000
0001
,  // measure 12
1000
0000
0100
0000
,  // measure 13
1000
0100
1000
0010
,  // measure 14
1000
0100
0010
0001
,  // measure 15
1000
0001
0010
0001
,  // measure 16
0100
0000
0010
0000
,  // measure 17
1000
0100
1000
0001
,  // measure 18
0010
0010
0001
0010
,  // measure 19
0100
1000
1000
0100
,  // measure 20
0010
0001
1000
0100
,  // measure 21
1000
0010
1000
0000
,  // measure 22
0001
0010
0001
1000
,  // measure 23
0100
1000
0010
1000
,  // measure 24
0001
0000
0100
0000
,  // measure 25
0101
0000
0000
0000
,  // measure 26
0000
0000
0000
0000
,  // measure 27
0000
0000
0000
0000
,  // measure 28
0000
0000
0000
0000
,  // measure 29
1000
0000
0001
0010
,  // measure 30
0001
1000
0100
1000
,  // measure 31
0001
0000
1000
0100
,  // measure 32
1000
0010
1000
0001
,  // measure 33
0100
0000
0001
0000
,  // measure 34
1000
0100
1000
0001
,  // measure 35
0010
0001
0100
0000
,  // measure 36
0010
0000
1000
0000
,  // measure 37
0000
0000
1000
0100
,  // measure 38
1000
0001
1000
0001
,  // measure 39
0010
0000
0001
0010
,  // measure 40
1000
0010
0001
0000
,  // measure 41
0001
1000
0100
1000
,  // measure 42
0010
1000
0001
0010
,  // measure 43
0001
0000
1000
0100
,  // measure 44
1000
0010
1000
0000
,  // measure 45
0001
0010
0001
1000
,  // measure 46
0100
0000
1000
0000
0010
0000
1000
0001
,  // measure 47
1000
0100
1000
0100
,  // measure 48
1000
0000
0100
0000
0010
0000
0001
1000
,  // measure 49
0001
0001
1000
0100
,  // measure 50
1000
0000
0010
0000
0100
0000
0010
1000
,  // measure 51
0001
0010
0100
0001
,  // measure 52
0100
0010
0001
0001
,  // measure 53
1000
0001
0100
0000
0001
0000
0100
0000
,  // measure 54
0001
0010
0100
1000
,  // measure 55
1000
0100
0010
0000
0001
0000
0010
0000
,  // measure 56
0001
1000
0010
0100
,  // measure 57
0001
0100
0000
0100
0010
1000
0000
0001
,  // measure 58
0010
0001
1000
0000
0200
0000
0000
1300
,  // measure 59
0010
0100
0000
0100
0010
1000
0000
1000
,  // measure 60
0001
0000
0100
0000
0010
0000
1000
0001
,  // measure 61
1000
0000
0000
0000
;
