#VERSION:0.83;
#TITLE:Our Days;
#SUBTITLE:;
#ARTIST:Xodiac;
#TITLETRANSLIT:;
#SUBTITLETRANSLIT:;
#ARTISTTRANSLIT:;
#GENRE:;
#ORIGIN:;
#CREDIT:;
#BANNER:AV.avi;
#BACKGROUND:bg.png;
#PREVIEWVID:;
#JACKET:jacket.png;
#CDIMAGE:;
#DISCIMAGE:;
#LYRICSPATH:;
#CDTITLE:;
#MUSIC:audio.ogg;
#OFFSET:-0.191000;
#SAMPLESTART:36.979889;
#SAMPLELENGTH:15.000002;
#SELECTABLE:YES;
#BPMS:0.000=180.000;
#STOPS:;
#DELAYS:;
#WARPS:;
#TIMESIGNATURES:0.000=4=4;
#TICKCOUNTS:0.000=4;
#COMBOS:0.000=1;
#SPEEDS:0.000=1.000=0.000=0;
#SCROLLS:0.000=1.000;
#FAKES:;
#LABELS:0.000=Song Start;
#BGCHANGES:0.000=MV.avi=1.000=1=0=1===CrossFade==,
99999=-nosongbg-=1.000=0=0=0 // don't automatically add -songbackground-
;
#KEYSOUNDS:;
#ATTACKS:
;

//---------------dance-single - ----------------
#NOTEDATA:;
#CHARTNAME:;
#STEPSTYPE:dance-single;
#DESCRIPTION:;
#CHARTSTYLE:;
#DIFFICULTY:Challenge;
#METER:11;
#RADARVALUES:0.559288,0.599742,0.151926,0.011687,0.000000,335.000000,322.000000,13.000000,1.000000,0.000000,0.000000,0.000000,0.000000,0.000000,0.559288,0.599742,0.151926,0.011687,0.000000,335.000000,322.000000,13.000000,1.000000,0.000000,0.000000,0.000000,0.000000,0.000000;
#CREDIT:Musey;
#NOTES:
0000
0000
0000
0000
,
0000
0000
0000
0000
,
0000
0000
0000
0000
,
0000
0000
0000
0000
,
0000
0000
0000
0000
,
0000
0000
0000
0000
,
0000
0000
0000
0000
,
0000
0000
0000
0000
0000
0000
0010
0100
,
0010
0100
0001
0000
1000
0000
0010
1000
,
0001
0100
0010
0100
0001
0010
0000
0100
,
1000
0010
0100
0000
0010
0000
1000
0001
,
1000
0100
0000
0100
1000
0001
0000
0001
,
0010
0100
0010
0000
0001
0000
1000
0100
,
1000
0001
0100
0001
0010
0100
0000
0010
,
0001
1000
0100
0000
0010
0000
0001
0100
,
0001
0010
0000
0010
0001
0100
0000
0100
,
0010
1000
0100
0000
1000
0000
1000
0100
,
1000
0001
0100
0001
0010
0001
1000
0010
,
1000
0100
0001
0000
0100
0000
1000
0100
,
0010
0100
0000
0100
1000
0010
0000
1000
,
0100
0010
0001
0000
1000
0000
1000
0010
,
0100
0010
0001
0010
0100
0001
0010
0001
,
0100
0010
1000
0000
0001
0010
0001
0100
,
0010
1000
0000
1000
0001
0010
0000
0010
,
0100
1000
0010
0000
0100
0000
1001
0000
,
0100
0010
1000
0010
0100
0000
0101
0000
,
0001
0010
0100
0000
0010
0100
1000
0000
,
0010
1000
0001
0100
0001
1000
0010
0100
,
0010
0100
0001
0000
1100
0000
1000
0010
,
0100
0010
0000
0010
1000
0000
0001
0010
,
0100
1000
0000
1000
0100
0010
0100
1000
,
0001
0010
0000
0001
0010
0001
0000
1000
,
0100
0010
0001
0000
1001
0000
0010
1000
,
0010
0100
0000
0011
0000
0001
0010
0100
,
1000
0010
0000
1000
0000
0110
0000
1000
,
0100
0010
0000
0010
0001
1000
0000
0001
,
0100
0010
1000
0100
0010
0000
0010
0001
,
0100
0010
0000
0010
1000
0100
0000
0100
,
0010
0001
0010
0000
1100
0000
1000
0001
,
0100
0010
0000
0001
0100
0010
0000
0001
,
0100
0010
1000
0000
0011
0000
1000
0100
,
1000
0001
0000
0001
0010
0100
0000
0100
,
0010
0001
1000
0000
0101
0000
0010
1000
,
0001
0010
1000
0010
0001
0100
0010
1000
,
0001
0010
0100
0000
0011
0000
0010
0000
,
0010
0100
0000
1000
0000
0000
0001
1000
,
0001
1000
0010
0000
1000
0000
0010
0100
,
0001
0010
0000
0010
0000
0010
0001
1000
,
0010
1000
0110
0010
,
1000
0100
0000
0110
0000
0000
0001
0100
,
1000
0100
0001
0000
0001
0000
0100
0001
,
0010
0100
0000
0100
0000
1000
0100
0000
,
1001
0000
0001
0001
1000
0000
0010
0001
,
0010
1000
0000
1000
0010
0100
0000
0001
,
0010
0100
1000
0000
0100
0000
1000
0001
,
0100
0010
0000
0001
0100
0010
0000
0001
,
0100
0010
0100
0001
1000
0000
0001
0010
,
1000
0010
0000
0010
0001
1000
0000
1000
,
0001
0100
0010
1000
0100
0010
0001
0010
,
0100
1000
0000
1000
0001
0100
0000
0020
,
0000
0000
0000
0030
0000
0000
0000
0000
;

//---------------dance-single - ----------------
#NOTEDATA:;
#CHARTNAME:;
#STEPSTYPE:dance-single;
#DESCRIPTION:;
#CHARTSTYLE:;
#DIFFICULTY:Hard;
#METER:9;
#RADARVALUES:0.452439,0.526993,0.011687,0.946616,0.000000,271.000000,270.000000,1.000000,81.000000,0.000000,0.000000,0.000000,0.000000,0.000000,0.452439,0.526993,0.011687,0.946616,0.000000,271.000000,270.000000,1.000000,81.000000,0.000000,0.000000,0.000000,0.000000,0.000000;
#CREDIT:Musey;
#NOTES:
0000
0000
0000
0000
,
0000
0000
0000
0000
,
0000
0000
0000
0000
,
0000
0000
0000
0000
,
0000
0000
0000
0000
,
0000
0000
0000
0000
,
0000
0000
0000
0000
,
0000
0000
0000
0000
0000
0000
1000
0100
,
1000
0100
0010
0000
0002
0000
2003
0000
,
3010
1000
0100
0020
0000
0032
0000
0103
,
0010
0100
0002
0000
2003
0000
3100
1000
,
0100
0010
0000
0010
0000
0001
0000
1000
,
0010
2000
0000
3000
0002
0000
0203
0000
,
0301
1000
0001
0020
0000
0230
0000
1300
,
0001
0100
0020
0000
2030
0000
3001
0010
,
0100
0010
0000
0010
0000
0001
0000
0100
,
0010
0100
0002
0000
0203
0000
0320
0000
,
1030
0001
1000
0020
0000
0230
0000
0302
,
0000
0103
0020
0000
0130
0001
0100
0010
,
1000
0100
0000
0100
0000
1000
0000
1000
,
0002
2003
3002
0023
,
0031
0100
0010
0200
0000
0302
0000
2003
,
0000
3001
0020
0000
0032
0000
0013
0100
,
1000
0001
0000
0001
2000
0000
3100
0000
,
1000
0100
2000
0000
3200
0000
0310
0000
,
0010
0100
0020
0000
0032
0000
1003
0000
,
0010
1000
0010
0000
0100
0001
0100
0000
,
0010
1000
0020
0000
0000
0000
0130
0000
,
0100
0002
2003
3002
,
0013
0200
0000
0310
0000
0000
0010
0001
,
0010
0002
0000
1003
0000
1000
0010
0100
,
0001
1000
0000
1000
0000
0001
0010
0100
,
1000
0001
0200
0000
0320
0000
1030
0000
,
1000
0020
0000
0130
0000
0001
0010
0100
,
1000
0020
0000
0230
0000
0301
0000
0100
,
0001
0020
0000
0230
0000
1300
0000
0100
,
1000
0000
0001
1000
0002
0000
0103
0000
,
0001
1000
0000
1000
0000
1000
0000
1000
,
0000
0010
0200
0000
0301
0000
1000
0100
,
0010
0002
0000
0013
0100
2000
0000
3001
,
0010
0200
0000
0300
2000
0000
0000
0000
,
3001
0100
0000
0100
0000
0100
0000
0100
,
0000
0010
2000
0000
3001
0000
1000
0100
,
1000
0100
0010
0001
0010
0001
0100
0010
,
1000
0001
0020
0000
0032
0000
0203
0000
,
0301
2000
0000
3010
0000
0000
1000
0100
,
2000
3002
0203
0320
,
1030
0100
0000
0100
0000
0000
1000
0001
,
1000
0020
2030
3200
,
0310
0002
0000
0013
0000
0001
0010
0100
,
1000
0020
0000
2030
0000
3200
0000
1300
,
0100
0020
0000
0032
0000
0203
0000
0300
,
0110
0000
1000
0100
2000
0000
3001
0000
,
0010
0100
0000
0100
0000
0010
0000
0010
,
0000
0001
0020
0000
0130
0000
1000
0001
,
0100
0002
0000
1003
0100
2000
0000
3010
,
0100
0001
0100
0000
0002
0000
0103
0000
,
0001
1000
0000
1000
0000
0010
0000
0010
,
0000
1000
0200
0000
1300
0000
0001
0000
,
0100
0020
0000
1030
0100
0020
0000
0032
,
0000
0003
0000
0000
0000
0000
0000
0000
;

//---------------dance-single - ----------------
#NOTEDATA:;
#CHARTNAME:;
#STEPSTYPE:dance-single;
#DESCRIPTION:;
#CHARTSTYLE:;
#DIFFICULTY:Medium;
#METER:6;
#RADARVALUES:0.429066,0.455778,0.035060,0.105180,0.000000,257.000000,254.000000,3.000000,9.000000,0.000000,0.000000,0.000000,0.000000,0.000000,0.429066,0.455778,0.035060,0.105180,0.000000,257.000000,254.000000,3.000000,9.000000,0.000000,0.000000,0.000000,0.000000,0.000000;
#CREDIT:Musey;
#NOTES:
0000
0000
0000
0000
,
0000
0000
0000
0000
,
0000
0000
0000
0000
,
0000
0000
0000
0000
,
0000
0000
0000
0000
,
0000
0000
0000
0000
,
0000
0000
0000
0000
,
0000
0000
0000
0000
0000
0000
1000
0001
,
1000
0001
0100
0010
,
0100
0000
0001
0100
0010
0000
1000
0000
,
0100
0000
0010
0000
0100
0000
1000
0001
,
1000
0010
0010
0100
,
0100
0001
0100
0010
,
1000
0000
0100
1000
0100
0000
0010
0000
,
0001
0000
0100
0000
0010
0000
1000
0010
,
1000
0000
0100
0010
0100
0000
1000
0001
,
1000
0010
0010
1000
,
1000
0000
0001
0010
0100
0000
0010
0100
,
1000
0001
0100
0010
,
1000
0000
0001
0100
0001
0000
1000
0100
,
1000
0010
0010
1000
,
1000
0000
0001
0100
0001
0000
1000
0100
,
1000
0010
0100
0010
,
1000
0000
0001
0010
0100
0000
0010
0001
,
1000
0010
0010
1000
,
0001
0000
0100
0001
0100
0000
0010
0000
,
0100
0001
0001
0010
,
0010
0200
0000
1000
,
1300
0000
0001
0000
1001
0000
0010
1000
,
0010
0000
0100
0000
0001
0000
0010
0001
,
0010
0000
0100
0000
1000
0000
0010
1000
,
0010
0000
0100
0000
0001
0000
1000
0100
,
0010
0000
0001
0000
1000
0000
0100
1000
,
0100
0000
0010
0000
0001
0000
1000
0010
,
1000
0001
0100
0010
,
0100
0000
0001
1000
0001
0000
0010
0100
,
0010
0001
2000
0100
,
3100
0000
0010
0100
0010
0000
0001
1000
,
0010
0000
2000
0000
0001
0000
3001
0100
,
0010
0100
0000
0100
0010
1000
0000
0010
,
0100
0010
1000
0000
0002
0000
0100
0000
,
0103
0000
0001
0000
0010
0100
0010
0000
,
0001
2000
0010
3010
,
0100
0001
0100
0000
0010
1000
0010
0000
,
1000
0001
0001
0100
,
0010
0000
1000
0010
1000
0000
0100
0000
,
0100
0000
0010
0000
0010
0000
0001
1000
,
0001
0000
0200
0000
0310
0000
1000
0010
,
1000
0001
0001
0010
,
0010
0000
0100
0010
0100
0000
1000
0000
,
0001
1000
1000
0010
,
0010
0000
0100
0010
0100
0000
0110
0000
,
0110
1000
0002
0100
,
0103
0000
0001
0010
0001
0000
1000
0000
,
0010
0000
0200
0000
0010
0000
0310
1000
,
0100
1000
0000
0001
0100
0001
0000
1000
,
0100
1000
0001
0000
0100
0000
0010
1000
,
0010
1000
0100
0010
,
0001
0200
0010
0310
,
1000
0000
0001
1000
0100
0000
1000
0000
,
1000
0000
0000
0000
;

//---------------dance-single - ----------------
#NOTEDATA:;
#CHARTNAME:;
#STEPSTYPE:dance-single;
#DESCRIPTION:;
#CHARTSTYLE:;
#DIFFICULTY:Easy;
#METER:4;
#RADARVALUES:0.310530,0.316853,0.000000,0.175299,0.000000,186.000000,186.000000,0.000000,15.000000,0.000000,0.000000,0.000000,0.000000,0.000000,0.310530,0.316853,0.000000,0.175299,0.000000,186.000000,186.000000,0.000000,15.000000,0.000000,0.000000,0.000000,0.000000,0.000000;
#CREDIT:Musey;
#NOTES:
0000
0000
0000
0000
,
0000
0000
0000
0000
,
0000
0000
0000
0000
,
0000
0000
0000
0000
,
0000
0000
0000
0000
,
0000
0000
0000
0000
,
0000
0000
0000
0000
,
0000
0000
0000
1000
,
1000
0001
0100
0010
,
0100
0001
0001
0010
,
0010
0001
1000
0100
,
1000
0010
0010
1000
,
1000
0001
0100
0001
,
0010
0001
0001
0100
,
0100
0010
1000
0100
,
0010
0001
0001
1000
,
1000
0010
1000
0100
,
1000
0001
0001
0100
,
0100
0010
1000
0100
,
1000
0010
0010
1000
,
1000
0001
0010
0001
,
0100
0010
0010
1000
,
1000
0001
0010
0100
,
1000
0001
1000
0010
,
0000
1000
1000
0002
,
0000
1003
0001
2000
,
0000
3001
0100
0010
,
0100
0002
0000
0010
,
0013
0001
0010
0100
,
1000
0001
0100
0001
,
0001
1000
1000
0010
,
1000
0100
0000
0010
,
0010
0001
0100
0001
,
1000
0010
0010
1000
,
1000
0100
0010
0001
,
1000
0010
0010
0100
,
0100
0001
2000
0000
,
3001
0100
0001
0010
,
0100
2000
0000
3010
,
0100
0001
0100
0010
,
0100
0001
0020
0000
,
0130
0010
0001
0010
,
0100
2000
0000
3001
,
0100
0010
0100
0001
,
0010
0001
0001
1000
,
1000
0020
0000
1030
,
0000
0001
0100
0001
,
0010
0200
0000
0310
,
0000
0001
1000
0010
,
1000
0001
0000
0100
,
0000
0010
1000
0100
,
0010
0001
0010
0100
,
1000
0002
0000
0203
,
0000
0310
1000
0010
,
1000
0002
0000
0013
,
0000
0100
0010
0001
,
1000
0010
0000
2000
,
0000
3001
0100
0010
,
0100
0002
0000
0013
,
0000
0100
0100
0200
,
0000
0300
0000
0000
;

//---------------dance-single - ----------------
#NOTEDATA:;
#CHARTNAME:;
#STEPSTYPE:dance-single;
#DESCRIPTION:;
#CHARTSTYLE:;
#DIFFICULTY:Beginner;
#METER:2;
#RADARVALUES:0.203681,0.244396,0.000000,0.233732,0.000000,122.000000,122.000000,0.000000,20.000000,0.000000,0.000000,0.000000,0.000000,0.000000,0.203681,0.244396,0.000000,0.233732,0.000000,122.000000,122.000000,0.000000,20.000000,0.000000,0.000000,0.000000,0.000000,0.000000;
#CREDIT:Musey;
#NOTES:
// measure 0
0000
0000
0000
0000
,  // measure 1
0000
0000
0000
0000
,  // measure 2
0000
0000
0000
0000
,  // measure 3
0000
0000
0000
0000
,  // measure 4
0000
0000
0000
0000
,  // measure 5
0000
0000
0000
0000
,  // measure 6
0000
0000
0000
0000
,  // measure 7
0000
0000
0000
0000
,  // measure 8
0000
1000
1000
0010
,  // measure 9
0000
0200
0000
0301
,  // measure 10
0000
0010
0010
0001
,  // measure 11
0000
2000
0000
3001
,  // measure 12
0000
0100
0100
0001
,  // measure 13
0000
0020
0000
0031
,  // measure 14
0000
1000
0001
1000
,  // measure 15
0000
0020
0000
0130
,  // measure 16
0000
0100
0001
0100
,  // measure 17
0000
0002
0000
1003
,  // measure 18
0000
1000
0100
0010
,  // measure 19
0000
0002
0000
0103
,  // measure 20
0000
0010
1000
0010
,  // measure 21
0000
2000
0000
3100
,  // measure 22
0000
0010
0001
1000
,  // measure 23
0000
0020
0000
1030
,  // measure 24
0000
1000
0000
1000
,  // measure 25
0000
0001
0000
0001
,  // measure 26
0000
0100
0000
0100
,  // measure 27
0000
0020
0000
0000
,  // measure 28
0000
0130
0000
0100
,  // measure 29
0001
0010
0000
0010
,  // measure 30
0000
0001
0000
1000
,  // measure 31
0100
1000
0000
1000
,  // measure 32
0000
0010
0000
0010
,  // measure 33
0100
0001
0000
0001
,  // measure 34
0000
0010
0000
0010
,  // measure 35
0100
1000
0000
1000
,  // measure 36
0000
0001
0000
0200
,  // measure 37
0000
0310
0100
0010
,  // measure 38
0000
2000
0000
3001
,  // measure 39
0000
0001
0010
0100
,  // measure 40
0000
0100
0000
0020
,  // measure 41
0000
0031
1000
0010
,  // measure 42
0000
2000
0000
3100
,  // measure 43
0000
1000
0001
1000
,  // measure 44
0000
0010
0000
0010
,  // measure 45
0000
0200
0000
0000
,  // measure 46
0000
0310
0000
0010
,  // measure 47
0000
2000
0000
0000
,  // measure 48
0000
3001
0000
0001
,  // measure 49
0000
0002
0000
0000
,  // measure 50
0000
0013
0000
0010
,  // measure 51
0000
0100
0010
0100
,  // measure 52
0000
1000
0000
2000
,  // measure 53
0000
3001
0100
0010
,  // measure 54
0100
0002
0000
0013
,  // measure 55
0000
0100
0010
0001
,  // measure 56
0000
1000
0000
2000
,  // measure 57
0000
3010
1000
0001
,  // measure 58
0100
0020
0000
1030
,  // measure 59
0000
1000
0000
1000
;
