#VERSION:0.83;
#TITLE:Otonoke;
#SUBTITLE:;
#ARTIST:Creepy Nuts;
#TITLETRANSLIT:;
#SUBTITLETRANSLIT:;
#ARTISTTRANSLIT:;
#GENRE:;
#ORIGIN:;
#CREDIT:;
#BANNER:AV.avi;
#BACKGROUND:bg.png;
#PREVIEWVID:;
#JACKET:jacket.png;
#CDIMAGE:;
#DISCIMAGE:;
#LYRICSPATH:;
#CDTITLE:;
#MUSIC:audio.ogg;
#OFFSET:-0.092000;
#SAMPLESTART:44.419930;
#SAMPLELENGTH:14.999995;
#SELECTABLE:YES;
#BPMS:0.000=173.000,
129.500=150.500,
133.000=170.000,
196.000=165.000,
203.000=173.000,
214.000=170.000,
325.000=172.000;
#STOPS:;
#DELAYS:;
#WARPS:8.000=17.000,
25.500=17.000,
50.000=16.000,
66.500=17.000,
91.000=17.000,
108.500=17.000;
#TIMESIGNATURES:0.000=4=4;
#TICKCOUNTS:0.000=4;
#COMBOS:0.000=1;
#SPEEDS:0.000=1.000=0.000=0;
#SCROLLS:0.000=1.000;
#FAKES:;
#LABELS:0.000=Song Start;
#BGCHANGES:0.000=MV.avi=1.400=1=0=1===CrossFade==,
2.000=MV.avi=1.000=0=0=1=====,
355.000=MV.avi=0.100=0=0=1=====,
99999=-nosongbg-=1.000=0=0=0 // don't automatically add -songbackground-
;
#KEYSOUNDS:;
#ATTACKS:
;

//---------------dance-single - ----------------
#NOTEDATA:;
#CHARTNAME:;
#STEPSTYPE:dance-single;
#DESCRIPTION:;
#CHARTSTYLE:;
#DIFFICULTY:Challenge;
#METER:16;
#RADARVALUES:0.825267,1.208643,0.076587,0.262585,0.853401,528.000000,521.000000,7.000000,24.000000,0.000000,0.000000,0.000000,0.000000,95.000000,0.825267,1.208643,0.076587,0.262585,0.853401,528.000000,521.000000,7.000000,24.000000,0.000000,0.000000,0.000000,0.000000,95.000000;
#CREDIT:Musey;
#NOTES:
// measure 0
0000
0000
1000
0000
0000
1000
0001
0000
1000
0000
0000
1000
0001
0000
1000
0000
,  // measure 1
0000
1000
0001
0000
1000
0000
0000
1000
0001
0000
1000
0000
0000
1000
0001
0000
,  // measure 2
0000
0000
0001
0000
0000
0001
1000
0000
0001
0000
0000
0001
1000
0000
0001
0000
,  // measure 3
0000
0001
1000
0000
0001
0000
0000
0001
1000
0000
0001
0000
0000
0001
1000
0000
,  // measure 4
0000
0000
0000
0000
,  // measure 5
0000
0000
0000
0000
,  // measure 6
0000
0000
0000
0000
,  // measure 7
0000
0000
0000
0000
,  // measure 8
0000
0000
0000
0000
0000
0000
0000
0000
0000
0000
0001
0000
0000
0001
1000
0000
,  // measure 9
0001
0000
0000
0001
1000
0000
0001
0000
0000
0001
1000
0000
0001
0000
0000
0001
,  // measure 10
1000
0000
0001
0000
0000
0001
1000
0000
0000
0000
0001
0000
0000
0001
1000
0000
,  // measure 11
0001
0000
0000
0001
1000
0000
0001
0000
0000
0001
1000
0000
0001
0000
0000
0001
,  // measure 12
1000
0000
0001
0000
0000
0001
1000
0000
0000
0000
1000
0000
0000
1000
0001
0000
,  // measure 13
1000
0000
0000
1000
0001
0000
1000
0000
0000
1000
0001
0000
1000
0000
0000
1000
,  // measure 14
0001
0000
1000
0000
0000
1000
0001
0000
0000
0000
0001
0000
0000
0001
1000
0000
,  // measure 15
0001
0000
0000
0000
,  // measure 16
0000
0000
0000
0000
,  // measure 17
0000
0000
0000
0000
,  // measure 18
0000
0000
0000
0000
0000
0000
0000
0000
0000
0000
1000
0000
0000
1000
0001
0000
,  // measure 19
1000
0000
0000
1000
0001
0000
1000
0000
0000
1000
0001
0000
1000
0000
0000
1000
,  // measure 20
0001
0000
1000
0000
0000
1000
0001
0000
1000
0000
0000
1000
0001
0000
1000
0000
,  // measure 21
0000
1000
0001
0000
1000
0000
0000
1000
0001
0000
1000
0000
0000
1000
0001
0000
,  // measure 22
1000
0000
0000
1000
0001
0000
1000
0000
0000
1000
0001
0000
0000
0000
0001
0000
,  // measure 23
0000
0001
1000
0000
0001
0000
1000
0000
0000
1000
0001
0000
1000
0000
0000
1000
,  // measure 24
0001
0000
1000
0000
0000
1000
0001
0000
0000
0000
1000
0000
0000
1000
0001
0000
,  // measure 25
1000
0000
0000
1000
0001
0000
1000
0000
0000
1000
0001
0000
1000
0000
0000
1000
,  // measure 26
0001
0000
1000
0000
0000
1000
0000
1000
0000
0000
0000
0000
0000
0000
0000
0000
,  // measure 27
0000
0000
0000
0000
,  // measure 28
0000
0000
0000
0000
,  // measure 29
0000
0000
0000
0000
,  // measure 30
0000
0000
0000
0000
,  // measure 31
0000
0000
0000
0000
0000
0000
0001
0000
0000
0001
1000
0000
0001
0000
0000
0001
,  // measure 32
1000
0000
0001
0000
0000
0001
1000
0000
0000
0000
0000
0000
0000
0000
0000
0000
,  // measure 33
0000
0000
0000
0000
2000
0000
0000
3001
0100
0000
0002
0000
0000
0013
0001
0000
,  // measure 34
2000
0000
0000
3010
0100
0000
0001
1000
0001
0010
0100
1000
0001
0000
1000
0001
,  // measure 35
1000
0000
0000
0000
0010
0000
0100
0010
1000
0000
0010
0000
0100
0010
1000
0000
,  // measure 36
0010
0000
0100
0010
1000
0000
0001
0010
0100
0010
0001
1000
0010
0000
0100
0001
,  // measure 37
0100
0000
0001
0000
0000
0000
1000
0001
1000
0001
0010
0000
0001
1000
0001
0010
,  // measure 38
0001
0000
1000
0100
0010
0000
0001
0000
1000
0000
0010
1000
0010
0000
0000
0100
,  // measure 39
0010
0000
1000
0000
0000
0000
1000
0010
1000
0010
0100
0000
0010
0000
0001
0010
,  // measure 40
0001
0000
0010
1000
0010
0000
1000
0001
1000
0001
0010
0000
0001
0000
0000
0010
,  // measure 41
0100
0000
1000
0100
0001
0100
1000
0010
,  // measure 42
0100
0000
0010
0000
0001
0000
1000
0100
1000
0100
0010
0000
0100
0000
0000
0010
,  // measure 43
0100
0000
0001
0000
0000
0000
1000
0010
1000
0000
0001
0010
0001
0000
0000
0010
,  // measure 44
0100
0000
1000
0000
1001
0000
0001
0000
1001
0000
1000
0000
1010
0000
0000
0010
,  // measure 45
1000
0001
1001
0000
1010
0010
1010
1000
,  // measure 46
1001
0000
0000
0001
0100
0000
0001
1000
0001
0000
1000
0000
0010
0000
0000
0010
,  // measure 47
0100
0000
0001
0000
0000
0000
1000
0001
1000
0010
1000
0001
0100
0000
0000
0100
,  // measure 48
0010
0000
0100
0000
0001
0100
0001
0000
1000
0001
1000
0100
0010
0000
0100
0010
,  // measure 49
0002
0000
0000
0000
2003
0000
0000
3001
0010
0000
0002
0000
0000
1003
0010
0000
,  // measure 50
2000
0000
0000
3001
0100
0000
0002
0000
0000
1003
0001
0000
0020
0000
0000
0031
,  // measure 51
2000
3002
0000
0023
,  // measure 52
0000
0000
0031
0010
0100
1000
0002
0000
,  // measure 53
0203
0000
0000
0000
0320
0000
0000
0000
1030
0001
0100
0000
0001
0000
0010
0000
,  // measure 54
0100
0000
0000
0000
1000
0010
0100
0000
0001
0000
0010
0000
1000
0000
0010
0000
,  // measure 55
0100
0000
0000
0000
1000
0001
0100
0000
0001
0000
0010
0001
0100
0000
0001
1000
,  // measure 56
0020
0000
0000
0000
1030
0000
0000
0000
1000
0000
0001
0100
1000
0000
0100
0000
,  // measure 57
0001
0000
0100
0000
0010
0000
1000
0000
0001
0000
1000
0100
0001
0000
0100
0000
,  // measure 58
1000
0000
0010
0000
0100
0000
0001
0000
0010
0000
0001
0100
1000
0000
0100
0000
,  // measure 59
0010
1000
0100
0001
1000
0010
0001
0100
,  // measure 60
0010
0000
0000
1000
0200
0000
0000
0000
0310
0000
0001
1000
0010
0000
1000
0000
,  // measure 61
0001
0000
0010
0000
1000
0000
0010
0000
0002
0000
0000
0000
0013
0000
0001
0100
,  // measure 62
0001
0000
1000
0000
0010
0000
0000
0000
1000
0000
0100
1000
0001
0000
0010
0000
,  // measure 63
0001
0000
0100
0000
1000
0000
0100
0000
0002
0000
0000
0000
1003
0000
0100
1000
,  // measure 64
0100
0000
1000
0000
0001
0000
0000
0000
0010
0000
0001
0010
1000
0000
0010
0000
,  // measure 65
0001
0000
0100
0000
0010
0000
1000
0000
0001
0000
1000
0100
0001
0000
0100
0000
,  // measure 66
1000
0000
0001
0000
0100
0000
0001
0000
0010
0000
0001
0100
1000
0000
0100
0000
,  // measure 67
0001
0100
0010
0001
1000
0100
0010
1000
,  // measure 68
0001
0000
0000
0100
0002
0000
0000
0000
0013
0000
0001
1000
0100
0000
1000
0000
,  // measure 69
0100
0000
0010
0000
0001
0000
1000
0000
0020
0000
0000
0000
1030
0000
0000
0001
,  // measure 70
0100
0000
0001
0000
1000
0000
0000
0000
0010
0000
1000
0100
0010
0000
0100
0000
,  // measure 71
1000
0000
0001
0000
0100
0000
0010
0000
0002
0000
0000
0000
0013
0000
0000
1000
,  // measure 72
0020
0000
1030
0000
0100
0000
0010
0000
0000
0001
0000
0000
1000
0000
0000
0010
,  // measure 73
0000
0000
0100
0000
0001
0000
0000
0010
0000
0000
0001
0000
1000
0000
0000
0010
,  // measure 74
0000
0000
0100
0000
0010
0000
0000
1000
0000
0000
0100
0000
0010
0000
0000
0001
,  // measure 75
0000
0000
0100
0000
1000
0000
0000
0100
0000
0000
0001
0000
0010
0000
0000
0001
,  // measure 76
0000
0000
0100
0000
1000
0000
0000
0100
0000
0000
0001
0000
0010
0000
0000
0001
,  // measure 77
1000
0000
0100
0000
0001
0000
0000
0100
0000
0000
1000
0000
0010
0000
0000
1000
,  // measure 78
0000
0000
0100
0000
0001
0000
0000
0100
0000
0000
1000
0000
0010
0000
1000
0010
,  // measure 79
1000
0000
0001
0000
0100
0000
0000
0000
0100
0000
0000
0000
0010
0000
1000
0100
,  // measure 80
0010
0000
0001
0000
1000
0000
0000
0000
1000
0000
0000
0000
0010
0000
1000
0001
,  // measure 81
1000
0000
0010
0000
0100
0000
0010
0100
1000
0000
0100
0000
0001
1000
0001
0000
,  // measure 82
0100
0000
0001
0010
0001
0000
1000
0000
0010
0100
0010
0000
1000
0000
0001
0100
,  // measure 83
0001
0000
0010
0000
0100
0000
0100
0001
0100
0000
1000
0000
0001
1000
0001
0000
,  // measure 84
0100
0000
0010
1000
0010
0000
0001
0000
0010
0001
0010
0000
1000
0000
0001
1000
,  // measure 85
0001
0000
0010
0000
0100
0000
1000
0010
0001
0000
0010
0000
1000
0100
1000
0000
,  // measure 86
0001
0000
1000
0100
0001
0000
0100
0000
1000
0010
0100
0000
0010
0000
1000
0001
,  // measure 87
1000
0000
0001
0000
0010
0000
0001
1000
0001
0000
1000
0000
0010
0100
0010
0000
,  // measure 88
0100
0000
0001
1000
0002
0000
0003
0000
0000
0000
0000
0000
0000
0000
0000
0000
;

//---------------dance-single - ----------------
#NOTEDATA:;
#CHARTNAME:;
#STEPSTYPE:dance-single;
#DESCRIPTION:;
#CHARTSTYLE:;
#DIFFICULTY:Hard;
#METER:12;
#RADARVALUES:0.712730,0.918569,0.185998,0.503288,0.557993,456.000000,439.000000,17.000000,46.000000,0.000000,0.000000,0.000000,0.000000,95.000000,0.712730,0.918569,0.185998,0.503288,0.557993,456.000000,439.000000,17.000000,46.000000,0.000000,0.000000,0.000000,0.000000,95.000000;
#CREDIT:Musey;
#NOTES:
0000
0000
1000
0000
0000
1000
0001
0000
1000
0000
0000
1000
0001
0000
1000
0000
,
0000
1000
0001
0000
1000
0000
0000
1000
0001
0000
1000
0000
0000
1000
0001
0000
,
0000
0000
0001
0000
0000
0001
1000
0000
0001
0000
0000
0001
1000
0000
0001
0000
,
0000
0001
1000
0000
0001
0000
0000
0001
1000
0000
0001
0000
0000
0001
1000
0000
,
0000
0000
0000
0000
,
0000
0000
0000
0000
,
0000
0000
0000
0000
,
0000
0000
0000
0000
,
0000
0000
0000
0000
0000
0000
0000
0000
0000
0000
0001
0000
0000
0001
1000
0000
,
0001
0000
0000
0001
1000
0000
0001
0000
0000
0001
1000
0000
0001
0000
0000
0001
,
1000
0000
0001
0000
0000
0001
1000
0000
0000
0000
0001
0000
0000
0001
1000
0000
,
0001
0000
0000
0001
1000
0000
0001
0000
0000
0001
1000
0000
0001
0000
0000
0001
,
1000
0000
0001
0000
0000
0001
1000
0000
0000
0000
1000
0000
0000
1000
0001
0000
,
1000
0000
0000
1000
0001
0000
1000
0000
0000
1000
0001
0000
1000
0000
0000
1000
,
0001
0000
1000
0000
0000
1000
0001
0000
0000
0000
0001
0000
0000
0001
1000
0000
,
0001
0000
0000
0000
,
0000
0000
0000
0000
,
0000
0000
0000
0000
,
0000
0000
0000
0000
0000
0000
0000
0000
0000
0000
1000
0000
0000
1000
0001
0000
,
1000
0000
0000
1000
0001
0000
1000
0000
0000
1000
0001
0000
1000
0000
0000
1000
,
0001
0000
1000
0000
0000
1000
0001
0000
1000
0000
0000
1000
0001
0000
1000
0000
,
0000
1000
0001
0000
1000
0000
0000
1000
0001
0000
1000
0000
0000
1000
0001
0000
,
1000
0000
0000
1000
0001
0000
1000
0000
0000
1000
0001
0000
0000
0000
0001
0000
,
0000
0001
1000
0000
0001
0000
1000
0000
0000
1000
0001
0000
1000
0000
0000
1000
,
0001
0000
1000
0000
0000
1000
0001
0000
0000
0000
1000
0000
0000
1000
0001
0000
,
1000
0000
0000
1000
0001
0000
1000
0000
0000
1000
0001
0000
1000
0000
0000
1000
,
0001
0000
1000
0000
0000
1000
0000
1000
0000
0000
0000
0000
0000
0000
0000
0000
,
0000
0000
0000
0000
,
0000
0000
0000
0000
,
0000
0000
0000
0000
,
0000
0000
0000
0000
,
0000
0000
0000
0000
0000
0000
0001
0000
0000
0001
1000
0000
0001
0000
0000
0001
,
1000
0000
0001
0000
0000
0001
1000
0000
0000
0000
0000
0000
0000
0000
0000
0000
,
0000
0000
0000
0000
1000
0000
0000
0001
0100
0000
0002
0000
0000
0013
0100
0000
,
2000
0000
0000
3001
0010
0000
0100
0000
0010
0000
0001
0000
2000
0000
0000
3010
,
1000
0000
0000
0000
0010
0000
0000
0100
0010
0000
1000
0000
0000
0010
1000
0000
,
0010
0000
0000
1000
0010
0000
1000
0000
0001
0000
0010
0000
0200
0000
0000
1300
,
0100
0000
0000
0000
1000
0000
0001
0000
0010
0000
0100
0000
2000
0000
0000
3001
,
1000
0000
0001
0000
0100
0000
0001
0000
0100
0000
0010
0000
2000
0000
0000
3100
,
1000
0000
0010
0000
0000
0000
1000
0000
0100
0000
0010
0000
0002
0000
0000
1003
,
0001
0000
0100
0000
0001
0000
0010
0000
0001
0000
1000
0000
0200
0000
0000
1300
,
0010
0000
1000
0010
0100
0010
1000
0010
,
0100
0000
0010
0000
1000
0000
0001
1000
0001
0000
0010
0000
0200
0000
0000
1300
,
0001
0000
1000
0000
0000
0000
0001
0000
0010
0000
0100
0000
2000
0000
0000
3001
,
1000
0000
0010
0000
0100
0000
0010
0000
1000
0000
0001
0000
0200
0000
0000
0310
,
0100
0001
1001
0000
1000
0100
1000
0001
,
0200
0000
0000
0301
0010
0000
0010
0000
0100
0000
1000
0000
0200
0000
0000
0310
,
0100
0000
1000
0000
0000
0000
0001
0000
0100
0000
0001
0000
0020
0000
0000
0130
,
0010
0000
0001
0000
1000
0000
0010
0000
0100
0000
1000
0000
0200
0000
0000
0301
,
2000
0000
3001
0010
0100
0010
0001
0100
,
0001
0010
0100
0010
0001
1000
0020
0000
,
1030
0000
0001
0000
1000
0100
0020
0000
,
0130
0000
1000
0001
0100
0001
2000
0000
,
3020
0000
0230
0000
0301
1000
0002
0000
,
0103
0000
0010
1000
0010
1000
0200
0000
,
1300
0000
0001
0100
0001
0100
0020
0000
,
1030
0000
0000
0000
0001
0000
0000
0000
1000
0000
0001
0010
0001
0000
1000
0000
,
0100
0000
0010
0000
0001
0000
1000
0000
0010
0000
1000
0001
1000
0000
0001
0000
,
0010
0000
0100
0000
1000
0000
0010
0000
0100
0000
0001
1000
0001
0000
0010
0000
,
0100
1000
0001
0100
0001
1000
0010
1000
,
0200
0000
0000
1300
0020
0000
0000
0000
0130
0000
0001
0010
0001
0000
1000
0000
,
0001
0100
0010
1000
0200
0000
2300
0000
,
3002
0000
0000
0000
0203
0000
0000
0000
0301
0000
0010
0001
0010
0000
0100
0000
,
1000
0001
0100
0010
2000
0000
3020
0000
,
2030
0000
0000
0000
3200
0000
0000
0000
0310
0000
0100
0010
0100
0000
1000
0000
,
0001
0000
0100
0000
0001
0000
1000
0000
0010
0000
1000
0100
1000
0000
0100
0000
,
0010
0000
0100
0000
1000
0000
0001
0000
0100
0000
0001
0010
0001
0000
1000
0000
,
0010
1000
0001
0010
0001
0100
0010
1000
,
0200
0000
0000
1300
0002
0000
0000
0000
0103
0000
0001
0010
0001
0000
1000
0000
,
0100
0000
1000
0000
0001
0000
0100
0000
0020
0000
0000
0000
0130
0000
0000
0001
,
0100
0000
0001
0000
0010
0000
0000
0000
0100
0000
1000
0100
1000
0000
0001
0000
,
0010
0000
0001
0000
1000
0000
0100
0000
2000
0000
0000
0000
3100
0000
0000
1000
,
0100
1000
0001
0000
0100
0000
0010
0000
,
1000
0011
0011
1010
,
1010
0000
1000
0100
0010
0001
0200
0000
,
0310
1100
1100
0011
,
0011
0000
0001
0010
0100
1000
0020
0000
,
1030
0110
0110
1001
,
1001
0000
0001
0010
0001
0010
0200
0000
,
0310
0000
0110
0000
0110
0000
1000
0100
,
0010
0001
2000
0000
3001
0000
0101
0000
,
1010
0000
0000
0000
1000
0000
0000
0001
1000
0000
0001
0000
0000
0100
0001
0000
,
1000
0000
0000
0010
1000
0000
0100
0000
0000
0010
0100
0000
1000
0000
0000
0001
,
0200
0000
0000
0000
0301
0000
0000
1000
0001
0000
1000
0000
0000
0010
1000
0000
,
0001
0000
0000
0100
0001
0000
0010
0000
0000
0100
0010
0000
0001
0000
0000
1000
,
0020
0000
0000
0000
1030
0000
0000
0001
1000
0000
0001
0000
0000
0100
0001
0000
,
1000
0000
0000
0010
1000
0000
0100
0000
0000
0010
0100
0000
1000
0000
0000
0001
,
0200
0000
0000
0000
0301
0000
0000
1000
0001
0000
1000
0000
0000
0010
1000
0000
,
0001
0000
0000
0100
0002
0000
0003
0000
0000
0000
0000
0000
0000
0000
0000
0000
;

//---------------dance-single - ----------------
#NOTEDATA:;
#CHARTNAME:;
#STEPSTYPE:dance-single;
#DESCRIPTION:;
#CHARTSTYLE:;
#DIFFICULTY:Medium;
#METER:8;
#RADARVALUES:0.581438,0.823040,0.361054,0.350113,0.000000,372.000000,339.000000,33.000000,32.000000,0.000000,0.000000,0.000000,0.000000,19.000000,0.581438,0.823040,0.361054,0.350113,0.000000,372.000000,339.000000,33.000000,32.000000,0.000000,0.000000,0.000000,0.000000,19.000000;
#CREDIT:Musey;
#NOTES:
0000
1000
0000
0000
1000
0000
0000
1000
,
0000
0000
1000
0000
0000
1000
0000
0000
,
0000
0001
0000
0000
0001
0000
0000
0001
,
0000
0000
0001
0000
0000
0001
0000
0000
,
1000
0000
0000
1000
0000
0000
1000
0000
,
0000
1000
0000
0000
1000
0000
0000
0000
,
0000
0000
0000
0000
,
0000
0000
0000
0000
,
0000
0000
0000
0000
,
0000
0000
0000
0000
,
0000
0000
0000
0000
0000
0001
0000
0000
,
0001
0000
0000
0001
0000
0000
0001
0000
,
0000
0001
0000
0000
0000
0000
1000
0000
,
0000
1000
0000
0000
1000
0000
0000
1000
,
0000
0000
1000
0000
0000
1000
0000
0000
,
0000
0000
0000
0000
,
0000
0000
0000
0000
,
0000
0000
0000
0000
,
0000
0000
0000
0000
,
0000
0000
0000
0000
,
0000
0000
0000
0000
0000
0000
0000
1000
,
0000
0000
1000
0000
0000
1000
0000
0000
,
1000
0000
0000
1000
0000
0000
0000
0001
,
0000
0000
0001
0000
0000
0001
0000
0000
,
0000
0000
0000
0000
,
0000
0000
0000
0000
,
0000
0000
0000
0000
,
0000
0000
0000
0000
,
0000
0000
0000
0000
,
0000
0000
0000
0000
,
0000
0000
0000
0000
,
0000
0000
0000
0001
0000
0000
0001
0000
,
0000
0001
0000
0000
0000
0000
0000
0000
,
0000
0000
1000
0100
1000
0001
0100
0001
,
0010
0100
0010
0001
1000
0010
2000
0000
,
3001
0000
0100
0001
0100
0010
1000
0010
,
1000
0100
0010
0100
0010
0001
2000
0000
,
3010
0000
1000
0001
1000
0001
0100
0010
,
0100
0010
1000
0100
0010
0001
0200
0000
,
0301
0000
1000
0001
1000
0001
0100
0010
,
0100
0010
1000
0100
0010
0001
2000
0000
,
3001
0000
1000
0100
0010
0100
1000
0100
,
0010
0100
1000
0001
0100
0001
0020
0000
,
0031
0000
1000
0001
0100
0010
1000
0001
,
0010
1000
0010
0001
0100
0010
2000
0000
,
3100
0000
1001
0000
0010
0100
0001
1000
,
0020
0000
1030
0001
0010
0100
0020
0000
,
0031
0000
1000
0010
1000
0001
0200
0000
,
0310
0000
1000
0100
0010
0100
0020
0000
,
0031
2000
0000
3002
,
0000
0000
0103
0001
0100
0000
0001
1000
,
0001
0020
0000
0032
,
0000
0000
1003
0001
1000
0000
0010
0000
,
0010
0200
0000
0302
,
0000
0000
0013
0100
0010
0000
0002
0000
,
0000
0000
1003
0100
1000
0000
0020
0000
,
0000
0000
1030
0000
1000
0000
1000
0100
,
0010
0000
1001
0000
0110
0000
0001
0010
,
0100
0000
1100
0000
1001
0000
0010
0100
,
0001
0000
1000
0010
0100
0001
0010
0100
,
2000
0000
3001
0000
1000
0000
0010
0100
,
0010
0000
1100
0000
0011
0000
0001
1000
,
0010
1000
0001
0000
0101
0000
0001
0010
,
0100
0010
0002
0000
1003
0000
0010
1000
,
0100
0010
0001
0000
1001
0000
0010
1000
,
0010
1000
0001
0000
0101
0000
0001
0010
,
0100
0010
0001
0000
1001
0000
1000
0010
,
0100
0010
1000
0001
0010
1000
0010
0001
,
0200
0000
0310
0000
1010
0000
0001
1000
,
0010
0100
0001
1000
0020
0000
1030
0000
,
1010
0000
0001
0000
1001
0000
0100
0010
,
0001
1000
0020
0000
0130
0000
0010
0000
,
1010
0000
0100
1000
0100
1000
0100
0010
,
0100
0010
0001
1000
0001
1000
0010
0100
,
0010
0100
0001
1000
0100
1000
0002
0000
,
0013
0000
0001
0010
0001
0010
0100
1000
,
0100
1000
0010
0100
0001
1000
0020
0000
,
1030
0000
0010
1000
0010
1000
0010
0100
,
0010
0100
0001
0010
0001
0010
0100
0010
,
0001
1000
0020
0000
1030
0000
0001
1000
,
0001
1000
0020
0000
0130
0000
0010
0000
,
1010
1001
0110
1001
,
0110
0000
0001
1000
0100
1000
0002
0000
,
0013
0110
0011
0110
,
0011
0000
0100
1000
0001
0100
0020
0000
,
1030
1010
0101
1010
,
0101
0000
0001
1000
0010
1000
0002
0000
,
0103
1100
1100
0011
,
0011
2002
3003
0000
;

//---------------dance-single - ----------------
#NOTEDATA:;
#CHARTNAME:;
#STEPSTYPE:dance-single;
#DESCRIPTION:;
#CHARTSTYLE:;
#DIFFICULTY:Easy;
#METER:4;
#RADARVALUES:0.432953,0.675883,0.000000,0.404818,0.000000,277.000000,277.000000,0.000000,37.000000,0.000000,0.000000,0.000000,0.000000,19.000000,0.432953,0.675883,0.000000,0.404818,0.000000,277.000000,277.000000,0.000000,37.000000,0.000000,0.000000,0.000000,0.000000,19.000000;
#CREDIT:Musey;
#NOTES:
0000
1000
0000
0000
1000
0000
0000
1000
,
0000
0000
1000
0000
0000
1000
0000
0000
,
0000
0001
0000
0000
0001
0000
0000
0001
,
0000
0000
0001
0000
0000
0001
0000
0000
,
1000
0000
0000
1000
0000
0000
1000
0000
,
0000
1000
0000
0000
1000
0000
0000
0000
,
0000
0000
0000
0000
,
0000
0000
0000
0000
,
0000
0000
0000
0000
,
0000
0000
0000
0000
,
0000
0000
0000
0000
0000
0001
0000
0000
,
0001
0000
0000
0001
0000
0000
0001
0000
,
0000
0001
0000
0000
0000
0000
1000
0000
,
0000
1000
0000
0000
1000
0000
0000
1000
,
0000
0000
1000
0000
0000
1000
0000
0000
,
0000
0000
0000
0000
,
0000
0000
0000
0000
,
0000
0000
0000
0000
,
0000
0000
0000
0000
,
0000
0000
0000
0000
,
0000
0000
0000
0000
0000
0000
0000
1000
,
0000
0000
1000
0000
0000
1000
0000
0000
,
1000
0000
0000
1000
0000
0000
0000
0001
,
0000
0000
0001
0000
0000
0001
0000
0000
,
0000
0000
0000
0000
,
0000
0000
0000
0000
,
0000
0000
0000
0000
,
0000
0000
0000
0000
,
0000
0000
0000
0000
,
0000
0000
0000
0000
,
0000
0000
0000
0000
,
0000
0000
0000
0001
0000
0000
0001
0000
,
0000
0001
0000
0000
0000
0000
0000
0000
,
0000
1000
0001
0100
,
0010
0000
1000
0100
1000
0100
0020
0000
,
0031
0100
0100
0010
,
0010
0000
1000
0100
0010
0100
2000
0000
,
3010
1000
1000
0001
,
0001
0000
0100
0001
0100
0001
0020
0000
,
0031
1000
1000
0010
,
0010
0000
0100
0001
0010
0100
2000
0000
,
3001
0000
1000
0001
1000
0000
0010
0100
,
0010
0000
1000
0001
1000
0000
0200
0000
,
0310
0000
0001
0010
0001
0000
1000
0100
,
1000
0000
0001
0100
0010
0000
0200
0000
,
0310
0000
1000
0100
1000
0000
0001
0010
,
0001
0000
1000
0010
1000
0010
0200
0000
,
0301
0000
1000
0001
1000
0000
0010
0100
,
0010
0000
1000
0001
0010
0001
0200
0000
,
0310
2000
0000
3002
,
0000
0023
0000
0032
,
0000
0203
0000
0302
,
0000
0000
2000
0003
0000
0000
3020
0000
,
2030
3020
0000
2030
,
0000
3002
0000
0023
,
0230
2300
0000
3002
,
0000
0103
0100
0010
,
0010
0000
1000
0010
1000
0000
0001
0100
,
0001
0000
0010
0001
0010
0000
0100
1000
,
0100
0000
1000
0100
0010
0001
0100
0000
,
0010
0000
1000
0000
0001
0000
0100
0001
,
0100
0010
1000
1000
,
0001
0000
0001
0000
0010
0000
0001
0010
,
0100
1000
1000
0010
,
0010
0000
0100
0000
0100
0000
0001
0010
,
0100
0000
1000
0001
1000
0000
0010
0100
,
0010
0000
1000
0001
1000
0000
0100
0010
,
0100
0000
1000
0100
0010
0001
0010
0100
,
1000
0000
0002
0000
0103
0000
0010
0100
,
0010
1000
1000
0001
,
0001
0000
0010
0000
0010
0000
0001
0010
,
0100
1000
1000
0010
,
0010
0000
1000
0000
0001
0100
0001
0000
,
0010
0002
0010
0100
,
0010
2003
0100
0010
,
0001
3020
0100
1000
,
0100
2030
0100
0001
,
0010
3002
0010
1000
,
0010
0203
0010
0001
,
0010
0320
0100
1000
,
0100
2030
0001
0010
,
3001
0000
0100
0001
0100
0000
0010
1000
,
0010
1000
0100
0020
,
0130
0000
0010
0001
0010
0000
0001
1000
,
0001
1000
0010
0200
,
0310
0000
1000
0001
1000
0000
0001
0010
,
0001
0000
0010
0100
0010
0000
0002
0000
,
0103
0000
0001
1000
0001
0000
0100
0010
,
2000
3001
0000
0000
;

//---------------dance-single - ----------------
#NOTEDATA:;
#CHARTNAME:;
#STEPSTYPE:dance-single;
#DESCRIPTION:;
#CHARTSTYLE:;
#DIFFICULTY:Beginner;
#METER:1;
#RADARVALUES:0.295408,0.531051,0.087528,0.240703,0.000000,189.000000,181.000000,8.000000,22.000000,0.000000,0.000000,0.000000,0.000000,0.000000,0.295408,0.531051,0.087528,0.240703,0.000000,189.000000,181.000000,8.000000,22.000000,0.000000,0.000000,0.000000,0.000000,0.000000;
#CREDIT:Musey;
#NOTES:
0000
0000
0000
0000
,
0000
0000
0000
0000
,
0000
0000
0000
0000
,
0000
0000
0000
0000
,
0000
0000
0000
0000
,
0000
0000
0000
0000
,
0000
0000
0000
0000
,
0000
0000
0000
0000
,
0000
0000
0000
0000
,
0000
0000
0000
0000
,
0000
0000
0000
0000
,
0000
0000
0000
0000
,
0000
0000
0000
0000
,
0000
0000
0000
0000
,
0000
0000
0000
0000
,
0000
0000
0000
0000
,
0000
0000
0000
0000
,
0000
0000
0000
0000
,
0000
0000
0000
0000
,
0000
0000
0000
0000
,
0000
0000
0000
0000
,
0000
0000
0000
0000
,
0000
0000
0000
0000
,
0000
0000
0000
0000
,
0000
0000
0000
0000
,
0000
0000
0000
0000
,
0000
0000
0000
0000
,
0000
0000
0000
0000
,
0000
0000
0000
0000
,
0000
0000
0000
0000
,
0000
0000
0000
0000
,
0000
0000
0000
0000
,
0000
0000
0000
0000
,
0000
1000
0001
1000
,
0001
0100
0100
0020
,
0000
1030
1000
0001
,
0001
0010
0001
2000
,
0000
3010
0010
0100
,
0100
0001
1000
0020
,
0000
1030
1000
0100
,
0100
1000
0001
0020
,
0000
0031
0001
0100
,
0100
0010
0010
2000
,
0000
3001
1000
0001
,
0100
0010
1000
0002
,
0000
0013
0010
0100
,
0100
1000
0001
2000
,
0000
3010
0100
0001
,
1000
0010
0010
2000
,
0000
3002
0000
0000
,
0000
0203
0000
0000
,
0000
0320
0000
0000
,
0000
2030
0000
0000
,
0000
3002
0000
0000
,
0000
0023
0000
0000
,
0000
0032
0000
0000
,
0000
1003
0000
0000
,
0000
1000
0001
1000
,
1001
0010
0010
0100
,
0110
1000
1000
0001
,
0001
0010
0010
0001
,
1000
0010
1010
1000
,
1000
0001
0001
0100
,
0001
0010
0011
0001
,
0001
1000
0010
1000
,
0100
0010
0110
0001
,
1000
0001
1001
1000
,
0100
1000
1000
0010
,
0010
0100
0001
1000
,
0001
0010
0011
0001
,
1000
0010
1000
0100
,
0010
0001
0011
0001
,
1000
0010
0100
0001
,
0001
1000
1000
0100
,
0100
1000
0010
0200
,
0000
0301
0001
1000
,
1000
0001
0010
0200
,
0000
1300
1000
0001
,
0001
0100
0010
1000
,
0001
2000
0000
3001
,
0010
0200
0000
1300
,
0000
0001
1000
0001
,
1000
0010
0010
0200
,
0000
0301
0010
0100
,
1000
0100
0010
0002
,
0000
0013
0100
1000
,
0010
0100
0001
2000
,
0000
3010
1000
0001
,
0100
0010
0000
0000
;
