#TITLE:One Spark;
#SUBTITLE:;
#ARTIST:TWICE;
#TITLETRANSLIT:;
#SUBTITLETRANSLIT:;
#ARTISTTRANSLIT:;
#GENRE:;
#CREDIT:;
#BANNER:AV.avi;
#BACKGROUND:bg.png;
#LYRICSPATH:;
#CDTITLE:;
#MUSIC:audio.ogg;
#OFFSET:-0.244000;
#SAMPLESTART:50.407021;
#SAMPLELENGTH:15.000010;
#SELECTABLE:YES;
#BPMS:0.000000=169.000000
;
#STOPS:
;
#BGCHANGES:0.000=MV.avi=1.200=1=0=1===CrossFade==,
3.000=MV.avi=1.000=0=0=1=====,
99999=-nosongbg-=1.000=0=0=0 // don't automatically add -songbackground-
;
#KEYSOUNDS:;
#ATTACKS:;

//---------------dance-single - ----------------
#NOTES:
     dance-single:
     :
     Challenge:
     13:
     0.605042,0.692921,0.103689,0.350947,0.135593,531.000000,518.000000,13.000000,44.000000,12.000000,0.000000,0.605042,0.692921,0.103689,0.350947,0.135593,531.000000,518.000000,13.000000,44.000000,12.000000,0.000000:
0000
0000
0000
0000
,
0000
0000
0000
0000
,
0000
0000
0000
0000
,
0000
0000
0000
0000
,
0001
0000
0100
0000
0001
0100
0010
1000
,
0001
0000
1001
0000
0100
0010
0100
0001
,
1000
0000
1000
0001
0000
0100
0010
0000
,
1000
0000
0001
0010
0100
0000
0100
1000
,
0010
0000
0010
1000
0001
0010
0100
0010
,
0001
0000
1000
0000
1010
0000
0100
0001
,
1000
0000
0001
1000
0000
1000
0100
0000
,
0010
0001
1000
0100
1000
0010
1000
0002
,
0013
2000
3010
0002
0003
0100
0010
2000
,
3100
0020
0130
2000
3000
0010
1000
0200
,
0000
0310
0001
2000
0000
3010
1000
0001
,
0010
0000
0100
1000
0000
0001
1000
0000
,
0001
0000
0010
0000
0001
1000
0010
0100
,
0010
0000
0010
0000
1001
0000
0010
1000
,
0001
0100
0001
0010
0000
0010
0001
0000
,
1000
0000
0100
1000
0100
0010
0001
0010
,
0002
0000
1003
0000
0010
0100
0010
1000
,
0002
0000
0013
0000
0001
0010
0001
0010
,
0100
0000
0100
2000
0000
3002
0000
0203
,
0000
0000
0000
0000
0300
0000
0001
1000
,
0200
0000
0000
0310
0001
1000
0010
0100
,
0020
0000
2030
0000
3020
0000
0130
0001
,
2000
0000
3100
0010
0002
0000
1003
0010
,
2000
0000
0000
0000
3001
0000
0000
0000
1000
0000
0000
0001
0000
0000
0010
0000
,
0001
0000
1000
0100
1000
0000
0001
0000
0001
0000
1000
0100
1000
0000
0010
0000
,
1000
0000
0000
0000
0110
0000
0000
0000
0001
0000
0000
1000
0000
0000
1000
0000
,
0001
0000
0001
0010
0001
0000
1000
0000
1000
0000
0001
0010
0001
0000
1000
0000
,
0100
0000
1001
0000
1000
0001
1000
0010
,
0100
0001
0100
0001
0010
0100
0010
0100
,
1000
0001
0100
0001
0100
0010
1000
0100
,
1000
0100
0010
0001
1000
0100
0010
0001
,
1000
0000
0000
0000
0000
0000
0000
0000
1000
0100
1000
0100
0010
0001
0010
0001
,
1000
0000
0010
0000
1000
0000
0100
0000
M000
0000
0100
0000
0001
0000
0010
0001
,
1000
0000
0010
0000
1000
0000
0100
0000
M000
0000
0100
0000
0001
0000
0010
0001
,
1000
0001
1000
0100
M000
0100
0001
0000
,
0010
0000
1000
0000
0001
0000
0100
0000
0010
0000
0010
0000
1000
0000
0001
0100
,
0010
0000
1000
0000
0001
0000
0010
0000
000M
0000
0010
0000
1000
0000
0001
0100
,
0010
0000
1000
0000
0001
0000
0010
0000
000M
0000
0010
0000
1000
0000
0001
0100
,
0010
1000
0001
0010
000M
0010
1000
0001
,
0200
0310
0200
0310
2000
3001
2000
3001
,
1000
0100
0010
0001
0000
0001
1000
0100
,
0010
0100
1000
0001
0000
1000
0010
0001
,
0010
1000
0001
1000
0010
0100
0000
0010
,
0000
0000
0010
0000
0000
0000
1000
0000
0100
0000
0010
0000
0001
0000
1000
0001
,
0010
0000
0001
0000
0100
0000
0010
0000
0M00
0000
0010
0000
0001
0000
1000
0001
,
0010
0000
0001
0000
0100
0000
0010
0000
0M00
0000
0010
0000
0001
0000
1000
0001
,
0010
0001
0100
0010
0M00
0010
0001
0100
,
0001
0000
0010
0000
0010
0001
0010
0001
,
0100
0010
1000
0002
0003
0010
0001
0010
,
0200
0000
0300
0000
2000
0000
3000
0000
0002
0000
0000
0003
0100
0000
0020
0000
,
0000
2030
0000
0000
0000
3001
0010
0100
,
2000
0000
3001
0200
0000
0320
0000
0000
,
1030
0001
0010
0200
0300
0100
1000
0001
,
0200
0300
0002
0003
1000
0100
0001
0200
,
0000
1300
0020
0000
0000
0000
0030
0000
,
0001
0000
0000
0001
0000
0000
1000
0000
1000
0000
0000
0010
0000
0000
1000
0000
,
0001
1000
0001
0000
1000
0010
0100
0000
,
0001
0010
0001
0000
1000
0100
0010
0000
,
0001
1000
0001
0000
0100
0010
0100
0000
,
0001
0010
1000
0000
0001
0000
0010
0000
,
0100
1000
0100
1000
0010
0100
0001
0010
,
0001
0010
0001
1000
0100
0010
0001
1000
,
0010
0000
0000
0000
,
0000
0000
0000
0000
0000
0000
0000
0000
0001
0010
0001
0010
0100
1000
0100
1000
,
0001
0000
0101
0000
0100
0000
0001
0100
,
0000
0100
0001
0000
1000
0100
1100
0000
,
0010
0100
0110
0000
0010
0000
0010
1000
,
0000
1000
0001
0000
0100
0010
0110
0000
,
0001
0000
1001
0000
1000
0000
1000
0001
,
0000
0001
1000
0000
0001
0010
0011
0000
,
1000
0100
1100
0000
0001
0000
0001
0010
,
0011
0000
0000
0000
0000
0000
0000
0000
1000
0100
1000
0100
0010
0001
0010
0001
,
1000
0010
0100
0001
0000
0001
0010
1000
,
0010
0001
0100
0010
0000
0100
0001
1000
,
0100
0010
0100
1000
0001
1000
0000
0100
,
0000
0000
0100
0000
0000
0000
1000
0000
0100
0000
0010
0000
0001
0000
1000
0100
,
0010
0000
0001
0000
1000
0000
0100
0000
M000
0000
0100
0000
0001
0000
1000
0100
,
0010
0000
0001
0000
1000
0000
0100
0000
M000
0000
0100
0000
0001
0000
1000
0100
,
0010
0001
1000
0100
M000
0100
0001
1000
,
0001
0000
0100
0000
0001
0010
0001
0200
,
0300
0000
0000
0002
0000
0000
0000
0000
0000
0000
0003
0000
0000
0000
0200
0000
,
0300
0000
0000
0002
0000
0000
0000
0000
0000
0000
0003
0000
0000
0000
0200
0000
,
0300
0000
0000
0002
0000
0000
0000
0000
0000
0000
0000
0000
0000
0000
0003
0000
;

//---------------dance-single - ----------------
#NOTES:
     dance-single:
     :
     Hard:
     11:
     0.518445,0.554337,0.135593,0.558325,0.059821,455.000000,438.000000,17.000000,70.000000,0.000000,0.000000,0.518445,0.554337,0.135593,0.558325,0.059821,455.000000,438.000000,17.000000,70.000000,0.000000,0.000000:
0000
0000
0000
0000
,
0000
0000
0000
0000
,
0000
0000
0000
0000
,
0000
0000
0000
0000
,
0001
0000
0010
0000
0100
1000
0100
1000
,
0010
0000
0100
0000
0001
0000
1000
0200
,
1000
0000
0310
0000
0001
0010
0001
0000
,
0100
0000
0001
0010
0100
0000
0100
0010
,
0001
0000
1000
0000
0001
1000
0001
0010
,
0100
0000
1000
0000
0001
0000
0100
0020
,
0100
0000
1030
0000
0001
0010
0100
0000
,
1000
0000
0001
0100
1000
0100
0001
2000
,
3000
0020
0030
2000
3000
0001
0100
0020
,
0030
0200
0300
0020
0030
1000
0001
2000
,
3000
0002
0003
0200
0300
0002
0003
0020
,
0000
0000
0031
1000
0002
0000
1003
0001
,
2000
0000
0100
0000
3010
0100
0010
0100
,
0001
0000
1000
0000
0010
0000
0100
0001
,
0000
0001
0100
0000
0001
0000
0010
0000
,
0001
0000
1000
0100
0001
0100
1000
0001
,
0020
0000
0030
0000
0001
1000
0001
1000
,
0200
0000
0300
0000
1000
0100
0010
0001
,
2000
0000
3010
0200
0000
0302
0000
2003
,
0000
0000
0000
3000
0000
0000
1000
0010
,
2000
0000
0000
3100
0010
0001
1000
0100
,
2000
0000
3020
0000
0230
0000
0301
0010
,
0200
0000
0310
0100
2000
0000
3001
0010
,
0200
0000
0000
0000
1300
0000
0000
0000
0010
0000
0000
1000
0000
0000
0001
0000
,
1000
0000
0000
0001
0000
0000
1000
0000
0100
0000
0000
0010
0000
0000
0001
0000
,
1000
0000
0000
0000
1001
0000
0000
0000
0001
0000
0000
1000
0000
0000
0010
0000
,
0100
0000
0000
0010
0000
0000
0100
0000
0010
0000
0000
1000
0000
0000
0001
0000
,
0010
0000
0011
0000
0001
0100
0001
0000
,
2000
0000
3010
0000
0100
0001
0100
0000
,
0002
0000
2003
0000
3200
0000
0310
0002
,
0000
0000
0000
0000
,
0003
0000
0000
1000
0001
0010
0100
1000
,
0001
0020
0001
0000
0001
0030
0100
1000
,
0001
0020
0100
0000
0100
0030
0100
1000
,
0001
0020
0001
0000
0100
0030
1000
0100
,
0010
0000
0001
0001
1000
0100
0010
0001
,
1000
0200
1000
0000
1000
0300
0010
0001
,
1000
0200
0010
0000
0010
0300
0010
0001
,
1000
0200
1000
0000
0010
0300
0001
0000
,
1000
0001
1000
0001
0100
0010
1000
0100
,
0001
0100
1000
0001
0000
2000
0000
3010
,
0100
0001
0010
0100
0000
2000
0000
3020
,
0000
0230
0000
0301
1000
0001
0000
0020
,
0000
0030
0001
0010
1000
0010
0001
1000
,
0100
2000
0001
0000
0001
3000
0001
1000
,
0100
2000
0010
0000
0010
3000
0001
1000
,
0100
2000
0001
0000
0010
3000
0100
0001
,
1000
0000
0010
0000
1000
0001
0100
0000
,
0010
0100
1000
0100
0000
0001
0100
0001
,
2000
0000
3002
0000
2003
0000
3100
2000
,
0000
3020
0000
0000
0000
1030
0100
1000
,
0002
0000
1003
0002
0000
0203
0000
0000
,
0301
0010
0100
1000
0000
0001
1000
0001
,
2000
0000
3020
0000
0130
0001
0100
0002
,
0000
1003
0020
0000
0000
0000
0000
0030
,
1000
0000
0000
1000
0000
0000
0010
0000
0100
0000
0000
0001
0000
0000
0100
0000
,
0001
0000
0000
0000
1001
0000
0000
0000
0100
0000
0000
0010
0000
0000
1000
0000
,
0001
0000
0000
0000
0011
0000
0000
0000
1000
0000
0000
1000
0000
0000
0010
0000
,
0100
0000
0000
0001
0000
0000
0001
0000
1000
0000
0000
0010
0000
0000
0010
0000
,
0100
0000
1001
0000
1000
0100
0010
0100
,
1000
0000
0001
0010
0000
0010
0100
0000
,
1000
0000
0001
1000
0000
0010
0100
0000
,
0001
0010
0100
1000
0100
0010
0001
0000
,
0000
0000
0000
1000
0010
0100
0010
1000
,
0001
0000
0011
0000
0011
0000
1000
0100
,
0010
0000
1001
0000
1001
0000
0010
0100
,
0001
0000
1100
0000
1100
0000
0001
1000
,
0001
0000
1000
0100
0010
0000
0001
0010
,
0100
0000
1100
0000
1100
0000
0001
0010
,
0001
0000
1010
0000
1010
0000
1000
0100
,
0010
0000
0101
0000
0101
0000
1000
0001
,
1000
0000
0000
0001
0010
1000
0010
0001
,
1000
0100
1000
0010
0000
0020
0000
1030
,
0100
0001
0100
1000
0000
0200
0000
0320
,
0000
0032
0000
1003
0001
1000
0000
0020
,
0000
0030
0100
0001
1000
0100
0010
0001
,
1000
0200
1000
0000
1000
0300
0010
0001
,
1000
0200
0010
0000
0010
0300
0010
0001
,
1000
0200
1000
0000
0010
0300
0001
0010
,
0100
0000
1000
0001
1000
0001
0100
0010
,
0000
0000
0000
2000
0000
0000
0000
0000
0000
0000
3000
0000
0000
0000
0010
0000
,
0000
0000
0000
2000
0000
0000
0000
0000
0000
0000
3000
0000
0000
0000
0010
0000
,
0000
0000
0000
2000
0000
0000
0000
0000
0000
0000
0000
0000
0000
0000
3000
0000
;

//---------------dance-single - ----------------
#NOTES:
     dance-single:
     :
     Medium:
     8:
     0.397664,0.555135,0.007976,0.390828,0.000000,349.000000,348.000000,1.000000,49.000000,0.000000,0.000000,0.397664,0.555135,0.007976,0.390828,0.000000,349.000000,348.000000,1.000000,49.000000,0.000000,0.000000:
0000
0000
0000
0000
,
0000
0000
0000
0000
,
0000
0000
0000
0000
,
0000
0000
0000
0000
,
1000
0000
0001
0000
0100
0010
0100
0001
,
0010
0001
1000
1000
,
0010
0000
0100
0001
0100
0000
0010
0000
,
1000
0000
0100
0010
0001
0000
1000
0000
,
0010
0000
1000
0000
0001
0100
0010
0100
,
0001
0000
0010
0000
0100
0010
0001
1000
,
0010
0000
1000
0000
0001
0100
0001
0000
,
1000
0100
1000
0000
0010
1000
0001
0000
,
0200
0001
0301
0010
,
0002
0000
1000
0000
1000
0003
0010
0000
,
0200
0310
0002
0013
,
2000
3100
0001
0100
,
0010
0100
0001
0000
1000
0000
0010
0000
,
0100
0001
0010
0000
0001
0000
1000
0000
,
0010
1000
0010
0000
0100
0001
0100
0000
,
0010
0100
0010
0000
1000
0001
1000
0010
,
0200
0000
0000
0000
0301
0010
0001
0100
,
0020
0000
0000
0000
1030
0100
1000
0001
,
0200
0000
0310
0010
,
2000
0000
3001
0100
,
0001
0010
0100
1000
,
0001
0100
0100
0010
,
2000
0000
3002
0000
,
0203
0000
0320
0000
,
1030
1000
0001
0001
,
0100
0000
0100
0000
0010
1000
0010
0000
,
1000
1000
0001
0001
,
0100
0000
0100
0000
0001
0010
0100
0000
,
1000
0001
1000
0000
0010
0100
0010
0000
,
1000
0100
1000
0000
0001
0010
0001
0000
,
0100
0010
0100
0010
1000
0001
1000
0001
,
0010
0000
0001
0001
,
0100
0001
0200
0000
0010
0000
0310
0000
,
1000
0001
2000
0000
0001
0000
3001
0000
,
0001
0100
0002
0000
0100
0000
0103
0000
,
0010
0000
1000
0000
0100
0010
0100
0000
,
1000
0001
2000
0000
0010
0000
3010
0000
,
0001
0100
0002
0000
0010
0000
0013
0000
,
0100
0010
0200
0000
0010
0000
0310
0000
,
0001
1000
0010
0100
,
0001
0100
0001
1000
0010
1000
0100
0000
,
0010
0001
0010
0001
0100
0010
0100
0000
,
0001
0000
1000
0100
1000
0000
0001
0000
,
0100
0000
0010
0000
1000
0010
1000
0000
,
0001
0200
0001
0301
,
0010
0200
0010
0310
,
0001
2000
0010
3010
,
0100
0001
0100
0000
0001
0010
0100
0000
,
2000
0000
0000
0000
3001
0100
0001
0000
,
0020
0000
0032
0000
,
2003
0000
0000
0000
,
3020
0000
0000
0000
,
0130
0000
0001
0000
0010
0000
0001
0100
,
0020
0000
0000
0000
,
2030
0000
0000
0000
,
3002
0000
0000
0000
,
0103
0100
0200
0000
,
0310
0010
0020
0000
,
1030
1000
2000
0000
,
3001
0001
0002
0000
,
0103
0100
0200
0000
,
0310
0010
0020
0000
,
0130
0100
0100
0001
,
2000
0000
3001
0000
,
0100
0002
0100
0103
,
0010
2000
0100
3100
,
1000
0002
0100
0103
,
0001
0000
1000
0000
0010
0100
0010
0000
,
1000
0200
1000
1300
,
0001
0020
0100
0130
,
1000
0002
0100
0103
,
0010
0000
0000
0000
,
1001
0000
0001
0000
0100
0001
0100
0000
,
0010
1000
0100
0010
0001
1000
0010
0000
,
1000
0001
0100
0001
0010
0100
1000
0001
,
1000
0000
0010
0000
0100
0001
0100
0000
,
0010
2000
0100
3100
,
0001
0200
0010
0310
,
0001
0020
0100
0130
,
0001
1000
0001
0000
1000
0010
1000
0000
,
0002
0000
0000
0000
,
0203
0000
0000
0000
,
0320
0000
0000
0000
,
0030
0000
0000
0000
;

//---------------dance-single - ----------------
#NOTES:
     dance-single:
     :
     Easy:
     4:
     0.282581,0.381655,0.000000,0.263210,0.000000,248.000000,248.000000,0.000000,33.000000,0.000000,0.000000,0.282581,0.381655,0.000000,0.263210,0.000000,248.000000,248.000000,0.000000,33.000000,0.000000,0.000000:
0000
0000
0000
0000
,
0000
0000
0000
0000
,
0000
0000
0000
0000
,
0000
0000
0000
0000
,
1000
1000
0001
0100
,
0001
0001
0020
0000
,
0031
0100
0100
0010
,
1000
0001
2000
0000
,
3001
0100
0010
0100
,
0001
0010
0200
0000
,
0310
0001
1000
0010
,
0100
0100
0002
0000
,
0103
0100
0010
0010
,
1000
1000
0001
0001
,
0100
0100
0001
0001
,
0020
0000
0130
0100
,
1000
0000
1000
0000
0001
1000
0001
0000
,
0100
0000
0100
0000
0010
0100
0010
0000
,
1000
0001
0010
0100
,
2000
0000
3001
0000
,
0002
0000
0000
0000
,
0203
0000
0000
0000
,
0320
0000
0000
0000
,
1030
0000
1000
0000
,
2000
0000
0000
0000
,
3002
0000
0000
0000
,
0200
0003
0000
0000
0000
0000
0000
0000
,
0320
0000
0000
0000
,
1030
0000
0001
0000
1000
0000
0001
0100
,
0001
0000
0000
0000
,
0010
0000
0010
0000
0001
0000
0100
0001
,
0100
0000
0010
0000
,
1000
1000
0001
0000
,
0100
0100
0001
0000
,
0001
0010
0100
1000
,
0020
0000
0000
0000
,
1030
0001
0001
0001
,
0100
0010
0010
0010
,
1000
0100
0100
0100
,
1000
0001
0001
0010
,
0100
1000
1000
1000
,
0010
0100
0100
0100
,
0001
0010
0010
0010
,
0001
0010
0100
1000
,
0001
1000
0001
0000
0100
0000
0010
0000
,
1000
0010
1000
0000
0001
0000
0100
0000
,
0001
0010
0100
0000
0010
0000
0001
0000
,
2000
0000
0010
3010
,
0100
0001
1000
1000
,
0001
0010
0100
0100
,
0010
0001
1000
1000
,
0010
0100
0002
0000
,
2003
0000
0000
0000
,
3100
0000
0000
0000
,
0002
0000
0000
0000
,
0103
0000
0000
0000
,
0020
0000
0000
0000
,
0130
0000
0000
0000
,
2000
0000
0000
0000
,
3100
0000
0000
0000
,
1000
1000
0002
0000
,
0103
0100
0020
0000
,
0130
0100
0001
0001
,
2000
0000
3010
0000
,
1000
1000
0001
0100
,
0001
0001
0010
0010
,
0100
0100
1000
1000
,
0002
0000
0000
0000
,
0103
0100
0100
0100
,
0010
0010
0010
0010
,
1000
1000
1000
1000
,
0001
0001
0001
0001
,
0100
0100
0100
0100
,
0010
0010
0010
0010
,
2000
0000
0000
0000
,
3001
0000
0000
0000
,
1000
0001
0100
0001
,
0010
0001
1000
0010
,
0100
0001
1000
1000
,
0002
0000
0103
0100
,
0010
0200
0001
0301
,
1000
0002
0010
0013
,
0100
2000
0010
3010
,
0200
0000
0301
0000
,
2000
0000
0000
0000
,
3002
0000
0000
0000
,
0203
0000
0000
0000
,
0300
0000
0000
0000
;

//---------------dance-single - ----------------
#NOTES:
     dance-single:
     :
     Beginner:
     2:
     0.153824,0.242871,0.000000,0.183450,0.000000,135.000000,135.000000,0.000000,23.000000,0.000000,0.000000,0.153824,0.242871,0.000000,0.183450,0.000000,135.000000,135.000000,0.000000,23.000000,0.000000,0.000000:
// measure 0
0000
0000
0000
0000
,  // measure 1
0000
0000
0000
0000
,  // measure 2
0000
0000
0000
0000
,  // measure 3
0000
0000
0000
0000
,  // measure 4
1000
0000
1000
0000
,  // measure 5
0001
0000
0000
0000
,  // measure 6
0100
0000
0100
0000
,  // measure 7
0010
0000
0000
0000
,  // measure 8
1000
0000
0001
0000
,  // measure 9
0010
0000
0000
0000
,  // measure 10
0001
0000
0100
0000
,  // measure 11
0010
0000
0000
0000
,  // measure 12
1000
0000
1000
0000
,  // measure 13
0001
0000
0001
0000
,  // measure 14
0100
0000
0100
0000
,  // measure 15
0010
0000
0000
0000
,  // measure 16
1000
0000
1000
0000
,  // measure 17
0001
0000
0001
0000
,  // measure 18
0100
0000
0100
0000
,  // measure 19
0020
0000
0000
0000
,  // measure 20
2030
0000
0000
0000
,  // measure 21
3002
0000
0000
0000
,  // measure 22
0203
0000
0000
0000
,  // measure 23
0310
0000
0000
0000
,  // measure 24
2000
0000
0000
0000
,  // measure 25
3002
0000
0000
0000
,  // measure 26
0023
0000
0000
0000
,  // measure 27
0130
0000
0000
0000
,  // measure 28
1000
0000
1000
0000
,  // measure 29
0001
0000
0001
0000
,  // measure 30
0100
0000
0100
0000
,  // measure 31
0010
0000
0010
0000
,  // measure 32
1000
0000
1000
0000
,  // measure 33
0001
0000
0001
0000
,  // measure 34
1000
0000
0001
0000
,  // measure 35
2000
0000
0000
0000
,  // measure 36
3001
0100
0001
0000
,  // measure 37
0100
0010
0100
0000
,  // measure 38
0001
1000
0001
0000
,  // measure 39
1000
0000
1000
0000
,  // measure 40
0100
1000
0100
0000
,  // measure 41
1000
0001
1000
0000
,  // measure 42
0010
0100
0010
0000
,  // measure 43
1000
0000
1000
0000
,  // measure 44
0002
0000
0103
0000
,  // measure 45
0200
0000
0301
0000
,  // measure 46
0002
0000
0103
0000
,  // measure 47
0010
0000
0010
0000
,  // measure 48
2000
0000
3001
0000
,  // measure 49
0002
0000
1003
0000
,  // measure 50
2000
0000
3001
0000
,  // measure 51
0100
0000
0100
0000
,  // measure 52
0020
0000
0000
0000
,  // measure 53
1030
0000
0000
0000
,  // measure 54
2000
0000
0000
0000
,  // measure 55
3001
0000
0000
0000
,  // measure 56
0002
0000
0000
0000
,  // measure 57
0103
0000
0000
0000
,  // measure 58
0200
0000
0000
0000
,  // measure 59
0310
0000
0000
0000
,  // measure 60
1000
0000
1000
0000
,  // measure 61
0001
0000
0001
0000
,  // measure 62
0100
0000
0100
0000
,  // measure 63
0010
0000
0010
0000
,  // measure 64
1000
0000
1000
0000
,  // measure 65
0001
0000
0001
0000
,  // measure 66
1000
0000
1000
0000
,  // measure 67
0010
0000
0000
0000
,  // measure 68
1000
0000
0000
0000
,  // measure 69
0001
0000
0000
0000
,  // measure 70
1000
0000
0000
0000
,  // measure 71
0010
0000
0000
0000
,  // measure 72
0100
0000
0000
0000
,  // measure 73
0001
0000
0000
0000
,  // measure 74
0200
0000
0000
0000
,  // measure 75
0301
0000
0000
0000
,  // measure 76
1000
0000
1000
0000
,  // measure 77
0001
0000
0001
0000
,  // measure 78
0100
0000
0010
0000
,  // measure 79
0100
0000
0100
0000
,  // measure 80
0002
0000
1003
0000
,  // measure 81
2000
0000
3010
0000
,  // measure 82
0002
0000
0103
0000
,  // measure 83
1000
0000
1000
0000
,  // measure 84
0020
0000
0000
0000
,  // measure 85
0000
0000
0000
0000
,  // measure 86
0000
0000
0000
0000
,  // measure 87
0030
0000
0000
0000
;
