#VERSION:0.83;
#TITLE:Neko Kaburi;
#SUBTITLE:;
#ARTIST:Amayadori;
#TITLETRANSLIT:;
#SUBTITLETRANSLIT:;
#ARTISTTRANSLIT:;
#GENRE:;
#ORIGIN:;
#CREDIT:;
#BANNER:BN.png;
#BACKGROUND:bg.png;
#PREVIEWVID:;
#JACKET:jacket.png;
#CDIMAGE:;
#DISCIMAGE:;
#LYRICSPATH:;
#CDTITLE:;
#MUSIC:audio.ogg;
#OFFSET:-0.058000;
#SAMPLESTART:58.462387;
#SAMPLELENGTH:14.999999;
#SELECTABLE:YES;
#BPMS:0.000=123.000;
#STOPS:;
#DELAYS:;
#WARPS:;
#TIMESIGNATURES:0.000=4=4;
#TICKCOUNTS:0.000=4;
#COMBOS:0.000=1;
#SPEEDS:0.000=1.000=0.000=0;
#SCROLLS:0.000=1.000,
196.000=0.900,
197.000=0.800,
198.000=0.700,
199.000=0.600,
200.000=0.500,
228.000=0.800,
232.000=1.000;
#FAKES:;
#LABELS:0.000=Song Start;
#BGCHANGES:0.000=MV.avi=1.200=1=0=0=StretchNoLoop==CrossFade==,
3.000=MV.avi=1.000=0=0=1=====,
99999=-nosongbg-=1.000=0=0=0 // don't automatically add -songbackground-
;
#KEYSOUNDS:;
#ATTACKS:
;

//---------------dance-single - ----------------
#NOTEDATA:;
#CHARTNAME:;
#STEPSTYPE:dance-single;
#DESCRIPTION:;
#CHARTSTYLE:;
#DIFFICULTY:Challenge;
#METER:13;
#RADARVALUES:0.517729,0.627179,0.086632,0.346528,0.231019,502.000000,490.000000,12.000000,48.000000,0.000000,0.000000,0.000000,0.000000,0.000000,0.517729,0.627179,0.086632,0.346528,0.231019,502.000000,490.000000,12.000000,48.000000,0.000000,0.000000,0.000000,0.000000,0.000000;
#CREDIT:Musey;
#NOTES:
// measure 0
0000
0000
0000
0000
,  // measure 1
0000
0000
0000
0000
,  // measure 2
0000
0000
0000
0000
,  // measure 3
0000
0000
0000
0000
,  // measure 4
1000
0010
0200
0000
0302
0003
0000
0100
,  // measure 5
0010
1000
0001
0010
0200
0000
0300
0000
,  // measure 6
1000
0100
0010
0100
2000
0000
3001
0100
,  // measure 7
0010
0010
0200
0000
0302
0003
0000
0000
,  // measure 8
0001
0100
1000
0100
0002
0003
1000
0010
,  // measure 9
0001
0010
1000
0010
0200
0000
0300
0000
,  // measure 10
0001
1000
0100
1000
0002
0000
0013
0010
,  // measure 11
0001
0010
0100
0010
0002
0003
0000
0000
,  // measure 12
2000
3000
0000
2000
3000
0000
0000
0000
,  // measure 13
0020
0030
0000
0020
0030
0000
0000
0000
,  // measure 14
0010
0000
1000
0000
0100
0000
1000
0000
0010
0100
0010
0000
0200
0000
0000
0000
,  // measure 15
0301
0100
1000
0100
0001
0010
0002
0000
,  // measure 16
0103
0000
0010
0000
1000
0000
0010
0000
0100
0001
0100
0000
0010
0000
0001
0000
,  // measure 17
0010
0100
0001
0010
0200
0000
0310
0000
,  // measure 18
0100
0000
0010
0000
0100
0000
0001
0000
0100
1000
0100
0000
1000
0000
0010
0000
,  // measure 19
0100
0001
0010
0001
0200
0000
0310
0000
,  // measure 20
1000
0000
0010
0000
0100
0000
0010
0000
1000
0001
1000
0000
0020
0000
0000
0000
,  // measure 21
1030
0100
0010
0001
0200
0000
0301
0000
,  // measure 22
0010
0000
0100
0000
0001
0000
0010
0000
0100
0010
0100
0000
2000
0000
0000
0000
,  // measure 23
3001
0010
1000
0010
0002
0000
2003
0000
,  // measure 24
3010
0100
0001
0100
1000
0100
0010
1000
,  // measure 25
0001
0000
0000
0010
0000
0000
0100
0000
0000
0010
0000
0000
0001
0000
0000
1000
0001
1000
0010
0000
0000
0000
0000
0000
,  // measure 26
0100
0010
0100
0001
2000
0000
3001
0000
,  // measure 27
0010
0100
0001
0100
2000
0000
3100
0010
,  // measure 28
1000
0010
0100
1000
0000
0100
0010
1000
,  // measure 29
0010
0000
0000
0000
0000
0001
1001
0000
,  // measure 30
1100
0000
1000
0010
1000
0000
0001
0000
0001
0000
1000
0000
0010
0100
0010
0000
,  // measure 31
0010
0000
1000
0000
0001
0000
0010
0000
0002
0000
0003
0000
0001
0010
0001
0000
,  // measure 32
1000
0000
0100
0000
0001
0000
0100
0000
0010
0000
0001
0000
0100
0010
0100
0000
,  // measure 33
0010
0000
0001
0000
0010
0000
1000
0000
0200
0000
0300
0000
0010
0001
0010
0000
,  // measure 34
0001
0000
1000
0000
0010
0000
0100
0000
0001
0000
0100
0000
0010
1000
0010
0000
,  // measure 35
0100
0000
0001
0000
0100
0000
1000
0000
0200
0000
0300
0000
0010
0100
0010
0000
,  // measure 36
1000
0000
0001
0000
0010
0000
1000
0000
0010
0000
0100
0000
0010
0100
0010
0000
,  // measure 37
0001
0000
0100
0000
0010
0000
0100
0000
0001
1000
0010
0000
0100
0001
0010
0000
,  // measure 38
0100
0000
0000
1000
0000
0000
0100
0000
0000
0000
0000
0000
0001
0000
0000
0000
0000
0000
0100
0000
0000
0000
0000
0000
0010
0000
0100
0000
0010
0000
0001
0000
0000
0000
0000
0000
0100
0000
0000
0000
0000
0000
0010
0000
0000
0000
0000
0000
,  // measure 39
0100
0000
0000
0001
0000
0000
0100
0000
0000
0000
0000
0000
0010
0000
1000
0000
0010
0000
0200
0000
0000
0000
0000
0000
0300
0000
0000
0000
0000
0000
0001
0000
0000
0000
0000
0000
0100
0000
0000
0001
0000
0000
0100
0000
0000
0000
0000
0000
,  // measure 40
0010
0000
0000
0100
0000
0000
0001
0000
0000
0000
0000
0000
0100
0000
0000
0000
0000
0000
0010
0000
0000
0000
0000
0000
1000
0000
0100
0000
1000
0000
0100
0000
0000
0000
0000
0000
0001
0000
0000
0000
0000
0000
0100
0000
0000
0000
0000
0000
,  // measure 41
1000
0010
1000
0000
0010
0000
0100
0000
0001
0000
0010
0000
0020
0000
0030
0000
,  // measure 42
0100
1000
0010
0000
0100
0000
0010
0000
1000
0001
0100
0000
0001
0010
0001
0000
,  // measure 43
0010
0000
0100
0000
1000
0000
0010
0000
0100
0010
0001
0000
0010
0100
0010
0000
,  // measure 44
0100
0010
1000
0000
0100
0000
0001
0000
0100
1000
0010
0000
1000
0001
1000
0000
,  // measure 45
0100
0000
1000
0000
0001
0000
0010
0100
1000
0000
0010
0000
0100
0010
0100
0000
,  // measure 46
0010
0100
0001
0000
0010
0000
0100
0000
0010
0100
1000
0000
0010
1000
0010
0000
,  // measure 47
0100
0010
1000
0000
0010
0000
0001
0000
0010
0000
0100
0000
0010
1000
0010
0000
,  // measure 48
1000
0001
0100
0000
0010
0000
0100
0000
0010
1000
0001
0000
0010
0100
0010
0000
,  // measure 49
0002
0000
0003
0000
,  // measure 50
0001
0000
0001
0100
0100
0010
0100
1000
,  // measure 51
0100
0001
0010
0100
0020
0000
0030
0001
,  // measure 52
2000
0000
3001
0100
0020
0000
0130
0010
,  // measure 53
1000
0001
0100
0001
0020
0000
0030
0001
,  // measure 54
2000
0000
3100
0001
0100
0010
0001
0100
,  // measure 55
0010
0100
1000
0001
0020
0000
1030
0100
,  // measure 56
0020
0000
0032
0000
0103
0010
0100
1000
,  // measure 57
0001
0000
0000
0010
0000
0000
0100
0000
0000
0010
0000
0000
2000
0000
0000
0000
0000
0000
3001
0000
0100
0000
0001
0000
,  // measure 58
0100
0000
0001
0100
0010
0000
1000
0000
1001
0000
0100
0000
0001
0010
0001
0000
,  // measure 59
0101
0000
0100
0010
0001
0000
0010
0000
1000
0000
0010
0000
1000
0100
1000
0000
,  // measure 60
1010
0000
0010
0100
1000
0000
0100
0000
0001
1000
0100
0000
0010
0001
0010
0000
,  // measure 61
1001
0000
0001
0000
0100
0000
0010
0000
1010
0000
0001
0000
1000
0001
1000
0000
,  // measure 62
0110
0000
0001
1000
0100
0000
0010
0000
0001
0100
0010
0000
1000
0100
1000
0000
,  // measure 63
1010
0000
0100
0000
0001
0000
0100
0000
0010
0000
0001
0000
0010
0100
0010
0000
,  // measure 64
0110
0000
0100
0000
0010
0000
0110
0000
0100
0001
1000
0000
0100
1000
0100
0000
,  // measure 65
0011
0000
0010
0000
0001
0000
1000
0000
0100
1000
0010
0000
0010
0100
0001
0000
,  // measure 66
2000
3000
0000
2000
3000
0000
0000
0000
,  // measure 67
0020
0030
0000
0020
0030
0000
0000
0000
,  // measure 68
0200
0300
0000
0200
0300
0000
0000
0000
,  // measure 69
0020
0030
0000
0020
0030
0000
0000
0000
;

//---------------dance-single - ----------------
#NOTEDATA:;
#CHARTNAME:;
#STEPSTYPE:dance-single;
#DESCRIPTION:;
#CHARTSTYLE:;
#DIFFICULTY:Hard;
#METER:10;
#RADARVALUES:0.399126,0.526831,0.028877,0.433160,0.021658,387.000000,383.000000,4.000000,60.000000,0.000000,0.000000,0.000000,0.000000,0.000000,0.399126,0.526831,0.028877,0.433160,0.021658,387.000000,383.000000,4.000000,60.000000,0.000000,0.000000,0.000000,0.000000,0.000000;
#CREDIT:Musey;
#NOTES:
0000
0000
0000
0000
,
0000
0000
0000
0000
,
0000
0000
0000
0000
,
0000
0000
0000
0000
,
1000
0010
0200
0000
0302
0003
0000
0100
,
0010
0100
0001
0010
0200
0000
0300
0000
,
1000
0001
1000
0010
0200
0000
0301
0010
,
0100
0100
0020
0000
0230
0300
0000
0000
,
1000
0001
1000
0010
0200
0000
0301
0010
,
0001
1000
0010
0100
0002
0000
0003
0000
,
0001
1000
0100
1000
0020
0000
1030
1000
,
0001
0100
0010
0100
0002
0000
0003
0000
,
0010
0000
0000
0010
0000
0000
0000
0000
,
0100
0000
0000
0200
0000
0000
0310
0000
,
0001
1000
0010
1000
0002
0000
0103
0000
,
0001
0100
0010
0100
0002
0000
1003
0000
,
0100
1000
0100
0010
0002
0000
0103
0000
,
0010
0100
0001
1000
0020
0000
1030
0000
,
0100
1000
0100
0001
0200
0000
0310
0000
,
0001
0100
0010
0100
0002
0000
1003
0000
,
0100
1000
0010
1000
0002
0000
0103
0000
,
0001
0010
0100
0010
0002
0000
1003
0000
,
0001
0100
0010
0100
0002
0000
1003
0000
,
1000
0100
0001
0100
2000
0000
3001
0000
,
0100
0010
1000
0010
0001
0010
0200
0000
,
0301
1000
0100
0010
0002
0000
1003
0000
,
0010
0100
0001
0010
0002
0000
0103
0000
,
0010
0001
0100
0001
2000
0000
3010
0000
,
0100
0010
1000
0010
0000
1000
0010
1000
,
0200
1000
1300
1100
,
2000
0000
3001
0010
0010
0100
0010
0001
,
1000
0100
0010
0100
2000
0000
3001
0000
,
0200
0000
0301
0010
0001
0100
0010
0100
,
0001
1000
0100
0010
0200
0000
0310
0000
,
0002
0000
0013
0001
0100
0010
0001
0010
,
0100
0001
1000
0100
0020
0000
0130
1000
,
0002
0000
1003
1000
0020
0000
0130
0010
,
1000
0001
0010
0100
2000
0000
3001
0000
,
0010
0001
0010
0000
0100
0000
0100
0000
1000
0100
1000
0000
0010
0000
0010
0000
,
1000
0000
0010
0000
0100
0000
0002
0000
0003
0000
1000
0000
0010
1000
0010
0000
,
1000
0100
1000
0000
0010
0000
0100
0000
0001
0010
0001
0000
0010
0000
0010
0000
,
0001
0100
0001
0000
1000
0000
0010
0000
0100
0000
0010
0000
0020
0000
0000
0000
,
1030
0001
1000
0001
0100
0100
0001
0010
,
1000
0010
0001
0100
0020
0000
1030
0010
,
1000
0001
0200
0000
0301
0000
0001
0100
,
0001
1000
0010
1000
0200
0000
0310
0000
,
0001
0010
0001
0100
0020
0000
0130
0000
,
1000
0100
1000
0001
0200
0000
0301
0000
,
0001
0010
0100
0010
0001
1000
0010
1000
,
0002
0000
0000
0000
,
0103
0001
0100
0010
,
1000
0010
0100
0010
2000
0000
0000
0000
,
3001
0100
0001
0010
,
0001
0100
0010
0100
0002
0000
0000
0000
,
1003
0100
0010
0100
,
0010
0100
1000
0001
0200
0000
0310
0000
,
1000
1000
0001
0001
,
0100
0001
0100
0001
2000
0000
3010
0000
,
1010
0000
0101
0001
0100
0010
1000
1000
,
0001
0100
0010
1000
0002
0000
0013
0000
,
0200
0000
0310
0001
0010
0010
0001
1000
,
0010
0010
1000
0001
0200
0000
0301
1000
,
0010
1000
0001
0200
0000
0301
1000
0010
,
1000
1000
0001
0100
0001
0010
0100
0000
,
1001
0010
0100
0001
0010
0010
0001
0010
,
1000
0010
0001
0100
0020
0000
1030
0000
,
0020
0030
0000
0020
0030
0000
0000
0000
,
0002
0003
0000
0002
0003
0000
0000
0000
,
0200
0300
0000
0200
0300
0000
0000
0000
,
0020
0030
0000
0020
0030
0000
0000
0000
;

//---------------dance-single - ----------------
#NOTEDATA:;
#CHARTNAME:;
#STEPSTYPE:dance-single;
#DESCRIPTION:;
#CHARTSTYLE:;
#DIFFICULTY:Medium;
#METER:7;
#RADARVALUES:0.309400,0.400673,0.101071,0.231019,0.000000,300.000000,286.000000,14.000000,32.000000,0.000000,0.000000,0.000000,0.000000,0.000000,0.309400,0.400673,0.101071,0.231019,0.000000,300.000000,286.000000,14.000000,32.000000,0.000000,0.000000,0.000000,0.000000,0.000000;
#CREDIT:Musey;
#NOTES:
0000
0000
0000
0000
,
0000
0000
0000
0000
,
0000
0000
0000
0000
,
0000
0000
0000
0000
,
1000
0001
0100
0000
,
0001
1000
0010
1000
0001
0000
0000
0000
,
0100
0100
0010
0010
,
1000
0001
2000
0000
3001
0000
0000
0000
,
0100
0001
0010
0001
,
0100
0001
1000
0010
2000
0000
0000
0000
,
3010
0010
0100
0100
,
0001
1000
0001
1000
0200
0000
0000
0000
,
1300
0000
0000
1000
0000
0000
0000
0000
,
0010
0000
0000
0010
0000
0000
0000
0000
,
1000
0000
0010
0000
0100
0010
0100
0000
,
0001
1000
0100
0000
2000
0000
3010
0000
,
0100
0001
0010
0001
,
1000
0010
1000
0001
0200
0000
0301
0000
,
0001
1000
0010
0100
,
0010
1000
0010
0100
0002
0000
0013
0000
,
0001
0001
1000
1000
,
0010
0100
0010
1000
0020
0000
1030
0000
,
0001
0100
1000
0100
,
1000
0010
1000
0001
0200
0000
0301
0000
,
0001
1000
0010
1000
,
0001
0100
0001
0010
0002
0000
0103
0000
,
0010
0010
1000
1000
,
0100
1000
0100
1000
0020
0000
1030
0000
,
0001
0001
0100
0100
,
0220
0000
0330
0000
,
1001
1001
0001
0100
,
0001
0010
0100
0010
0002
0000
1003
0000
,
0010
0010
1000
1000
,
0010
1000
0100
0010
0200
0000
1300
0000
,
0010
0010
1000
1000
,
0010
0100
0001
0100
0020
0000
1030
0000
,
0001
0001
1000
1000
,
0100
0010
1000
0010
0200
0000
1300
0000
,
0001
0100
0001
0000
1000
0100
1000
0000
,
0010
0010
0110
1001
,
0100
0010
0100
0000
1000
0001
1000
0000
,
0110
1100
0011
0110
,
0001
1000
0001
1000
0001
0100
0001
0000
,
0010
0100
0010
0001
2000
0000
3010
0000
,
0100
0100
0001
1000
,
0001
1000
0100
1000
0002
0000
0013
0000
,
0011
0000
1100
0000
0001
1000
0010
0000
,
1100
0000
0011
0000
0001
0100
0010
0000
,
1000
1000
0001
0001
,
0200
0000
0310
0000
,
2000
0000
3001
0000
,
0100
0001
0200
0000
,
0310
0010
0100
0100
,
0002
0000
1003
0000
,
1000
0010
1000
1000
,
0002
0000
0203
0000
,
0320
0000
2030
0000
,
3002
0000
0203
0000
,
0310
0010
1000
0001
,
1000
0010
1000
0001
0200
0000
0310
0000
,
0001
0010
0001
0100
,
0001
1000
0010
1000
0002
0000
0103
0000
,
0010
1000
0010
0000
0100
0001
0100
0000
,
0001
0010
0100
0010
0001
1000
0010
0000
,
1000
0001
1000
0001
1000
0001
0100
0001
,
0020
0031
0200
0301
,
1001
0000
0000
0001
0000
0000
0000
0000
,
0010
0000
0000
0010
0000
0000
0000
0000
,
0100
0000
0000
0100
0000
0000
0000
0000
,
0010
0000
0000
0010
0000
0000
0000
0000
;

//---------------dance-single - ----------------
#NOTEDATA:;
#CHARTNAME:;
#STEPSTYPE:dance-single;
#DESCRIPTION:;
#CHARTSTYLE:;
#DIFFICULTY:Easy;
#METER:3;
#RADARVALUES:0.207298,0.273974,0.021658,0.180483,0.000000,201.000000,198.000000,3.000000,25.000000,0.000000,0.000000,0.000000,0.000000,0.000000,0.207298,0.273974,0.021658,0.180483,0.000000,201.000000,198.000000,3.000000,25.000000,0.000000,0.000000,0.000000,0.000000,0.000000;
#CREDIT:Musey;
#NOTES:
0000
0000
0000
0000
,
0000
0000
0000
0000
,
0000
0000
0000
0000
,
0000
0000
0000
0000
,
0200
0000
0301
0000
,
2000
0000
3010
0000
,
0100
0001
0100
0000
,
0002
0000
0013
0000
,
1000
0010
1000
0000
,
0001
0100
0001
0000
,
2000
0000
3010
0000
,
0002
0000
0103
0000
,
1000
0000
1000
0000
,
0010
0000
0010
0000
,
0100
0010
0100
0010
,
1000
1000
0002
0000
,
0103
0010
0100
0010
,
1000
1000
0002
0000
,
0013
0100
0010
0100
,
1000
1000
0002
0000
,
1003
0010
0100
0100
,
0010
1000
0002
0000
,
1003
0001
1000
0001
,
0100
0010
0100
0100
,
0010
1000
0001
0010
,
0001
0100
0010
0000
,
1000
0001
1000
1000
,
0001
0100
0010
0010
,
1000
0000
1000
0000
,
1001
0000
0000
0000
,
1001
0001
0100
0001
,
0100
0100
0020
0000
,
1030
0001
1000
0010
,
0100
0100
0002
0000
,
1003
0010
1000
0100
,
0010
0100
2000
0000
,
3001
0100
0010
0100
,
0001
0001
2000
0000
,
3001
0001
0100
0100
,
0001
0010
0001
1000
,
0010
0010
1000
1000
,
0010
0100
0001
0001
,
1000
1000
0001
0100
,
0001
1000
0001
0000
0100
0000
0100
0000
,
0010
0010
0100
0100
,
0001
1000
0001
0000
0010
0000
0000
0000
,
0100
0100
0001
0001
,
1000
1000
0010
0010
,
1000
0001
0100
0001
,
2000
0000
0000
0000
,
3020
0000
0000
0000
,
0230
0000
0000
0000
,
0302
0000
0000
0000
,
2003
0000
0000
0000
,
3020
0000
0000
0000
,
0230
0000
0000
0000
,
0302
0000
0000
0000
,
0203
0000
0310
0000
,
1000
1000
0001
0100
,
0001
0000
1000
0010
2000
0000
0000
0000
,
3010
0010
0100
0100
,
0001
0000
1000
0001
2000
0000
0000
0000
,
3001
0001
0100
0100
,
0010
0000
1000
0010
1000
0000
1000
0000
,
0001
0001
0100
0100
,
0001
1000
0001
0100
0002
0000
0000
0000
,
1003
0000
0000
0000
,
1000
0000
0000
0000
,
0001
0000
0000
0000
,
1001
0000
0000
0000
;

//---------------dance-single - ----------------
#NOTEDATA:;
#CHARTNAME:;
#STEPSTYPE:dance-single;
#DESCRIPTION:;
#CHARTSTYLE:;
#DIFFICULTY:Beginner;
#METER:1;
#RADARVALUES:0.097977,0.142943,0.007219,0.064974,0.000000,95.000000,94.000000,1.000000,9.000000,0.000000,0.000000,0.000000,0.000000,0.000000,0.097977,0.142943,0.007219,0.064974,0.000000,95.000000,94.000000,1.000000,9.000000,0.000000,0.000000,0.000000,0.000000,0.000000;
#CREDIT:Musey;
#NOTES:
0000
0000
0000
0000
,
0000
0000
0000
0000
,
0000
0000
0000
0000
,
0000
0000
0000
0000
,
1000
0000
0000
0000
,
0010
0000
0000
0000
,
1000
0000
0000
0000
,
0100
0000
0000
0000
,
0010
0000
0000
0000
,
0100
0000
0000
0000
,
0010
0000
0000
0000
,
1000
0000
0000
0000
,
0001
0000
0000
0000
,
1000
0000
0000
0000
,
0100
0000
0000
0000
,
0100
0000
0000
0000
,
0010
0000
0000
0000
,
0010
0000
0000
0000
,
1000
0000
0000
0000
,
1000
0000
0000
0000
,
0100
0000
0000
0000
,
0100
0000
0000
0000
,
0001
0000
1000
0000
,
0001
0000
0000
0000
,
0100
0000
0010
0000
,
0100
0000
0000
0000
,
0001
0000
1000
0000
,
0001
0000
0000
0000
,
0010
0000
0010
0000
,
0100
0000
0000
0000
,
1000
0000
1000
0000
,
0001
0000
0001
0000
,
0100
0000
0100
0000
,
0010
0000
0010
0000
,
1000
0000
0001
0000
,
1000
0000
1000
0000
,
0010
0000
0010
0000
,
0200
0000
0310
0000
,
1000
0000
1000
0000
,
0001
0000
0001
0000
,
0100
0000
0100
0000
,
0010
0000
0010
0000
,
1000
0000
1000
0000
,
0001
0000
0100
0000
,
0001
0000
0010
0000
,
0001
0000
0001
0000
,
1000
0000
1000
0000
,
0010
0000
0010
0000
,
0100
0000
0100
0000
,
0010
0000
0000
0000
,
2000
0000
0000
0000
,
3002
0000
0000
0000
,
0203
0000
0000
0000
,
0320
0000
0000
0000
,
0230
0000
0000
0000
,
0302
0000
0000
0000
,
2003
0000
0000
0000
,
3010
0000
0000
0000
,
1000
0000
1000
0000
,
1000
0000
0010
0000
,
0100
0000
0100
0000
,
0100
0000
0010
0000
,
1000
0000
1000
0000
,
1000
0000
0001
0000
,
0010
0000
0001
0000
,
0200
0000
0310
0000
,
1001
0000
0000
0000
;
