#VERSION:0.83;
#TITLE:Nectar;
#SUBTITLE:;
#ARTIST:The Boyz;
#TITLETRANSLIT:;
#SUBTITLETRANSLIT:;
#ARTISTTRANSLIT:;
#GENRE:;
#ORIGIN:;
#CREDIT:;
#BANNER:AV.avi;
#BACKGROUND:bg.png;
#PREVIEWVID:;
#JACKET:jacket.png;
#CDIMAGE:;
#DISCIMAGE:;
#LYRICSPATH:;
#CDTITLE:;
#MUSIC:audio.ogg;
#OFFSET:-0.416000;
#SAMPLESTART:49.983994;
#SAMPLELENGTH:14.999995;
#SELECTABLE:YES;
#BPMS:0.000=121.000;
#STOPS:;
#DELAYS:;
#WARPS:164.000=20.000;
#TIMESIGNATURES:0.000=4=4;
#TICKCOUNTS:0.000=4;
#COMBOS:0.000=1;
#SPEEDS:0.000=1.000=0.000=0,
164.000=0.400=2.000=0,
166.000=1.000=2.000=0,
184.000=10.000=4.000=0;
#SCROLLS:0.000=1.000,
184.000=0.100;
#FAKES:;
#LABELS:0.000=Song Start;
#BGCHANGES:0.000=MV.avi=0.900=1=0=1===CrossFade==,
3.000=MV.avi=1.000=0=0=1=====,
99999=-nosongbg-=1.000=0=0=0 // don't automatically add -songbackground-
;
#KEYSOUNDS:;
#ATTACKS:
;

//---------------dance-single - ----------------
#NOTEDATA:;
#CHARTNAME:;
#STEPSTYPE:dance-single;
#DESCRIPTION:;
#CHARTSTYLE:;
#DIFFICULTY:Challenge;
#METER:14;
#RADARVALUES:0.464683,0.608951,0.378231,0.664005,0.357218,387.000000,342.000000,45.000000,79.000000,0.000000,0.000000,0.000000,0.000000,1.000000,0.464683,0.608951,0.378231,0.664005,0.357218,387.000000,342.000000,45.000000,79.000000,0.000000,0.000000,0.000000,0.000000,1.000000;
#CREDIT:Musey;
#NOTES:
// measure 0
0000
0000
0000
0000
,  // measure 1
0000
0000
0000
0000
,  // measure 2
0000
0000
0000
0000
,  // measure 3
0000
0000
0000
0000
,  // measure 4
0000
0000
0000
0000
,  // measure 5
2000
0000
0000
0000
,  // measure 6
3002
0000
0000
0000
,  // measure 7
0023
0000
0000
0000
,  // measure 8
0031
0000
0000
0000
0001
0000
0001
0000
0000
0000
1000
0000
1000
0010
1000
0000
,  // measure 9
0001
0010
0001
0100
0020
0000
0130
0000
,  // measure 10
0010
0000
1000
0000
0100
0000
0010
0100
2000
0000
0000
0000
3100
0000
0000
0000
,  // measure 11
0010
0001
1000
0000
0001
0000
0100
0000
1000
0000
0100
0000
0001
0000
0010
0000
,  // measure 12
0200
0000
0000
0000
0310
0001
0010
0001
0020
0000
0000
0000
0031
0000
1000
0010
,  // measure 13
0100
0000
0001
0000
0100
0000
0010
1000
0002
0000
0000
0000
1003
0000
0100
0010
,  // measure 14
0001
0000
0010
0000
0100
0000
1000
0010
0200
0000
0000
0000
0310
0000
1000
0000
,  // measure 15
1010
0000
0000
0000
0001
0100
0010
0000
0100
0000
0001
1000
0010
0000
0000
0000
,  // measure 16
0010
0001
0010
1000
0010
0000
0100
0000
0010
0000
1000
0000
0200
0000
0000
0000
,  // measure 17
0310
0001
0000
2020
0000
3030
0100
0010
0000
0202
0000
0303
,  // measure 18
0100
0000
0001
0000
0000
0000
2020
0000
0000
0000
3030
0000
0001
0000
0010
0000
0000
0000
0110
0000
0000
0100
0000
0000
,  // measure 19
0010
0000
2001
0000
3002
0000
0013
0200
,  // measure 20
0000
0310
1000
0010
0001
1000
0100
1000
,  // measure 21
0010
0100
0000
0202
0000
0303
0100
0001
0000
2200
0000
3300
,  // measure 22
0001
0000
1000
0000
0000
0000
0220
0000
0000
0000
0330
0000
0001
0000
0000
0100
0000
0000
1000
0000
0000
0100
0000
0000
,  // measure 23
0020
0000
0000
0000
,  // measure 24
0030
0000
0000
0012
,  // measure 25
0103
0000
0010
1000
0010
0001
0010
1000
0010
0001
0010
1000
0020
0000
0000
0230
,  // measure 26
0000
0310
0100
0010
2000
3000
1200
0000
,  // measure 27
1300
0000
0001
1000
0010
1000
0001
1000
0100
1000
0001
1000
0020
0000
0000
0130
,  // measure 28
0000
0000
0001
0000
0200
0000
0000
0300
0001
0000
0010
0000
0100
0000
1000
0000
,  // measure 29
0110
0000
0000
0020
0000
0000
0230
0000
0000
0320
0000
0030
0102
0000
0000
0000
,  // measure 30
0203
0000
0000
0302
0000
0000
0203
0000
0000
0320
0000
0030
2001
0000
0000
3000
,  // measure 31
0210
0000
0301
0010
0100
0001
0100
2000
,  // measure 32
0000
3001
0010
0100
2000
0000
3020
0000
,  // measure 33
0130
0000
0000
0000
,  // measure 34
2000
0000
0000
0000
0000
3100
0010
0002
,  // measure 35
0000
0000
0000
0000
0000
0103
0010
0200
,  // measure 36
0000
0320
0000
2030
0000
3002
0003
0200
,  // measure 37
0000
0000
0302
0000
0000
0000
0023
0000
0000
0000
0031
0000
0100
0001
0100
0000
,  // measure 38
0010
0000
0000
0100
0000
0000
0001
1000
0100
1000
0001
0100
0010
0000
0100
0000
,  // measure 39
0001
0000
0000
0100
0000
0000
0010
0100
0001
1000
0010
1000
0100
0000
1000
0000
,  // measure 40
0100
0000
0000
0100
0000
0000
0100
0000
1000
0000
0010
0000
0100
0000
0001
0000
,  // measure 41
0020
0000
0000
0030
,  // measure 42
0000
0000
0000
0000
,  // measure 43
0000
0000
0000
0000
,  // measure 44
0000
0000
0000
0000
,  // measure 45
0000
0000
0000
0000
,  // measure 46
0020
0000
0000
0000
0000
0000
0000
0030
,  // measure 47
1001
0000
0001
0010
1000
0010
0001
0100
1000
0100
0010
0000
0200
0000
0000
0302
,  // measure 48
0000
0103
0010
1000
0200
0300
2200
3300
,  // measure 49
1001
0000
1000
0100
0001
0100
1000
0001
0010
1000
0010
0000
0002
0000
0000
0023
,  // measure 50
0000
0031
0200
0000
0310
0000
0100
0001
,  // measure 51
1100
0000
0000
0101
0000
0000
0011
0000
0000
1010
0000
0000
0220
0000
0330
0000
,  // measure 52
0011
0000
0000
1010
0000
0000
1100
0000
0000
0101
0000
0000
0220
0000
0330
0000
,  // measure 53
0102
0000
0013
0000
0110
0001
0100
0020
,  // measure 54
0000
0000
0130
0000
0001
0000
1000
0000
0100
0000
0100
1000
0100
1000
0010
0000
,  // measure 55
1010
0000
0000
0101
0000
0000
0010
0100
0001
0000
1000
0100
0020
0000
0030
0000
,  // measure 56
0110
0000
0000
1001
0000
0000
0100
0010
0001
0000
0010
0100
0002
0000
0003
0000
,  // measure 57
1001
0000
0010
0100
0000
0001
0000
0000
1001
0000
0010
0100
0000
0001
0000
1000
,  // measure 58
0020
0000
0030
0000
0120
0000
0000
0000
0130
0000
0001
0000
1000
0100
0010
0000
,  // measure 59
1001
0000
0000
0110
0000
0000
0001
0010
0001
0000
1000
0100
2000
0000
3000
0000
,  // measure 60
0110
0000
0000
0011
0000
0000
0001
1000
0001
0000
0100
0010
2000
0000
3000
0000
,  // measure 61
0110
0000
0001
1000
0000
0100
0000
0000
0110
0000
1000
0001
0000
0010
0000
0010
,  // measure 62
0002
0003
2001
0000
3001
0100
0101
0020
,  // measure 63
0030
0000
0000
0000
;

//---------------dance-single - ----------------
#NOTEDATA:;
#CHARTNAME:;
#STEPSTYPE:dance-single;
#DESCRIPTION:;
#CHARTSTYLE:;
#DIFFICULTY:Hard;
#METER:11;
#RADARVALUES:0.365023,0.476571,0.033621,0.613574,0.222736,304.000000,300.000000,4.000000,73.000000,0.000000,0.000000,0.000000,0.000000,1.000000,0.365023,0.476571,0.033621,0.613574,0.222736,304.000000,300.000000,4.000000,73.000000,0.000000,0.000000,0.000000,0.000000,1.000000;
#CREDIT:Musey;
#NOTES:
0000
0000
0000
0000
,
0000
0000
0000
0000
,
0000
0000
0000
0000
,
0000
0000
0000
0000
,
0000
0000
0000
0000
,
2000
0000
0000
0000
,
3002
0000
0000
0000
,
2003
0000
0000
0000
,
3010
0000
0100
0000
0001
0100
0001
0010
,
0100
1000
0100
0010
0002
0000
0103
0000
,
0010
0100
0001
1000
0020
0000
1030
0000
,
0010
0100
0001
1000
0100
0010
0001
1000
,
0020
0130
0110
1001
,
0001
0000
0100
0000
0001
0000
1000
0001
1000
0000
0000
0000
0010
0000
0100
0000
,
0001
0000
0010
0000
0100
0000
0010
0001
0010
0000
0000
0000
0001
0000
0100
0000
,
0002
0000
0013
0100
0000
0100
0010
0000
,
1000
0000
0001
0100
0001
0000
0100
0000
0020
0000
0000
0000
1030
0000
0000
0000
,
0010
1000
0000
0020
0000
0000
0130
0001
0000
0200
0000
0000
,
0310
0000
1000
0000
0000
0000
0002
0000
0000
0000
0000
0000
0103
0000
0000
0010
0000
0000
1000
0000
0000
0010
0000
0000
,
0200
0000
0301
0000
1000
0010
1000
0002
,
0000
0103
0010
0100
0001
0010
1000
0010
,
0001
0100
0000
0020
0000
0000
1030
0001
0000
0200
0000
0000
,
0310
0000
1000
0000
0000
0000
0020
0000
0000
0000
0000
0000
1030
0000
0000
0001
0000
0000
0100
0000
0000
0010
0000
0000
,
0200
0000
0000
0000
,
0300
0000
0000
2001
,
3010
0000
0100
0001
0100
0000
0010
1000
0010
0000
0100
0000
0002
0000
0000
0000
,
0013
0100
0010
0001
0200
0000
0320
0000
,
1030
0000
0010
1000
0010
0000
0100
0010
0100
0000
0001
0000
2000
0000
0000
0000
,
3001
0100
0020
0000
1030
0000
0001
0100
,
0020
0000
0000
0230
0000
0000
0320
0000
0000
2030
0000
0000
3002
0000
0003
0000
,
0020
0000
0000
0032
0000
0000
0203
0000
0000
0320
0000
0000
2030
0000
0000
0000
,
3200
0000
1000
0000
0310
0001
1000
0020
,
0000
0000
0130
0000
0010
0000
1000
0000
0002
0000
0000
0003
2000
0000
0000
3000
,
0000
0000
0000
0000
,
2000
0000
0000
0000
3000
0010
0100
0020
,
0000
0000
0000
0000
0030
1000
1000
0020
,
0000
0230
0000
0302
0000
0013
0000
0002
,
0000
0203
0000
0320
0000
0000
1030
0000
,
1010
0000
0000
0100
0000
0000
0010
0000
0000
0100
0000
0000
0001
0000
1000
0000
,
0001
0000
0000
0100
0000
0000
0010
0000
0000
1000
0000
0000
0001
0000
0010
0000
,
0100
0000
0000
0010
0000
0000
0100
0000
0000
1000
0000
0000
0001
0000
1000
0000
,
0020
0000
0000
0000
,
0030
0000
0000
0000
,
0000
0000
0000
0000
,
0000
0000
0000
0000
,
0000
0000
0000
0000
,
0020
0000
0000
0000
,
0130
0000
0001
0100
0001
0000
1000
0100
1000
0000
0010
0000
0200
0000
0000
0300
,
0001
0010
1000
0010
0002
0000
0203
0000
,
0310
0000
1000
0100
1000
0000
0001
0100
0001
0000
0010
0000
0200
0000
0000
0000
,
1300
0010
0200
0000
0310
0000
1000
0001
,
2000
0000
0000
3020
0000
0000
0230
0000
0000
0302
0000
0000
0023
0000
0000
0000
,
0032
0000
0000
0203
0000
0000
0320
0000
0000
2030
0000
0000
3200
0000
0000
0300
,
2000
0000
0001
0000
3010
0100
0001
0200
,
0000
0300
0001
0000
0010
0000
0100
0000
0010
0000
0010
0000
0200
0000
0000
0000
,
1300
0000
0000
0001
0000
0000
0100
0001
0100
0000
0010
0100
0020
0000
0000
0000
,
0130
0000
0000
0010
0000
0000
1000
0010
1000
0000
0010
0001
0020
0000
0000
0000
,
0130
0000
0001
0100
0000
0100
0000
0000
0001
0000
0010
0001
0000
0001
0000
0100
,
0020
0000
2030
0000
3001
0100
0010
0100
,
0001
0000
0000
0001
0000
0000
1000
0001
1000
0000
0010
0100
0020
0000
0000
0000
,
0130
0000
0000
0010
0000
0000
0100
0010
0100
0000
0010
1000
0020
0000
0000
0000
,
1030
0000
0001
1000
0000
1000
0000
0000
0001
0000
1000
0001
0000
0001
0000
0100
,
0002
0000
0023
0000
0130
0010
0001
2000
,
3000
0000
0000
0000
;

//---------------dance-single - ----------------
#NOTEDATA:;
#CHARTNAME:;
#STEPSTYPE:dance-single;
#DESCRIPTION:;
#CHARTSTYLE:;
#DIFFICULTY:Medium;
#METER:8;
#RADARVALUES:0.294179,0.421937,0.218533,0.437067,0.000000,245.000000,219.000000,26.000000,52.000000,0.000000,0.000000,0.000000,0.000000,2.000000,0.294179,0.421937,0.218533,0.437067,0.000000,245.000000,219.000000,26.000000,52.000000,0.000000,0.000000,0.000000,0.000000,2.000000;
#CREDIT:Musey;
#NOTES:
0000
0000
0000
0000
,
0000
0000
0000
0000
,
0000
0000
0000
0000
,
0000
0000
0000
0000
,
0000
0000
0000
0000
,
0020
0000
0000
0000
,
0230
0000
0000
0000
,
0302
0000
0000
0000
,
1003
1000
0010
0010
,
1000
0001
0100
0100
,
0001
0010
0001
0100
0002
0000
1003
0000
,
0100
0100
1000
1000
,
0020
0100
1030
1010
,
0001
1000
0001
0100
0002
0000
0013
0000
,
1000
0100
1000
0010
2000
0000
3001
0000
,
0200
0301
0002
0013
,
0110
1001
1020
1030
,
0001
0102
0103
0120
,
0130
1200
1300
1200
,
2300
3002
0203
0320
,
0130
0001
0010
0100
0020
0000
0130
0000
,
1000
1200
1300
1020
,
1030
0102
0103
0012
,
0023
0000
0000
0000
,
0030
0000
0000
0000
,
0110
0000
1100
0000
0001
1000
0010
1000
,
0001
0100
0010
0100
0002
0000
0013
0000
,
0011
0000
1100
0000
0001
0100
0010
0100
,
0002
1003
1000
0100
,
1000
0000
1000
0000
0010
1000
0020
0000
,
1030
0000
1000
0000
0001
1000
0001
0000
,
0200
0000
0310
0000
0001
1000
0001
0010
,
0200
0320
0230
2300
,
3020
0000
0000
0000
,
0230
0000
0000
0000
,
0302
0000
0000
0000
,
2003
0000
3020
0000
,
0230
0000
0302
0000
,
1003
0000
1000
0000
0010
1000
0010
1000
,
0010
0000
0010
0000
0100
0010
0100
0010
,
0200
0010
0310
0001
,
2002
0000
3003
0000
,
0000
0000
0000
0000
,
0000
0000
0000
0000
,
0000
0000
0000
0000
,
0000
0000
0000
0000
,
0000
0000
0000
0000
,
1100
0000
0011
0000
0001
1000
0001
0100
,
0010
1000
0020
0130
,
1001
0000
0110
0000
0001
0010
0100
1000
,
0002
0000
0103
0000
0010
0000
1000
0001
,
1000
0000
0010
0000
0100
0001
0100
0000
,
0010
0000
1000
0000
0001
1000
0010
0000
,
0200
0000
0301
0000
0010
1000
0001
0200
,
0000
0301
0010
0100
2000
0000
3001
0000
,
0100
0000
0100
0001
0010
0100
2000
0000
,
0001
0000
3001
0100
0010
0100
0002
0000
,
0013
0011
1000
1100
,
0020
0000
0130
0000
0001
1000
0010
0000
,
1000
0100
1000
0100
0020
0000
0130
0000
,
0010
0001
0010
0001
0200
0000
0310
0000
,
1001
0110
1001
0110
,
2000
3100
0020
0030
;

//---------------dance-single - ----------------
#NOTEDATA:;
#CHARTNAME:;
#STEPSTYPE:dance-single;
#DESCRIPTION:;
#CHARTSTYLE:;
#DIFFICULTY:Easy;
#METER:4;
#RADARVALUES:0.214931,0.317714,0.016810,0.302585,0.000000,179.000000,177.000000,2.000000,36.000000,0.000000,0.000000,0.000000,0.000000,1.000000,0.214931,0.317714,0.016810,0.302585,0.000000,179.000000,177.000000,2.000000,36.000000,0.000000,0.000000,0.000000,0.000000,1.000000;
#CREDIT:MMusey;
#NOTES:
0000
0000
0000
0000
,
0000
0000
0000
0000
,
0000
0000
0000
0000
,
0000
0000
0000
0000
,
0000
0000
0000
0000
,
2000
0000
0000
0000
,
3002
0000
0000
0000
,
0203
0000
0000
0000
,
0310
0010
0200
0000
,
0301
0001
1000
1000
,
0010
0100
0002
0000
,
1003
1000
0010
0100
,
0002
0000
0023
0000
,
0031
0100
0002
0000
,
1003
0010
2000
0000
,
3010
0010
0100
0100
,
0001
1000
0001
0000
0020
0000
0000
0000
,
0031
0002
0103
0200
,
0310
0020
1030
2000
,
3002
0000
0203
0000
,
0310
1000
0020
0000
,
0130
0200
0310
0020
,
1030
2000
3001
0002
,
0203
0000
0320
0000
,
0000
0030
0000
0000
,
1001
0001
0100
0001
,
0010
0001
0100
0200
,
0310
0010
1000
1000
,
0001
0100
0001
1000
,
0010
0000
0100
0000
0001
0100
0001
0000
,
1000
0000
0010
0000
1000
0010
1000
0000
,
0002
0103
2000
3010
,
0100
0100
0002
0000
,
2003
0000
0000
0000
,
3020
0000
0000
0000
,
0230
0000
0000
0000
,
0302
0000
0000
0000
,
2003
0000
0000
0000
,
3010
0010
0100
0000
,
0100
0100
0010
0000
,
1000
0001
1000
0001
,
0200
0000
0000
0000
0000
0000
0000
0300
,
0000
0000
0000
0000
,
0000
0000
0000
0000
,
0000
0000
0000
0000
,
0000
0000
0000
0000
,
0200
0000
0000
0000
,
0301
0001
0100
0100
,
0010
0000
1000
0000
0010
1000
0020
0000
,
0130
0100
0001
0001
,
1000
0010
1000
0001
,
0100
0000
0100
0000
0010
0100
0010
0000
,
1000
0000
1000
0000
0010
1000
0010
0000
,
0200
0000
0301
0000
0001
0010
0001
0000
,
0100
0100
0010
0010
,
1000
0000
0001
0000
1000
0001
1000
0000
,
0010
0000
0100
0000
0010
0100
0010
0000
,
1000
1000
0001
0001
,
0101
0000
0100
0000
0001
0100
0001
0000
,
1000
0000
0010
0000
0100
0010
0100
0000
,
0001
0000
1000
0000
0010
1000
0010
0000
,
1000
0001
0100
0010
,
1000
1000
0002
0000
,
0003
0000
0000
0000
;

//---------------dance-single - ----------------
#NOTEDATA:;
#CHARTNAME:;
#STEPSTYPE:dance-single;
#DESCRIPTION:;
#CHARTSTYLE:;
#DIFFICULTY:Beginner;
#METER:2;
#RADARVALUES:0.133281,0.184598,0.000000,0.184913,0.000000,111.000000,111.000000,0.000000,22.000000,0.000000,0.000000,0.000000,0.000000,1.000000,0.133281,0.184598,0.000000,0.184913,0.000000,111.000000,111.000000,0.000000,22.000000,0.000000,0.000000,0.000000,0.000000,1.000000;
#CREDIT:Musey;
#NOTES:
0000
0000
0000
0000
,
0000
0000
0000
0000
,
0000
0000
0000
0000
,
0000
0000
0000
0000
,
0000
0000
0000
0000
,
2000
0000
0000
0000
,
3020
0000
0000
0000
,
0230
0000
0000
0000
,
0302
0000
0000
0000
,
1003
0000
1000
0000
,
0010
0000
0010
0000
,
0100
0000
0100
0000
,
0200
0000
0000
0000
,
0310
0000
0010
0000
,
1000
0000
1000
0000
,
0001
0000
0001
0000
,
0200
0000
0301
0000
,
1000
1000
0001
0000
,
1000
1000
0010
0000
,
0200
0000
0301
0000
,
0002
0000
0103
0000
,
0001
0001
0001
0000
,
1000
1000
1000
0000
,
0200
0000
0310
0000
,
0020
0000
0000
0000
,
1030
0000
1000
0000
,
0001
1000
0002
0000
,
0103
0000
0100
0000
,
0010
0100
0010
0000
,
1000
0001
1000
0000
,
0001
0100
0001
0000
,
2000
0000
3010
0000
,
0200
0000
0301
0000
,
0000
0000
0000
0000
,
0002
0000
0000
0000
,
0203
0000
0000
0000
,
0320
0000
0000
0000
,
0230
0000
0000
0000
,
0301
0000
0001
0000
,
1000
0000
1000
0000
,
0010
0000
0010
0000
,
0200
0000
0000
0000
,
0300
0000
0000
0000
,
0000
0000
0000
0000
,
0000
0000
0000
0000
,
0000
0000
0000
0000
,
0200
0000
0000
0000
,
0310
0000
0010
0000
,
1000
0010
2000
0000
,
3001
0000
0001
0000
,
0100
0001
0100
0000
,
0010
0010
0010
0000
,
0100
0100
0100
0000
,
2000
0000
3001
0000
,
0100
0001
0100
0000
,
0001
0001
0001
0000
,
1000
1000
1000
0000
,
0010
0100
0010
0000
,
2000
0000
3001
0000
,
0100
0001
0100
0000
,
0001
1000
0001
0000
,
1000
0000
1000
0000
,
0020
0000
0100
0030
;
