#TITLE:Manchild;
#SUBTITLE:;
#ARTIST:Sabrina Carpenter;
#TITLETRANSLIT:;
#SUBTITLETRANSLIT:;
#ARTISTTRANSLIT:;
#GENRE:;
#CREDIT:Musey;
#BANNER:AV.avi;
#BACKGROUND:bg.png;
#LYRICSPATH:;
#CDTITLE:;
#MUSIC:audio.ogg;
#OFFSET:-0.372000;
#SAMPLESTART:41.408150;
#SAMPLELENGTH:15.000000;
#SELECTABLE:YES;
#BPMS:0.000000=123.000000
;
#STOPS:
;
#BGCHANGES:0.000=MV.avi=1.600=1=0=1===CrossFade==,
2.000=MV.avi=1.000=0=0=1=====,
99999=-nosongbg-=1.000=0=0=0 // don't automatically add -songbackground-
;
#KEYSOUNDS:;
#ATTACKS:;

//---------------dance-single - ----------------
#NOTES:
     dance-single:
     :
     Challenge:
     13:
     0.519355,0.623275,0.089680,0.413907,0.224200,527.000000,514.000000,13.000000,60.000000,0.000000,0.000000,0.519355,0.623275,0.089680,0.413907,0.224200,527.000000,514.000000,13.000000,60.000000,0.000000,0.000000:
0000
0000
0000
0000
,
0000
0000
0000
0000
,
0000
0000
0000
0000
,
0000
0000
0000
0000
,
0000
0000
0000
0000
,
0000
0000
0100
0020
0000
0130
0001
0100
,
0010
1000
0001
0010
0200
0000
1300
0020
,
0000
1030
0100
2000
0000
3001
0100
0001
,
1000
0100
0001
0100
1000
0001
0010
0002
,
0000
0103
0001
0020
0000
0031
0010
0100
,
1000
0001
0010
0001
0200
0000
0310
2000
,
0000
3001
0100
0002
0000
1003
0010
0100
,
0001
0010
0100
0010
0100
1000
0001
0200
,
0000
0000
0301
0000
0010
0000
0100
0000
1000
0000
0001
1000
0010
1000
0001
1000
,
0100
0000
0000
0000
2001
0000
0000
0000
3001
0000
1000
0100
0010
0001
0000
0001
,
1000
0002
0203
0320
1030
0001
1000
0010
,
0100
0000
0000
0000
0120
0000
0000
0000
0130
0000
0100
0001
1000
0001
0000
0001
,
1000
0000
0200
0000
0320
0000
0230
0000
1300
0000
0010
0100
0010
1000
0010
0100
,
0001
0000
0000
0000
0012
0000
0000
0000
0013
0000
0001
0010
0100
1000
0000
1000
,
0002
0000
0000
0000
1003
0000
0010
1000
0020
0000
0000
0000
0130
0000
0000
0000
,
0200
0000
0301
0000
0001
1000
0100
1000
,
0010
0000
0100
0000
0001
0000
1000
0001
0200
0000
0000
0000
0010
0000
0000
0000
,
0301
0000
1000
0000
0001
0000
0010
0001
0200
0000
0010
0000
0000
0000
0310
0000
,
1000
0001
0100
0010
1000
0100
0001
0100
,
1000
0001
0100
0010
0100
0100
0010
0100
,
0010
1000
0001
0020
0100
0000
0001
0000
,
0031
0100
0010
1000
0002
0100
0000
0103
,
0001
0010
0001
2000
0010
3001
1000
0100
,
0010
0100
1000
0010
0100
0100
0001
0100
,
0001
0000
0010
0000
0001
0000
1000
0001
0100
0000
0010
0000
0100
0000
1000
0000
,
0100
0000
2001
0000
3010
0010
0000
0010
,
1000
0000
0100
0000
1000
0000
0001
0100
0010
0000
1000
0000
0100
0000
0001
0000
,
0100
0000
0000
0000
1001
0000
0000
0000
0001
0000
1000
0100
1000
0000
0001
0010
,
0100
0010
0100
0010
0001
0000
1000
0001
1000
0000
0001
0100
0001
0000
1000
0010
,
1000
0000
0001
0000
1000
0000
0100
1000
0001
0000
0001
0000
0100
0000
0001
1000
,
0010
0000
1000
0001
0100
0000
0001
0100
0010
0000
0100
0000
0001
0000
1000
0010
,
0100
0000
0001
0000
0010
0000
0001
1000
0100
0000
1000
0010
0100
0000
0001
0000
,
1000
0100
0001
0100
1000
0001
0100
0001
,
0020
0000
0032
0000
0103
0001
0100
0010
,
1000
0100
1000
0001
0100
0010
2000
0000
,
3002
0000
0023
0000
0031
0100
0001
0010
,
0100
1000
0001
0100
1000
0100
0002
0000
,
2003
0000
3001
0010
0100
0010
0001
1000
,
0010
1000
0001
0010
0002
0000
0013
0000
,
2000
0000
0000
0000
3002
0000
2003
0000
3001
0000
0000
0000
1000
0001
1000
0000
,
0010
0000
0000
0000
1100
0000
0001
0010
0100
0000
0010
0000
0100
0000
1000
0000
,
0002
0000
2003
0000
3010
1000
0001
0100
,
1000
0100
1000
0100
0001
1000
0200
0000
,
0320
0000
0032
0000
1003
0100
0001
0100
,
1000
0100
1000
0010
0100
0010
1000
0000
,
1001
0000
0101
0001
0010
0001
1000
0010
,
1000
0000
0001
0000
0100
0000
0002
0000
0100
0000
0000
0000
0103
0001
1000
0000
,
0010
0000
0000
0010
1000
0000
0001
0000
1000
0001
1000
0001
0100
0001
0100
0001
,
0010
0001
0010
0001
1000
0000
1000
0001
0100
0000
0100
0010
1000
0000
1000
0001
,
0010
0001
0100
0001
1000
2000
0000
3001
,
0000
0000
1000
0000
0010
0000
0200
0000
0301
0000
1000
0001
0010
0000
0001
0010
,
0100
0010
0001
2000
0010
3010
0100
0010
,
1000
0000
0001
0000
0010
0000
0001
0000
2000
0000
3001
0100
0010
0000
1000
0001
,
0010
0001
1000
0010
0100
0200
0000
0310
,
0000
0010
1000
0002
1000
1003
0100
2000
,
0001
0000
3001
0000
0010
0000
0100
1000
0001
0000
0001
1000
0100
0000
0010
0001
,
0010
0001
0010
0001
1000
0000
0001
1000
0001
0000
0100
0000
0010
0000
1000
0100
,
1000
0000
0001
0100
0020
0000
0000
0000
1030
0000
0100
0000
1000
0000
0001
0000
,
0100
0000
1000
0000
0100
0000
0010
1000
0001
0000
0100
0000
0002
0000
0103
0000
,
2000
3100
0002
0103
0010
0100
0001
0020
,
0001
0000
0130
0000
0010
0000
0010
0100
1000
0000
0100
0000
0001
0000
0100
0000
,
1000
0000
1001
0001
0010
0001
1000
0020
,
0130
0010
1000
0002
2003
0000
3001
0000
,
1010
0000
0000
0000
1001
0000
0000
0000
0101
0000
1000
0100
0010
0000
0001
1000
,
0001
1000
0010
1000
0010
0000
1000
0000
1001
0000
0000
0000
0000
0000
0000
0000
;

//---------------dance-single - ----------------
#NOTES:
     dance-single:
     :
     Hard:
     10:
     0.411936,0.431498,0.103477,0.427704,0.013797,418.000000,403.000000,15.000000,62.000000,0.000000,0.000000,0.411936,0.431498,0.103477,0.427704,0.013797,418.000000,403.000000,15.000000,62.000000,0.000000,0.000000:
// measure 0
0000
0000
0000
0000
,  // measure 1
0000
0000
0000
0000
,  // measure 2
0000
0000
0000
0000
,  // measure 3
0000
0000
0000
0000
,  // measure 4
0000
0000
0000
0000
,  // measure 5
0000
0000
1000
0020
0000
1030
0001
0100
,  // measure 6
0010
0100
0001
1000
0002
0000
0013
0000
,  // measure 7
0002
0000
1003
0200
0000
1300
0010
1000
,  // measure 8
0001
0100
0010
0100
0002
0000
0013
0000
,  // measure 9
0020
0000
0031
2000
0000
3100
1000
0010
,  // measure 10
0100
0010
1000
0001
0020
0000
0130
2000
,  // measure 11
0000
3010
1000
0200
0000
1300
0100
0010
,  // measure 12
0100
1000
0001
0100
0020
0000
0130
0010
,  // measure 13
2000
0000
3001
0000
0100
0001
0100
0001
,  // measure 14
0010
2001
3001
0001
,  // measure 15
0100
0010
0100
0010
1000
0100
0010
0000
,  // measure 16
0100
2010
3001
0100
,  // measure 17
0010
0100
0001
0010
1000
0010
0001
0100
,  // measure 18
0010
2010
3001
0001
,  // measure 19
0100
0000
0010
1000
0200
0000
0310
0000
,  // measure 20
0020
0000
0031
0000
1000
0001
1000
0001
,  // measure 21
0100
0000
0001
0000
0010
0000
0001
1000
0002
0000
0000
0000
0100
0000
0000
0000
,  // measure 22
0010
0000
1003
0010
0200
0000
0010
0000
,  // measure 23
0301
0100
0001
2000
0000
3100
0010
0001
,  // measure 24
1000
0001
0100
0010
2000
0000
3010
0000
,  // measure 25
1000
0100
0001
0100
2000
0000
0010
0000
,  // measure 26
0010
0000
3100
0001
0020
0000
0001
0000
,  // measure 27
0031
0100
0010
2000
0000
3001
1000
0010
,  // measure 28
0001
0010
1000
0001
0020
0000
0031
0000
,  // measure 29
1000
0001
0010
0001
0100
0010
1000
0100
,  // measure 30
0010
1001
0011
1010
,  // measure 31
0100
0010
1000
0100
0010
0100
1000
0010
,  // measure 32
0100
0011
1100
1001
,  // measure 33
0110
0000
1000
0100
2000
0000
0010
0000
,  // measure 34
3001
0100
0010
0100
0020
0000
1000
0000
,  // measure 35
0130
0001
0010
0002
0000
0103
0010
1000
,  // measure 36
0100
1000
0001
0200
0000
0310
1000
0100
,  // measure 37
0010
0001
0100
0001
0010
0100
2000
0000
,  // measure 38
3020
0000
0230
0000
0301
0100
0001
0020
,  // measure 39
0000
0031
1000
0010
1000
0100
0002
0000
,  // measure 40
0203
0000
2300
0000
3001
1000
0001
0200
,  // measure 41
0000
0310
0100
0001
1000
0010
0002
0000
,  // measure 42
0023
0000
0230
0000
0301
1000
0001
1000
,  // measure 43
0010
1000
0100
0010
0002
0000
0103
0000
,  // measure 44
0200
0000
0301
0000
1000
0001
0010
0000
,  // measure 45
0011
0000
1001
0000
0010
1000
0100
0010
,  // measure 46
0001
0000
0101
0000
0001
0010
0100
0020
,  // measure 47
0000
0031
1000
0010
0100
0010
1000
0000
,  // measure 48
0001
0000
1001
0000
0001
0100
0010
2000
,  // measure 49
0000
3001
0010
1000
0010
0001
0100
0000
,  // measure 50
0010
0000
1010
0000
1000
0100
0001
0100
,  // measure 51
1000
0010
1000
0001
0200
0000
0310
0000
,  // measure 52
0020
0000
1030
0000
0001
0010
0100
0010
,  // measure 53
1000
0000
0010
0000
0001
0000
1000
0001
0200
0000
0000
0000
0010
0000
0000
0000
,  // measure 54
0301
0010
1000
0010
0200
0000
1300
0000
,  // measure 55
0001
1000
0001
0020
0001
0031
1000
0100
,  // measure 56
1000
0010
0100
0001
2000
0000
3001
1000
,  // measure 57
0010
0100
0001
0020
0100
0000
0001
0000
,  // measure 58
0031
1000
0010
1000
0200
0000
0010
0000
,  // measure 59
1300
0001
0100
0020
1000
0130
0001
1000
,  // measure 60
0100
1000
0001
0100
0010
0100
0001
1000
,  // measure 61
0001
0000
0010
0000
0100
0000
0010
0001
1000
0000
0010
0000
1000
0000
0100
0000
,  // measure 62
2000
0000
3020
0000
0130
0010
1000
0100
,  // measure 63
0001
0100
1000
0010
1000
0001
0200
0000
,  // measure 64
0320
0000
2030
0000
3001
0100
1000
0100
,  // measure 65
0010
1000
0100
0010
1000
0010
0002
0000
,  // measure 66
0203
0000
0310
1000
0100
1000
0010
0100
,  // measure 67
1000
0100
0001
0010
0200
0000
0310
0000
,  // measure 68
0002
0000
1003
0000
0100
1000
0010
1000
,  // measure 69
0001
1000
0001
0000
1000
0000
0010
0000
0100
0000
0000
0000
0000
0000
0000
0000
;

//---------------dance-single - ----------------
#NOTES:
     dance-single:
     :
     Medium:
     7:
     0.338024,0.334403,0.034492,0.324227,0.000000,343.000000,338.000000,5.000000,47.000000,0.000000,0.000000,0.338024,0.334403,0.034492,0.324227,0.000000,343.000000,338.000000,5.000000,47.000000,0.000000,0.000000:
0000
0000
0000
0000
,
0000
0000
0000
0000
,
0000
0000
0000
0000
,
0000
0000
0000
0000
,
0000
0000
0000
0000
,
0000
0000
1000
0100
2000
0000
3001
0000
,
0002
0000
0103
0000
0010
0100
0001
0000
,
1000
0100
1000
0000
0002
0000
0103
0000
,
0200
0000
0301
0000
1000
0100
0010
0100
,
2000
3001
0200
0301
,
0002
0000
0103
0000
0001
0010
0100
1000
,
0002
0103
0020
1030
,
2000
0000
3100
0000
1000
0100
1000
0100
,
0020
0000
0031
0000
1000
0001
1000
0001
,
0100
0102
0013
0001
,
0010
0000
0001
0000
1000
0000
0010
0100
,
0010
1001
1000
0100
,
0010
0000
0001
0000
1000
0010
1000
0010
,
0100
0101
0001
0100
,
0010
0000
1000
0001
0200
0000
0301
0000
,
0002
0000
0013
0000
0001
0010
0100
1000
,
0100
0010
0001
1000
0020
0000
0100
0000
,
0100
1000
2030
0010
,
0100
0000
3001
0000
0100
0001
0010
0001
,
2000
3010
0100
0001
,
0010
0001
1000
0000
0002
0000
0100
0000
,
0010
1000
0203
0010
,
0001
0000
0310
0000
1000
0100
1000
0000
,
0001
0100
0001
0000
1000
0100
0010
0001
,
1000
0000
0001
0000
0100
0001
0100
0001
,
1000
1001
0001
0001
,
0010
0000
0010
0000
0001
0010
0100
1000
,
0100
1001
1000
1000
,
0010
1000
0010
1000
0002
0000
0100
0000
,
0010
0100
2003
0010
,
0100
0000
3001
0000
0100
0001
0100
0001
,
2000
0000
3010
0000
1000
0001
1000
0001
,
0100
0001
0020
0000
0031
1000
0020
0000
,
2030
0000
3002
0000
0103
0001
0100
0000
,
0010
0000
1000
0000
0001
1000
0020
0000
,
2030
0000
3002
0000
0103
0001
0100
0000
,
0010
0000
1000
0000
0001
0010
0100
0000
,
1000
0000
0001
0000
1000
0010
1000
0000
,
0001
0100
0001
0000
0020
0000
0031
0000
,
0002
0000
0013
0000
0001
0010
0100
1000
,
0100
0000
1000
0000
0010
1000
0010
0000
,
0200
0000
0310
0000
1000
0001
1000
0000
,
0001
0000
0001
0000
0001
0010
0100
0000
,
2000
0000
3010
0000
0100
0001
0100
0000
,
0010
0000
0010
0000
1000
0100
0010
0000
,
0002
0000
1003
0000
0010
1000
0100
0000
,
1000
0100
1000
0000
0002
0000
0103
0000
,
0200
0000
0310
0000
1000
0100
1000
0010
,
1000
0001
0100
0000
0002
0000
0010
0000
,
1000
0000
0010
0000
0103
0001
0100
0001
,
1000
0000
0010
0000
1000
0100
0010
0000
,
0001
0100
0010
0000
1000
0100
1000
0100
,
0010
0001
2000
0010
,
0100
0000
0001
0000
3010
0100
0010
0000
,
1000
0001
0010
0000
0001
1000
0100
1000
,
0001
0100
0010
0000
0100
0010
0100
0000
,
0001
0010
0100
0000
1000
0001
2000
0000
,
3020
0000
0230
0000
0301
0100
0001
0000
,
0010
0001
1000
0000
0010
1000
0200
0000
,
2300
0000
3002
0000
0103
0001
0100
0000
,
0010
1000
0001
0000
0010
0100
0010
0000
,
0002
0000
1003
0000
0010
1000
0100
0010
,
0001
0100
0020
1030
,
2000
0000
3010
0000
1000
0001
1000
0001
,
0100
0001
0010
0000
0000
0000
0000
0000
;

//---------------dance-single - ----------------
#NOTES:
     dance-single:
     :
     Easy:
     4:
     0.196113,0.215749,0.000000,0.124172,0.000000,199.000000,199.000000,0.000000,18.000000,0.000000,0.000000,0.196113,0.215749,0.000000,0.124172,0.000000,199.000000,199.000000,0.000000,18.000000,0.000000,0.000000:
0000
0000
0000
0000
,
0000
0000
0000
0000
,
0000
0000
0000
0000
,
0000
0000
0000
0000
,
0000
0000
0000
0000
,
0000
0000
1000
0001
,
1000
0010
0100
0000
,
0100
0000
0001
0010
,
0001
1000
0100
0000
,
0100
0000
1000
0001
,
1000
0010
0100
0000
,
0100
0000
0001
0010
,
0001
1000
0010
1000
,
0010
1000
0001
0001
,
0100
0002
1003
0000
,
1000
0010
1000
1000
,
0002
0000
0103
0000
,
0100
0000
0010
1000
,
0100
0100
2000
0000
,
3010
0000
1000
0001
,
1000
0000
0001
0100
,
0001
0100
0020
0000
,
2030
0000
3002
0000
,
0103
0000
0100
0001
,
1000
0100
2000
0000
,
3001
0100
0002
0000
,
0023
0000
0032
0000
,
1003
0000
1000
0010
,
0100
0000
0001
1000
,
0010
1000
0001
0100
,
0001
0000
0001
0000
,
0001
0000
1000
0010
,
1000
0100
1000
0000
,
1000
0001
0200
0000
,
0001
0000
0302
0000
,
0013
0000
0001
1000
,
0010
0000
1000
0100
,
1000
0000
0001
0100
,
0010
0000
1000
1000
,
0001
0000
0100
0001
,
0010
0000
0001
1000
,
0010
0000
1000
0100
,
1000
0000
0001
0100
,
0010
1000
0001
0000
,
0001
0000
1000
0000
,
1000
0000
0001
1000
,
0001
0100
0010
0000
,
0010
0000
1000
0010
,
1000
0010
0100
0000
,
0100
0000
0001
0010
,
0001
0010
0100
0000
,
0010
0000
0002
0000
,
2003
0000
3020
0000
,
0130
0000
0001
1000
,
0001
1000
0020
0000
,
1030
0000
1000
0100
,
0010
0100
2000
0000
,
3001
0000
0100
0001
,
0100
0001
2000
0000
,
3010
0000
1000
0010
,
1000
0010
0100
0100
,
0001
0001
1000
0001
,
0010
0100
1000
0010
,
1000
0001
0100
0100
,
0001
0001
1000
0010
,
1000
0100
0010
0010
,
0001
0001
1000
0001
,
0100
0010
1000
1000
,
0001
0001
0100
0100
,
0001
0100
0100
0000
;

//---------------dance-single - ----------------
#NOTES:
     dance-single:
     :
     Beginner:
     1:
     0.086723,0.119861,0.000000,0.034492,0.000000,88.000000,88.000000,0.000000,5.000000,0.000000,0.000000,0.086723,0.119861,0.000000,0.034492,0.000000,88.000000,88.000000,0.000000,5.000000,0.000000,0.000000:
0000
0000
0000
0000
,
0000
0000
0000
0000
,
0000
0000
0000
0000
,
0000
0000
0000
0000
,
0000
0000
0000
0000
,
0000
0000
1000
0000
,
0000
0000
0001
0000
,
0000
0000
1000
0000
,
0000
0000
0010
0000
,
0000
0000
0100
0000
,
0000
0000
1000
0000
,
0000
0000
0001
0000
,
0000
0000
0010
0000
,
0000
0000
0001
0000
,
0000
0000
0001
0000
,
0000
0000
1000
0000
,
0000
0000
0001
0000
,
0000
0000
0010
0000
,
0000
0000
0010
0000
,
0000
0000
1000
0000
,
0000
0000
1000
0000
,
0000
0000
0002
0000
,
0000
0000
1003
0000
,
0000
0000
1000
0000
,
0000
0000
0010
0000
,
0000
0000
2000
0000
,
0000
0000
3001
0000
,
0000
0000
0010
0000
,
0000
0000
0001
0000
,
0000
0000
1000
0000
,
0000
0000
1000
0000
,
0000
0000
0001
0000
,
0000
0000
0001
0000
,
0000
0000
2000
0000
,
0000
0000
3001
0000
,
0000
0000
0010
0000
,
0000
0000
0001
0000
,
0000
0000
1000
0000
,
1000
0000
1000
0000
,
0000
0000
0001
0000
,
0001
0000
0001
0000
,
0000
0000
0010
0000
,
0010
0000
0010
0000
,
0000
0000
1000
0000
,
1000
0000
1000
0000
,
0000
0000
1000
0000
,
0001
0000
1000
0000
,
0000
0000
0010
0000
,
1000
0000
0010
0000
,
0000
0000
0001
0000
,
1000
0000
0001
0000
,
0000
0000
0010
0000
,
0010
0000
1000
0000
,
1000
0000
0002
0000
,
0000
0000
1003
0000
,
1000
0000
0010
0000
,
0010
0000
1000
0000
,
1000
0000
2000
0000
,
0000
0000
3001
0000
,
0001
0000
0100
0000
,
0010
0000
1000
0000
,
1000
0000
0001
0000
,
0001
0000
1000
0000
,
1000
0000
0010
0000
,
0010
0000
1000
0000
,
1000
0000
0001
0000
,
0001
0000
0100
0000
,
0100
0000
0001
0000
,
0001
0000
1000
0000
,
1000
0000
1000
0000
;
