#VERSION:0.83;
#TITLE:Magnetic;
#SUBTITLE:;
#ARTIST:ILLIT;
#TITLETRANSLIT:;
#SUBTITLETRANSLIT:;
#ARTISTTRANSLIT:;
#GENRE:;
#ORIGIN:;
#CREDIT:;
#BANNER:AV.avi;
#BACKGROUND:BG.png;
#PREVIEWVID:;
#JACKET:jacket.png;
#CDIMAGE:;
#DISCIMAGE:;
#LYRICSPATH:;
#CDTITLE:;
#MUSIC:audio.ogg;
#OFFSET:-0.264000;
#SAMPLESTART:35.085480;
#SAMPLELENGTH:15.000003;
#SELECTABLE:YES;
#BPMS:0.000=131.000;
#STOPS:190.000=0.450,
205.000=0.450;
#DELAYS:;
#WARPS:;
#TIMESIGNATURES:0.000=4=4;
#TICKCOUNTS:0.000=4;
#COMBOS:0.000=1;
#SPEEDS:0.000=1.000=0.000=0;
#SCROLLS:0.000=1.000,
144.000=0.500,
152.000=1.000;
#FAKES:;
#LABELS:0.000=Song Start;
#BGCHANGES:0.000=MV.avi=1.400=1=0=1===CrossFade==,
5.000=MV.avi=1.000=0=0=1=====,
99999=-nosongbg-=1.000=0=0=0 // don't automatically add -songbackground-
;
#KEYSOUNDS:;
#ATTACKS:
;

//---------------dance-single - ----------------
#NOTEDATA:;
#CHARTNAME:;
#STEPSTYPE:dance-single;
#DESCRIPTION:;
#CHARTSTYLE:Rajeious's Chart;
#DIFFICULTY:Challenge;
#METER:14;
#RADARVALUES:0.615510,0.654854,0.215429,0.293766,0.391688,440.000000,418.000000,22.000000,30.000000,0.000000,0.000000,0.000000,0.000000,0.000000,0.615510,0.654854,0.215429,0.293766,0.391688,440.000000,418.000000,22.000000,30.000000,0.000000,0.000000,0.000000,0.000000,0.000000;
#CREDIT:Rajeious's Chart;
#NOTES:
// measure 0
0000
0000
0000
0000
,  // measure 1
0000
0000
0000
0000
,  // measure 2
0000
0000
0000
0000
,  // measure 3
0000
0000
0000
0000
,  // measure 4
0001
0000
1000
0000
1000
0001
0100
0000
0020
0000
0000
0000
0130
0000
0001
0010
,  // measure 5
0100
0000
1000
0000
0001
0010
0001
0000
0100
0000
0010
0000
0100
0000
0010
1000
,  // measure 6
0001
0000
0000
0000
1001
0000
0000
0000
0001
0000
0010
0000
0100
1000
0100
0000
,  // measure 7
2000
0000
0000
0000
3001
0000
1000
0100
0010
0000
0001
0000
0100
0010
0100
0000
,  // measure 8
0002
0000
1003
0000
0010
0100
0010
0000
2000
0000
3000
0000
1000
0000
0010
0100
,  // measure 9
0002
0000
1003
0000
0001
0010
1000
0000
0010
0000
0001
0000
0010
0000
0100
0010
,  // measure 10
0002
0000
1003
0000
0100
1000
0010
0000
0200
0000
0300
0000
0001
0000
1000
0001
,  // measure 11
0020
0000
0130
0000
0100
0000
1000
0000
0010
0000
0100
0000
1000
0100
0010
0000
,  // measure 12
0100
0000
0001
0000
0010
0100
1000
0000
0100
0000
0001
0000
0100
0000
1000
0001
,  // measure 13
1000
0000
0010
0000
0100
0010
0100
0000
1001
0000
0110
0000
1001
0000
0000
0000
,  // measure 14
0001
0000
1000
0000
0001
0000
0010
0100
0010
0000
0001
0000
0001
0000
1000
0100
,  // measure 15
0010
0000
0100
0000
1000
0000
0001
0100
0001
0000
1000
0000
0010
0100
1000
0000
,  // measure 16
0200
0000
0000
0000
0000
0300
0000
0000
0000
0000
1000
0000
0001
0000
0100
0000
,  // measure 17
0002
0000
1003
0200
0000
0320
0000
0032
,  // measure 18
0000
0003
0000
0000
0000
0000
0000
0000
,  // measure 19
0001
0000
0000
0000
0000
0000
0000
0000
0000
1000
0000
0000
0000
0000
0000
0000
0000
0010
0000
0000
0000
0000
0000
0000
0000
0000
0100
0000
0000
0000
0000
0000
,  // measure 20
0001
0010
0200
0000
1300
0010
0200
0000
0301
0010
0200
0000
1300
0010
0200
0000
,  // measure 21
0301
0000
0010
0000
0001
1000
0001
0000
1000
0000
0010
0000
1000
0000
0100
0000
,  // measure 22
0110
0000
0010
0000
1001
0000
0001
0000
0110
0000
0100
0000
1001
0000
1000
0100
,  // measure 23
0010
0000
0001
0000
0010
0000
0010
0100
1000
0000
0001
0010
1000
0010
0001
0000
,  // measure 24
0100
0001
0020
0000
0130
1000
0020
0000
0130
0001
0020
0000
0130
1000
0020
0000
,  // measure 25
1030
0000
0100
0000
0010
0100
1000
0000
1000
0000
0001
0000
0010
0000
0001
0000
,  // measure 26
0110
0100
1001
1000
0110
0010
1001
0001
,  // measure 27
0000
0000
0011
0000
1000
0100
0011
0000
,  // measure 28
1000
0100
0001
0100
1000
0010
0001
0010
,  // measure 29
1000
0010
0100
0001
0010
0000
0010
0001
,  // measure 30
1000
0100
0010
0100
1000
0001
0010
0001
,  // measure 31
1000
0010
0001
1000
0100
0000
0001
0001
,  // measure 32
0010
0100
1000
0001
0100
0010
0100
0001
,  // measure 33
1000
0100
0010
0001
0100
0000
0100
0010
,  // measure 34
1000
0100
0010
0001
0100
0000
0100
0010
,  // measure 35
1000
0000
1000
0100
0001
0000
0001
0100
,  // measure 36
1000
0000
0000
0000
,  // measure 37
0010
0000
0000
0000
0000
0000
0000
0000
0000
0100
0000
0000
0000
0000
0000
0000
0000
0001
0000
0000
0000
0000
0000
0000
0000
0000
1000
0000
0000
0000
0000
0000
,  // measure 38
0001
0100
2000
0000
3001
0010
2000
0000
3001
0100
2000
0000
3001
0010
2000
0000
,  // measure 39
3010
0000
0100
0000
0001
1000
0010
0000
0010
0000
0100
0000
0001
0000
0010
0000
,  // measure 40
0011
0000
0001
0000
1001
0000
0001
0000
1010
0000
1000
0000
1001
0000
1000
0100
,  // measure 41
0010
0000
0100
0000
0010
0000
0001
0100
0001
0000
1000
0010
0001
0010
0100
0000
,  // measure 42
0001
0010
2000
0000
3010
0001
2000
0000
3001
0010
2000
0000
3010
0001
2000
0000
,  // measure 43
3100
0000
0100
0000
0010
0100
1000
0000
1000
0000
0001
0000
0010
0000
0100
0000
,  // measure 44
1100
0000
1000
0000
1001
0000
1000
0000
0011
0000
0001
0000
1001
0000
0001
0100
,  // measure 45
0010
0000
0100
0000
0001
0000
1000
0100
1000
0000
0001
0100
1000
0100
0010
0000
,  // measure 46
1000
0000
0001
0100
0010
0100
0001
0000
1000
0000
0001
0100
1000
0000
0100
0000
,  // measure 47
0001
0000
1000
0100
0010
0100
1000
0000
0001
0000
0000
0000
1000
0000
0001
0100
,  // measure 48
0010
0100
0001
0000
1000
0000
0100
0010
0100
0000
1000
0000
0001
0000
1000
0010
,  // measure 49
0100
0000
0001
0000
0010
0000
0001
0010
0100
0010
0001
0000
1000
0000
0010
0100
,  // measure 50
0001
1000
0001
0000
0100
0000
0010
1000
0001
0100
0001
0000
1000
0000
0010
0100
,  // measure 51
0001
1000
0001
0000
0100
0000
0000
0000
0001
0000
1000
0100
0010
0100
1000
0000
,  // measure 52
0001
0000
1000
0100
0010
0100
1000
0000
0000
0000
0000
0000
0001
0000
0010
0000
,  // measure 53
0100
1000
0002
0000
0003
0000
0000
0000
;

//---------------dance-single - ----------------
#NOTEDATA:;
#CHARTNAME:;
#STEPSTYPE:dance-single;
#DESCRIPTION:;
#CHARTSTYLE:Musey;
#DIFFICULTY:Hard;
#METER:10;
#RADARVALUES:0.486813,0.523883,0.029377,0.763792,0.166468,348.000000,345.000000,3.000000,78.000000,0.000000,0.000000,0.000000,0.000000,0.000000,0.486813,0.523883,0.029377,0.763792,0.166468,348.000000,345.000000,3.000000,78.000000,0.000000,0.000000,0.000000,0.000000,0.000000;
#CREDIT:Musey;
#NOTES:
0000
0000
0000
0000
,
0000
0000
0000
0000
,
0000
0000
0000
0000
,
0000
0000
0000
0000
,
1000
0100
0010
0001
1000
0010
0100
0001
,
1000
0000
0000
0000
1000
0000
0100
0000
0010
0000
0100
0000
1000
0000
0001
0010
,
0100
0000
1100
0000
0001
0100
0010
0100
,
0001
0000
0100
0001
1000
0100
1000
0010
,
0200
0001
0301
0000
0020
1000
1030
0000
,
0002
0000
1000
0000
1003
0000
0010
0000
0100
0000
0001
0000
0010
0000
0100
1000
,
0200
0000
0300
0000
1000
0000
0100
1000
0002
0000
0003
0000
0100
0000
0010
1000
,
0002
0003
0011
0001
1000
0010
0100
0001
,
0010
1000
0010
0001
0100
0010
1000
0010
,
0100
0000
1000
0000
0100
0000
0010
1000
0002
0000
0100
0000
0103
0000
0000
0000
,
1000
0001
0010
0100
1000
0100
0001
0100
,
0010
0000
0001
0000
1000
0000
0100
0010
0200
0000
0000
0000
1300
0000
0000
0000
,
2000
0000
3010
0000
0000
0001
0100
0010
,
2000
0000
3001
0200
0000
0320
0000
0032
,
0000
0003
0000
0000
0000
0000
0000
0000
,
0000
0000
0000
0000
,
0100
0002
1003
0020
1030
0002
1003
0020
,
1030
0000
0000
0000
0100
0001
0100
0000
0010
0000
2000
0000
0000
0000
3010
0000
,
0200
0302
0203
0320
0230
0302
0203
0320
,
1030
0000
0000
0000
0100
0001
1000
0000
0001
0000
2000
0000
0000
0000
3010
0000
,
1000
0002
0013
2000
3010
0002
0013
2000
,
3010
0000
0000
0000
0001
0010
0100
0000
1000
0000
0002
0000
0000
0000
0013
0000
,
0002
0023
2030
3020
0032
0023
2030
3020
,
0032
0000
0103
0001
1000
0020
0000
1030
,
0001
1000
0100
1000
0001
0100
0010
1000
,
0100
0001
0100
1000
0020
0000
0130
0100
,
0010
1000
0100
0001
0100
1000
0001
0010
,
1000
0010
0001
1000
0020
0000
0130
0010
,
0001
0010
1000
0100
0001
1000
0010
0100
,
0010
0001
1000
0001
0200
0000
0301
1000
,
0001
1000
0010
0100
1000
0100
0001
0010
,
0200
0000
1300
0100
0020
0000
0031
0000
,
0110
0000
0000
0000
,
0000
0000
0000
0000
,
1000
0002
0103
2000
3100
0002
0103
2000
,
3100
0000
0000
0000
0001
1000
0001
1000
0100
0000
2000
0000
0000
0000
3001
0000
,
0020
2030
3020
0032
0203
2300
3200
0302
,
1003
0000
0010
0000
1000
0001
1000
0001
0100
0000
0002
0000
0000
0000
0013
0000
,
0100
0020
0031
0020
1030
0020
0031
2000
,
3010
0000
1000
0000
0100
1000
0001
1000
0001
0000
0020
0000
0000
0000
0032
0000
,
0023
0032
0023
0230
2300
3200
2300
3020
,
0130
0000
0001
0000
0010
0001
1000
0100
0010
0000
0200
0000
0000
0000
1300
0000
,
0001
0000
0000
0001
0000
0100
0001
0000
0100
0000
0000
0100
0000
0001
1000
0000
,
1000
0000
0000
1000
0000
0010
1000
0000
0001
0000
0000
0000
0100
0000
0000
0100
,
0000
0001
1000
0000
0001
0000
0000
0001
0000
1000
0010
0000
0010
0000
0000
0010
,
0000
1000
0010
0000
1000
0000
0002
0000
0000
0000
1003
0000
0100
0000
0010
0001
,
0010
0000
0001
0000
1000
0000
0010
0100
0010
0000
1000
0000
0010
0000
1000
0010
,
1000
0000
0001
0000
0100
0000
0000
0000
1000
0000
0001
1000
0001
0000
0100
0000
,
0010
0000
1000
0010
1000
0000
0001
0000
0010
0000
0000
0000
0100
0000
1000
0000
,
0001
0100
0020
0000
0030
0000
0000
0000
;

//---------------dance-single - ----------------
#NOTEDATA:;
#CHARTNAME:;
#STEPSTYPE:dance-single;
#DESCRIPTION:;
#CHARTSTYLE:Musey;
#DIFFICULTY:Medium;
#METER:7;
#RADARVALUES:0.351121,0.365005,0.058753,0.039169,0.000000,251.000000,245.000000,6.000000,4.000000,0.000000,0.000000,0.000000,0.000000,0.000000,0.351121,0.365005,0.058753,0.039169,0.000000,251.000000,245.000000,6.000000,4.000000,0.000000,0.000000,0.000000,0.000000,0.000000;
#CREDIT:Musey;
#NOTES:
0000
0000
0000
0000
,
0000
0000
0000
0000
,
0000
0000
0000
0000
,
0000
0000
0000
0000
,
0001
0000
1000
0100
0010
0000
0001
0000
,
2000
0000
3010
0000
0001
0010
0001
0000
,
2000
0000
3100
0000
0010
0000
1000
0001
,
2000
0000
3010
0000
0100
0000
0001
0010
,
0001
1001
1000
1100
,
0010
0000
0110
0000
0001
0000
0001
1000
,
0001
1100
0010
0110
,
1000
0000
1001
0000
0001
0000
0100
0010
,
0100
0001
1000
0010
,
0001
0000
0010
0000
1000
0100
1000
0000
,
0001
0010
0001
0100
,
0010
0000
1000
0000
0001
0000
1000
0001
,
1000
0000
0000
0000
0000
1000
0001
1000
,
0100
0000
1000
0001
0000
0010
0000
0001
,
0000
0000
0000
0000
,
0000
0000
0000
0000
,
1000
0001
0010
0000
1000
0001
0010
0000
,
0100
0000
0010
0000
0001
1000
0001
0000
,
0100
0001
0010
0000
0001
0010
0100
0000
,
1000
0000
0010
0000
1000
0010
0100
0000
,
0001
1000
0100
0000
0001
1000
0100
0000
,
0001
0000
0010
0000
0100
1000
0010
0000
,
1000
0001
1000
0000
0010
0100
1000
0000
,
0010
0000
0100
0000
0001
1000
0001
0000
,
1000
0000
0100
0000
0010
0001
0010
0000
,
0001
0000
1000
0000
0001
0000
0010
0100
,
1000
0000
0100
0000
0010
0001
1000
0000
,
1000
0000
0010
0001
0100
0000
0001
1000
,
0010
0000
1000
0000
1000
0010
0100
0000
,
0010
0000
0001
0100
0010
0000
1000
0100
,
1000
0000
0001
0000
0100
0001
1000
0000
,
0100
0000
0010
0001
0010
0000
0100
1000
,
0100
0000
0000
0000
,
0000
0000
0000
0000
,
0001
0010
0100
0000
1000
0100
0010
0000
,
0001
1000
0010
0100
0001
0000
1000
0000
,
0100
1000
0100
0000
0010
0100
0010
0000
,
1000
0000
0001
0000
1000
0100
1000
0000
,
0010
0100
0001
0000
1000
0100
1000
0001
,
0100
0000
0010
0000
0010
0001
1000
0000
,
0010
0100
0001
0000
1000
0001
1000
0000
,
0010
0000
0100
0000
0001
0010
0001
0000
,
1000
0100
1000
0000
0001
0010
0001
0000
,
1000
0001
1000
0001
0100
0000
0001
1000
,
0001
0000
1000
0100
1000
0000
0010
0100
,
0010
0100
0001
0000
1000
0100
0010
0100
,
1000
0000
0001
0010
0100
0000
1000
0010
,
0100
0001
0100
0000
0001
1000
0001
0000
,
1000
0100
0010
0000
0001
0000
2000
0000
,
3100
0001
1000
0000
0000
0000
0000
0000
;

//---------------dance-single - ----------------
#NOTEDATA:;
#CHARTNAME:;
#STEPSTYPE:dance-single;
#DESCRIPTION:;
#CHARTSTYLE:Musey;
#DIFFICULTY:Easy;
#METER:4;
#RADARVALUES:0.246204,0.260718,0.117507,0.274182,0.000000,176.000000,164.000000,12.000000,28.000000,0.000000,0.000000,0.000000,0.000000,0.000000,0.246204,0.260718,0.117507,0.274182,0.000000,176.000000,164.000000,12.000000,28.000000,0.000000,0.000000,0.000000,0.000000,0.000000;
#CREDIT:Musey;
#NOTES:
0000
0000
0000
0000
,
0000
0000
0000
0000
,
0000
0000
0000
0000
,
0000
0000
0000
0000
,
0002
1003
0200
1300
,
1010
0000
1000
0001
,
2000
3100
0020
0031
,
1001
0000
0001
0010
,
0200
1300
0002
0103
,
2000
3100
0100
1000
,
0002
0013
0200
1300
,
0020
0130
2000
3100
,
0100
0010
0001
1000
,
0100
1000
0020
0130
,
0000
1000
0001
0010
,
0100
1000
0100
0010
,
0001
0000
0000
0000
,
1000
0000
0000
0000
,
0010
0000
0000
0000
,
0000
0000
0000
0000
,
0002
1003
0002
1003
,
0010
0110
0000
0001
,
2000
3100
2000
3100
,
1000
1001
0000
0001
,
0020
0130
0020
0031
,
1000
1010
0000
0001
,
2000
3100
0020
0031
,
1000
1001
0000
1000
,
0100
0010
0001
1000
,
0001
0010
0100
0000
,
1000
0001
0100
0100
,
0001
1000
0000
1000
,
0001
0010
0100
1000
,
0001
1000
0001
0000
,
1000
0010
1000
0100
,
0010
0001
1000
0001
,
1000
0000
0000
0000
,
0000
0000
0000
0000
,
0002
1003
0002
1003
,
0010
0110
0000
0001
,
2000
3100
0020
0031
,
1000
1010
0000
0100
,
0002
0013
0200
1300
,
0010
0101
0000
0001
,
2000
3100
0020
0031
,
1000
1010
0000
0001
,
1000
0100
1000
0010
,
1000
0100
1100
0001
,
1000
0100
1000
0010
,
0100
0001
1000
0001
,
1000
0010
0100
0010
,
1000
1010
0001
0010
,
0001
0100
0001
1000
,
0010
0100
0000
0000
;

//---------------dance-single - ----------------
#NOTEDATA:;
#CHARTNAME:;
#STEPSTYPE:dance-single;
#DESCRIPTION:;
#CHARTSTYLE:Musey;
#DIFFICULTY:Beginner;
#METER:2;
#RADARVALUES:0.141288,0.182502,0.127299,0.000000,0.000000,101.000000,88.000000,13.000000,0.000000,0.000000,0.000000,0.000000,0.000000,0.000000,0.141288,0.182502,0.127299,0.000000,0.000000,101.000000,88.000000,13.000000,0.000000,0.000000,0.000000,0.000000,0.000000,0.000000;
#CREDIT:Musey;
#NOTES:
0000
0000
0000
0000
,
0000
0000
0000
0000
,
0000
0000
0000
0000
,
0000
0000
0000
0000
,
1000
0000
0001
0000
,
0100
0000
1000
0001
,
1000
0000
0010
0000
,
1000
0000
0001
0010
,
0001
0000
1000
0100
,
1000
0000
0001
0100
,
0001
0000
1000
0010
,
1000
0000
0001
0000
,
1000
0000
0010
0000
,
1000
0000
0001
1000
,
0001
0000
0100
0000
,
0010
0000
1000
0100
,
1000
0000
0000
0000
,
0001
0000
0000
0000
,
1000
0000
0000
0000
,
0100
0000
0000
0000
,
1001
0000
0000
0000
,
1001
0000
0000
0000
,
0001
0000
0100
0000
,
0001
0000
0000
0000
,
1010
0000
0000
0000
,
1010
0000
0000
0000
,
0100
0000
0010
0000
,
0100
0000
0000
0000
,
0001
0000
0001
0000
,
1000
0000
1000
0010
,
0100
0000
0100
0000
,
0001
0000
0001
0010
,
0001
0000
1000
0000
,
1000
0000
0010
0100
,
0010
0000
1000
0000
,
0001
0000
0100
0000
,
0001
0000
0000
0000
,
0000
0000
0000
0000
,
1001
0000
0000
0000
,
1001
0000
0000
0000
,
0010
0000
1000
0000
,
0001
0000
0000
0000
,
1100
0000
0000
0000
,
1100
0000
0000
0000
,
1000
0000
0001
0000
,
1000
0000
0000
0000
,
0101
0000
0000
0000
,
1001
0000
0000
1001
,
0000
0000
0000
1010
,
0000
0000
0000
0001
,
0000
0001
0000
1000
,
0000
1010
0001
0000
,
0100
0000
0000
1000
,
0001
1000
0000
0000
;
