#VERSION:0.83;
#TITLE:Love or Die;
#SUBTITLE:;
#ARTIST:CRAVITY;
#TITLETRANSLIT:;
#SUBTITLETRANSLIT:;
#ARTISTTRANSLIT:;
#GENRE:;
#ORIGIN:;
#CREDIT:;
#BANNER:AV.avi;
#BACKGROUND:bg.png;
#PREVIEWVID:;
#JACKET:jacket.png;
#CDIMAGE:;
#DISCIMAGE:;
#LYRICSPATH:;
#CDTITLE:;
#MUSIC:audio.ogg;
#OFFSET:-0.182000;
#SAMPLESTART:38.778114;
#SAMPLELENGTH:15.000012;
#SELECTABLE:YES;
#BPMS:0.000=174.000;
#STOPS:;
#DELAYS:;
#WARPS:;
#TIMESIGNATURES:0.000=4=4;
#TICKCOUNTS:0.000=4;
#COMBOS:0.000=1;
#SPEEDS:0.000=1.000=0.000=0;
#SCROLLS:0.000=1.000,
175.500=0.800,
176.000=0.600,
177.000=0.500,
213.500=0.600,
214.500=0.700,
216.000=0.800,
217.000=1.000;
#FAKES:;
#LABELS:0.000=Song Start;
#BGCHANGES:0.000=MV.avi=0.800=1=0=1===CrossFade==,
2.000=MV.avi=1.000=0=0=1=====,
99999=-nosongbg-=1.000=0=0=0 // don't automatically add -songbackground-
;
#KEYSOUNDS:;
#ATTACKS:
;

//---------------dance-single - ----------------
#NOTEDATA:;
#CHARTNAME:;
#STEPSTYPE:dance-single;
#DESCRIPTION:;
#CHARTSTYLE:;
#DIFFICULTY:Beginner;
#METER:3;
#RADARVALUES:0.217617,0.311679,0.026725,0.151441,0.000000,171.000000,168.000000,3.000000,17.000000,0.000000,0.000000,0.000000,0.000000,0.000000,0.217617,0.311679,0.026725,0.151441,0.000000,171.000000,168.000000,3.000000,17.000000,0.000000,0.000000,0.000000,0.000000,0.000000;
#CREDIT:Musey;
#NOTES:
0000
0000
0000
0000
,
0000
0000
0000
0000
,
0000
0000
0000
0000
,
0000
0000
0000
0000
,
0000
2000
0000
3010
,
0000
0002
0000
0103
,
0000
2000
0000
3010
,
0000
0200
0000
0000
,
0000
0302
0000
0013
,
0000
2000
0000
3010
,
0000
0002
0000
0103
,
0000
1000
0000
1000
,
0000
0010
0000
1000
,
0000
0010
0100
0010
,
0000
1000
0000
1000
,
0000
0001
1000
0001
,
0000
0100
0000
0100
,
0000
0001
0100
0001
,
0000
1000
0010
1000
,
0000
0001
0000
0100
,
0000
0010
1000
0001
,
0000
2000
0000
3010
,
0000
0100
0001
0100
,
0000
0002
0000
0013
,
0000
0001
1000
0010
,
0000
2000
0000
3010
,
0000
0100
0000
0100
,
0000
0001
0000
0001
,
0000
1000
0000
0001
,
0000
1000
0010
1000
,
0000
0001
0000
0100
,
0000
0001
0100
0001
,
0000
1000
0000
0010
,
0000
1000
0001
0100
,
0000
0010
1000
0100
,
0000
0010
0000
0110
,
0000
0001
0000
0010
,
0000
0001
0100
0010
,
0000
1000
0000
1000
,
0000
0001
1000
0100
,
0000
0010
0000
0001
,
0000
1000
0001
1000
,
0000
0001
0000
0010
,
0000
0100
0010
0001
,
0000
2000
0000
0000
,
0000
3020
0000
0000
,
0000
0230
0000
0000
,
0000
0302
0000
0000
,
0000
2003
0000
0000
,
0000
3002
0000
0000
,
0000
2003
0000
0000
,
0000
0000
0000
0000
,
0000
0000
0000
0000
,
0000
0000
0000
0000
,
0000
3010
0000
0010
,
0000
0100
0010
0100
,
0100
0010
0000
0010
,
0000
1000
0001
1000
,
1000
0001
0000
0100
,
0000
0001
0100
0001
,
0000
1000
0100
0010
,
0000
0100
0000
0110
,
0000
0001
0000
1000
,
0000
0010
1000
0010
,
0000
0100
0000
0001
,
0000
0100
0001
0100
,
0000
0001
0000
1000
,
0000
0010
1000
0001
,
0000
1000
0100
0010
,
0000
0001
1000
0001
,
0000
1000
0000
1000
,
0001
1000
1000
0001
,
0000
0100
0000
0100
,
0000
0001
0100
0010
,
0000
0100
0001
0010
,
0100
0010
0001
1000
,
1000
0001
1000
0010
,
0000
1000
0000
1001
;

//---------------dance-single - ----------------
#NOTEDATA:;
#CHARTNAME:;
#STEPSTYPE:dance-single;
#DESCRIPTION:;
#CHARTSTYLE:;
#DIFFICULTY:Easy;
#METER:5;
#RADARVALUES:0.267249,0.348537,0.008908,0.418690,0.000000,210.000000,209.000000,1.000000,47.000000,0.000000,0.000000,0.000000,0.000000,0.000000,0.267249,0.348537,0.008908,0.418690,0.000000,210.000000,209.000000,1.000000,47.000000,0.000000,0.000000,0.000000,0.000000,0.000000;
#CREDIT:Musey;
#NOTES:
0000
0000
0000
0000
,
0000
0000
0000
0000
,
0000
0000
0000
0000
,
0000
0000
0000
0000
,
0000
2000
0000
3002
,
0000
0203
0000
0320
,
0000
2030
0000
3020
,
0000
0130
0010
0100
,
0001
2000
0000
3020
,
0000
0230
0000
0302
,
0000
1003
0001
1000
,
0010
0200
0000
0310
,
0000
1000
0001
1000
,
0010
0100
0100
0010
,
0000
1000
0001
0010
,
0001
0100
0100
0001
,
0000
1000
0010
1000
,
0100
0010
0010
0100
,
0000
1000
0001
1000
,
0010
0100
0100
0010
,
0100
0001
1000
0100
,
1000
0002
0000
1003
,
0000
0010
1000
0100
,
0010
0002
0000
0103
,
0000
0010
1000
0001
,
0100
0020
0000
1030
,
0000
0001
1000
0100
,
1000
0002
0000
1003
,
0000
0020
0000
0230
,
0000
0302
0000
2003
,
0000
3020
0000
2030
,
0000
3002
0000
0103
,
0000
0010
0100
0001
,
1000
0100
1000
0001
,
0000
0010
0100
0010
,
0001
1000
0010
2000
,
0000
3002
0000
0203
,
0000
0320
0000
2030
,
0000
3002
0000
0023
,
0000
0032
0000
0103
,
0000
0010
1000
0001
,
0100
0010
0010
0100
,
0000
0001
1000
0100
,
0010
0001
0001
2000
,
0000
3002
0000
0000
,
0000
0203
0000
0000
,
0000
0320
0000
0000
,
0000
2030
0000
0000
,
0000
3002
0000
0000
,
0000
0203
0000
0000
,
0000
0310
0000
0010
,
0000
0100
0000
0100
,
0000
0001
0000
0001
,
0000
2000
0000
0000
,
0000
3002
0000
0203
,
0000
0301
0100
0001
,
0000
2000
0000
3020
,
0000
1030
0010
1000
,
0000
0001
0100
0010
,
0100
0001
1000
0001
,
0000
0010
0100
0010
,
0001
1000
0010
1000
,
0000
0002
0000
2003
,
0000
3010
1000
0010
,
0000
2000
0000
3002
,
0000
0103
0001
0100
,
0000
0001
0100
0010
,
1000
0001
1000
0010
,
0000
0100
0001
0010
,
0100
0010
0001
0010
,
0000
0001
1000
0010
,
1000
0001
0001
0100
,
0010
0100
0100
0010
,
1000
0001
0010
0100
,
0100
1000
1000
0001
,
0100
0010
0010
0100
,
0110
0001
1000
0100
,
1000
0010
0010
2000
,
0000
3000
0000
0000
;

//---------------dance-single - ----------------
#NOTEDATA:;
#CHARTNAME:;
#STEPSTYPE:dance-single;
#DESCRIPTION:;
#CHARTSTYLE:;
#DIFFICULTY:Medium;
#METER:9;
#RADARVALUES:0.436506,0.521970,0.080175,0.391965,0.000000,343.000000,334.000000,9.000000,44.000000,0.000000,0.000000,0.000000,0.000000,0.000000,0.436506,0.521970,0.080175,0.391965,0.000000,343.000000,334.000000,9.000000,44.000000,0.000000,0.000000,0.000000,0.000000,0.000000;
#CREDIT:Musey;
#NOTES:
0000
0000
0000
0000
,
0000
0000
0000
0000
,
0000
0000
0000
0000
,
0000
0000
0000
0000
,
0000
0000
2000
0000
3001
0100
0002
0000
,
0203
0000
0320
0000
1030
0001
2000
0000
,
3020
0000
0230
0000
0301
1000
0002
0000
,
0023
0032
2003
3020
,
0230
0000
0302
0000
1003
0001
2000
0000
,
3020
0000
0230
0000
0301
0100
0002
0000
,
0023
0000
0130
0000
1000
0001
1000
0000
,
0010
0100
0010
0000
1000
0000
2001
0000
,
0000
3001
0100
0001
,
1000
0000
0010
0000
1000
0010
0100
0000
,
0010
1000
0001
0010
,
0001
0000
1000
0000
0001
1000
0001
0000
,
0100
0010
1000
0100
,
0010
0000
0100
0000
0010
0100
0010
0000
,
0001
0000
1000
0001
1000
0000
0010
0100
,
0010
1000
0001
0010
,
0011
0000
1000
0000
0001
0100
0001
0000
,
1000
0002
2003
3020
,
0130
0000
0001
0000
1000
0100
1000
0000
,
0001
0200
0302
0023
,
0130
0000
1000
0000
0001
0100
0001
0000
,
1000
0020
2030
3200
,
1300
0000
0010
0100
0010
0000
1000
0000
,
0001
0100
0100
0002
,
0000
0000
1003
0000
0010
0000
1000
0010
,
1000
0000
0001
0000
0100
0000
0001
0100
,
0001
0000
1000
0000
0010
0000
1000
0001
,
0010
0000
0001
0000
1000
0000
0001
1000
,
0001
0100
0001
0101
,
1000
0010
0100
0010
1000
0000
0100
0000
,
0010
0000
0010
0100
1000
0100
0010
0100
,
1000
0001
0100
0000
0001
0000
0201
0000
,
0301
0000
1000
0000
0010
0000
0100
0010
,
1000
0000
0001
0000
0010
0000
0001
1000
,
0001
0000
0100
0000
0001
0000
1000
0100
,
0010
0000
0100
0000
1000
0000
0001
0100
,
0001
1000
0010
0000
0100
0000
0110
0000
,
1000
0001
0010
0000
0001
0000
0011
0000
,
1000
0000
0001
0100
0001
0000
1000
0010
,
1000
0100
0010
0120
,
0000
0130
0000
0100
,
0000
0010
0000
0010
,
0000
0001
0000
0001
,
0000
1000
0000
1000
,
0000
0001
0000
0100
,
0000
0010
0000
1000
,
0000
0002
0000
0100
,
0000
0010
0000
0010
,
0000
1003
1000
1000
,
1000
0001
0001
0001
,
0001
2000
0001
0010
,
0100
3002
0100
0010
,
1000
0203
0010
0001
,
0010
0302
0010
1000
,
0103
0010
1000
1010
,
0100
0001
1000
1001
,
0001
0000
0010
0100
1000
0100
0010
0001
,
1000
0001
0100
0000
0010
0000
2000
0000
,
3001
0200
0001
0010
,
0001
0302
1000
0100
,
0010
0023
0001
0100
,
0001
0032
1000
0100
,
1003
0010
1000
0010
,
0100
0000
0001
1000
0001
0000
0100
0000
,
0001
0000
0010
0100
1000
0100
0001
0100
,
1000
0010
0100
0000
0001
0000
2000
0000
,
0000
0000
3001
0000
0001
0000
0100
0001
,
0100
0010
1000
0001
0100
0010
1000
0000
,
0010
0000
0100
0010
1000
0010
0100
0000
,
0001
0000
0010
0001
1000
0001
0010
0000
,
0100
0000
1000
0100
0010
0100
1000
0000
,
0001
0000
0100
0001
1000
0001
0100
0000
,
0001
0000
1000
0010
0100
0010
1000
0100
,
0010
0100
1000
0000
0001
0000
2000
0000
,
0000
3000
0000
0000
0000
0000
0000
0000
;

//---------------dance-single - ----------------
#NOTEDATA:;
#CHARTNAME:;
#STEPSTYPE:dance-single;
#DESCRIPTION:;
#CHARTSTYLE:;
#DIFFICULTY:Hard;
#METER:12;
#RADARVALUES:0.487411,0.661162,0.204891,0.801746,0.026725,383.000000,360.000000,23.000000,90.000000,0.000000,0.000000,0.000000,0.000000,0.000000,0.487411,0.661162,0.204891,0.801746,0.026725,383.000000,360.000000,23.000000,90.000000,0.000000,0.000000,0.000000,0.000000,0.000000;
#CREDIT:Musey;
#NOTES:
0000
0000
0000
0000
,
0000
0000
0000
0000
,
0000
0000
0000
0000
,
0000
0000
0000
0000
,
0000
0000
2000
0000
0000
3002
0000
0000
,
0203
0000
0320
0000
0000
2030
0000
0000
,
3002
0000
0023
0000
0000
0032
0000
0000
,
0203
0320
2030
3002
,
0203
0000
0320
0000
0000
2030
0000
0000
,
3002
0000
0023
0000
0000
0032
0000
0000
,
0203
0000
0310
0100
0001
0100
0010
0000
,
1000
0100
1000
0000
0001
0000
1002
0000
,
1003
0010
0100
0001
,
0100
0010
0100
0001
0000
1000
0001
0000
,
1000
0000
0010
1000
0010
0000
0100
0000
,
0100
0010
0000
1000
0001
1000
0010
0000
,
0100
0001
0010
0001
,
0100
0010
0000
0100
0001
1000
0100
0000
,
1000
0000
0001
1000
0010
1000
0001
0100
,
0010
0100
0001
0010
0100
0010
0001
0000
,
0101
0000
0010
0000
0100
0010
0100
0001
,
0100
0020
2030
3020
,
0230
0000
0301
0000
1000
0100
1000
0001
,
1000
0002
0203
0320
,
1030
0000
0001
0000
0100
0010
0001
0010
,
0100
0002
0203
0320
,
0230
0000
0301
0010
1000
0010
0001
0100
,
0010
0100
0001
0000
1000
0000
1200
0000
,
2300
0000
3020
0000
0000
0230
0000
0000
,
0302
0000
0203
0000
0000
0302
0003
0000
,
0020
0000
0230
0000
0000
2300
0000
0000
,
3002
0000
0203
0000
0000
0320
0030
0000
,
1000
0001
1000
0000
0010
0000
0110
0000
,
0001
0010
1000
0010
0001
0000
0101
0000
,
0010
0000
0100
0001
0100
0010
1000
0001
,
1000
0100
0010
0000
0100
0000
1100
0000
,
0101
0000
0002
0000
0000
2003
0000
0000
,
3020
0000
0230
0000
0000
0302
0003
0000
,
0200
0000
0320
0000
0000
2030
0000
0000
,
3002
0000
0203
0000
0000
0302
0003
0000
,
1000
0100
1000
0000
1100
0000
0011
0000
,
0001
0010
0001
0000
0110
0000
1100
0000
,
0100
0000
1000
0001
1000
0010
0100
0000
,
0001
0010
0100
0000
0010
0000
0110
0000
,
0000
2000
0000
3002
,
0000
0203
0000
0320
,
0000
2030
0000
3002
,
0000
0203
0000
0320
,
0000
0230
0000
0302
,
0000
0023
0000
0032
,
0000
2003
0000
0100
,
0000
0010
0000
0100
,
0000
3001
0001
1000
,
1000
0000
0001
1000
0001
1000
0001
0100
,
0001
0100
0002
0000
0103
0001
0200
0000
,
0320
0000
2030
0000
3001
1000
0002
0000
,
0203
0000
0320
0000
0130
0010
0200
0000
,
0302
0000
2003
0000
3100
1000
0100
0000
,
1100
0000
0001
0100
0010
0000
1000
0000
,
0001
1000
0100
1000
0001
0000
0110
0000
,
0001
0010
1000
0010
0001
0100
0010
0001
,
0010
0100
0001
0000
1000
0000
1100
0000
,
0101
0000
0002
0000
1003
0001
2000
0000
,
3020
0000
0230
0000
0301
0100
0020
0000
,
2030
0000
3200
0000
0310
0001
0200
0000
,
0320
0000
2030
0000
3001
0010
0200
0000
,
0310
0001
0100
0000
1010
0000
1001
0000
,
0010
0100
0001
1000
0100
0000
0110
0000
,
0001
1000
0010
1000
0001
0100
0010
0100
,
0001
0010
0100
0000
0011
0000
1100
0000
,
1001
0000
0000
0000
0010
0000
1000
0000
0001
0000
0100
0001
0100
0000
0010
0000
,
1000
0000
0100
0000
0010
0000
0001
0000
0010
0000
0100
0010
0100
0000
1000
0000
,
0001
0000
0100
0000
0010
0000
0100
0000
0001
0000
1000
0100
1000
0000
0001
0000
,
0010
0000
0100
0000
0010
0000
0001
0000
1000
0000
0010
1000
0010
0000
0000
0000
,
0001
0000
0100
0001
0100
0000
0000
0000
0001
0000
1000
0001
1000
0000
0010
0000
,
0001
0010
0100
0001
1000
0100
0010
0000
,
0110
0000
0001
1000
0010
0100
0001
0000
,
0010
0100
0010
0000
0001
0000
2000
0000
,
0000
3000
0000
0000
0000
0000
0000
0000
;

//---------------dance-single - ----------------
#NOTEDATA:;
#CHARTNAME:;
#STEPSTYPE:dance-single;
#DESCRIPTION:;
#CHARTSTYLE:;
#DIFFICULTY:Challenge;
#METER:14;
#RADARVALUES:0.593038,0.766781,0.204891,0.481048,0.178166,466.000000,443.000000,23.000000,54.000000,0.000000,0.000000,0.000000,0.000000,0.000000,0.593038,0.766781,0.204891,0.481048,0.178166,466.000000,443.000000,23.000000,54.000000,0.000000,0.000000,0.000000,0.000000,0.000000;
#CREDIT:Musey;
#NOTES:
// measure 0
0000
0000
0000
0000
,  // measure 1
0000
0000
0000
0000
,  // measure 2
0000
0000
0000
0000
,  // measure 3
0000
0000
0000
0000
,  // measure 4
0000
0000
0200
0000
0310
1000
0020
0000
,  // measure 5
0230
0000
0302
0000
0103
0001
0020
0000
,  // measure 6
0032
0000
0203
0000
0301
1000
0020
0000
,  // measure 7
2030
3020
0032
0023
,  // measure 8
0230
0000
0302
0000
1003
0100
0020
0000
,  // measure 9
0032
0000
0203
0000
0301
1000
0020
0000
,  // measure 10
0032
0000
0013
1000
0001
0100
0010
0100
,  // measure 11
0001
0010
0200
0000
0310
0000
0110
0000
,  // measure 12
1001
0100
0001
1000
,  // measure 13
0001
0010
0000
0001
0000
0100
0010
0000
,  // measure 14
0011
0000
0001
0100
0010
0000
1000
0000
,  // measure 15
0001
0010
0000
1000
0010
0001
0010
0000
,  // measure 16
0101
0000
1010
0000
0001
0000
0100
0010
,  // measure 17
0100
0001
0000
1000
0100
1000
0001
0000
,  // measure 18
0110
0000
0001
0010
0001
0010
1000
0001
,  // measure 19
0100
0010
0001
1000
0010
0001
0010
0000
,  // measure 20
1010
0000
0001
0000
0100
0001
0010
0001
,  // measure 21
1000
0200
2300
3020
,  // measure 22
1030
0000
0010
1000
0100
1000
0100
0010
,  // measure 23
0001
0000
0002
0000
0203
0000
0310
1000
,  // measure 24
0001
0000
0010
0001
1000
0010
0001
0010
,  // measure 25
1000
0002
0023
0230
,  // measure 26
0320
0000
0031
1000
0100
0001
0100
1000
,  // measure 27
0010
0000
0100
0000
0010
0000
0000
0000
1000
0000
0001
0100
0001
0000
0001
0000
,  // measure 28
0200
0000
0310
0001
0010
2000
0000
3010
,  // measure 29
0200
0000
0301
0010
1000
0020
0000
0031
,  // measure 30
2000
0000
3100
0010
0001
0020
0000
0130
,  // measure 31
0020
0000
0031
0010
0100
2000
0000
3001
,  // measure 32
1000
0001
0010
0000
0001
0000
1001
0000
,  // measure 33
0100
0001
0010
0100
0010
0000
0110
0000
,  // measure 34
0011
0000
0001
0010
1000
0010
0100
1000
,  // measure 35
0001
0000
0100
0000
0010
0000
0000
0000
1000
0000
0000
0000
0010
1000
0010
1000
,  // measure 36
0010
1000
0010
1000
0010
0000
0100
0000
0010
0000
0002
0000
0000
0000
0013
0000
,  // measure 37
0200
0000
0301
0100
1000
0200
0000
0301
,  // measure 38
2000
0000
3001
0010
1000
0020
0000
0031
,  // measure 39
2000
0000
3001
0010
0100
0020
0000
0130
,  // measure 40
1000
0001
0100
0000
0010
0000
1010
0000
,  // measure 41
0100
0010
1000
0010
0001
0000
0110
0000
,  // measure 42
0010
0100
0001
0100
0010
1000
0001
0000
,  // measure 43
0001
0010
0100
0000
1000
0000
1010
0000
,  // measure 44
0000
0000
0001
0000
0000
0100
0010
0000
,  // measure 45
0000
0000
0100
0000
0000
0001
1000
0000
,  // measure 46
0000
0000
0010
0000
0000
1000
0001
0000
,  // measure 47
0000
0000
0100
0000
0000
0010
1000
0000
,  // measure 48
0001
0000
1000
0000
0000
0001
0100
0000
,  // measure 49
0000
0000
0010
0000
0000
1000
0010
0000
,  // measure 50
0000
2000
0000
0001
,  // measure 51
0000
0010
0000
0001
,  // measure 52
0000
0000
3010
0100
0010
0100
0010
0100
,  // measure 53
0010
0100
0001
0101
0000
0001
1000
0001
,  // measure 54
0101
0000
1001
0000
1000
0100
0001
0100
,  // measure 55
0020
0000
1000
0000
0130
1000
0001
0100
,  // measure 56
0002
0000
1000
0000
0103
0010
0100
0001
,  // measure 57
0020
0000
1000
0000
0130
1000
0010
0100
,  // measure 58
0010
0001
0010
0000
0100
0000
1001
0000
,  // measure 59
1000
0100
0010
0100
1000
0000
0001
0000
,  // measure 60
1001
0000
1000
0100
0001
0100
1000
0010
,  // measure 61
1000
0000
0001
0000
0010
0000
0000
0000
0001
0000
0000
0000
1000
0001
1000
0001
,  // measure 62
1000
0001
1000
0001
2000
0000
0000
0000
3010
0000
0100
0000
1000
0000
0100
0000
,  // measure 63
0002
0000
1000
0000
0103
0010
0001
0010
,  // measure 64
0200
0000
0010
0000
1300
0100
0001
1000
,  // measure 65
0200
0000
0010
0000
0310
0001
1000
0010
,  // measure 66
1000
0001
0010
0000
0100
0000
0101
0000
,  // measure 67
0001
0100
0010
0100
0001
0000
1000
0000
,  // measure 68
1100
0000
0100
1000
0010
0100
0010
1000
,  // measure 69
0100
0001
0100
0000
0010
0000
0011
0000
,  // measure 70
1000
0000
0001
0000
0100
0000
0010
0100
0000
0001
1000
0100
1000
0000
0001
0000
,  // measure 71
0010
0000
0100
0000
0010
0000
0001
0010
0000
0100
0010
0100
1000
0000
0001
0000
,  // measure 72
1000
0000
0000
0100
0000
0000
1000
0000
0001
0000
0100
0000
0010
0000
1000
0000
0001
0000
0010
0000
0000
0000
0000
0000
,  // measure 73
0001
1000
0100
0010
0100
1000
0010
0001
0010
0100
0000
0000
,  // measure 74
0001
1000
0100
0010
0000
0000
0010
0001
1000
0100
0000
0100
,  // measure 75
1000
0001
0100
0010
0100
0001
0010
0100
0010
0001
0000
0000
,  // measure 76
1010
0000
0000
0000
0001
0000
0100
0000
0010
0000
0100
0000
0001
0100
0001
0100
,  // measure 77
0001
0100
0001
0100
0001
0000
0000
0000
0100
0000
0000
0000
0220
0000
0000
0000
,  // measure 78
0000
0330
0000
0000
;
