#VERSION:0.83;
#TITLE:Lonely Dancers;
#SUBTITLE:;
#ARTIST:Conan Gray;
#TITLETRANSLIT:;
#SUBTITLETRANSLIT:;
#ARTISTTRANSLIT:;
#GENRE:;
#ORIGIN:;
#CREDIT:;
#BANNER:AV.avi;
#BACKGROUND:bg.png;
#PREVIEWVID:;
#JACKET:jacket.png;
#CDIMAGE:;
#DISCIMAGE:;
#LYRICSPATH:;
#CDTITLE:;
#MUSIC:audio.ogg;
#OFFSET:-0.232000;
#SAMPLESTART:55.168076;
#SAMPLELENGTH:14.999993;
#SELECTABLE:YES;
#BPMS:0.000=96.000;
#STOPS:;
#DELAYS:;
#WARPS:;
#TIMESIGNATURES:0.000=4=4;
#TICKCOUNTS:0.000=4;
#COMBOS:0.000=1;
#SPEEDS:0.000=1.000=0.000=0;
#SCROLLS:0.000=1.000;
#FAKES:;
#LABELS:0.000=Song Start;
#BGCHANGES:0.000=MV.avi=1.400=1=0=1===CrossFade==,
5.000=MV.avi=1.000=0=0=1=====,
99999=-nosongbg-=1.000=0=0=0 // don't automatically add -songbackground-
;
#KEYSOUNDS:;
#ATTACKS:
;

//---------------dance-single - ----------------
#NOTEDATA:;
#CHARTNAME:;
#STEPSTYPE:dance-single;
#DESCRIPTION:;
#CHARTSTYLE:;
#DIFFICULTY:Beginner;
#METER:2;
#RADARVALUES:0.161769,0.177740,0.000000,0.135614,0.000000,167.000000,167.000000,0.000000,20.000000,0.000000,0.000000,0.000000,0.000000,0.000000,0.161769,0.177740,0.000000,0.135614,0.000000,167.000000,167.000000,0.000000,20.000000,0.000000,0.000000,0.000000,0.000000,0.000000;
#CREDIT:Musey;
#NOTES:
0000
0000
0000
0000
,
0000
0000
0000
0000
,
0000
0000
0000
0000
,
0000
0000
0000
0000
,
0000
0000
0000
0000
,
0000
0000
0000
0000
,
1000
0000
0001
0000
,
0100
0000
0010
0000
,
1000
0000
0001
0000
,
0100
0000
0100
0000
,
0010
0000
0010
0000
,
0100
0010
0100
0000
,
1000
0000
0001
0000
,
1000
0001
1000
0000
,
1000
0100
0010
0000
,
0001
1000
0010
0000
,
1000
0100
1000
0000
,
0001
0100
0001
0001
,
0100
0010
1000
0000
,
1000
0001
0010
0000
,
0001
1000
0001
1000
,
0020
0000
0230
0000
,
0301
0100
0001
0001
,
1000
0001
2000
0000
,
3001
0001
0100
0010
,
1000
1000
0001
1000
,
0001
0010
0100
0100
,
1000
0001
2000
0000
,
3001
0100
0001
0100
,
0010
0010
2000
0000
,
3001
0001
0100
0100
,
0010
1000
0020
0000
,
1030
1000
0001
0100
,
0001
1000
0020
0000
,
2030
0000
3001
0100
,
0002
0000
1003
0001
,
0020
0000
0130
0010
,
0200
0000
2300
0000
,
3002
0000
0103
0001
,
2000
0000
3010
0100
,
0020
0000
2030
0000
,
3002
0000
0203
0000
,
0320
1000
1030
0001
,
0100
0001
1000
0000
,
0010
1000
0001
0100
,
0010
1000
0001
0001
,
1000
0100
0010
0000
,
0001
1000
0001
0001
,
1000
0010
0100
0001
,
1000
1000
0001
1000
,
0001
0001
1000
0010
,
0100
0100
0010
0000
,
1000
0001
0100
0100
,
0001
1000
0100
0100
,
1000
1000
0001
0000
,
1000
0001
1000
1000
,
0010
0100
0010
0000
,
0001
1000
0001
1000
,
2000
3000
0000
0000
;

//---------------dance-single - ----------------
#NOTEDATA:;
#CHARTNAME:;
#STEPSTYPE:dance-single;
#DESCRIPTION:;
#CHARTSTYLE:;
#DIFFICULTY:Easy;
#METER:5;
#RADARVALUES:0.241200,0.255633,0.013561,0.250887,0.000000,249.000000,247.000000,2.000000,37.000000,0.000000,0.000000,0.000000,0.000000,0.000000,0.241200,0.255633,0.013561,0.250887,0.000000,249.000000,247.000000,2.000000,37.000000,0.000000,0.000000,0.000000,0.000000,0.000000;
#CREDIT:Musey;
#NOTES:
0000
0000
0000
0000
,
0000
0000
0000
0000
,
0000
0000
0000
0000
,
0000
0000
0000
0000
,
0000
0000
0000
0000
,
0000
0000
0000
0000
,
1000
0001
1000
1000
,
0010
0100
0010
0010
,
0100
0001
0100
0100
,
0001
0010
0100
1000
,
1001
0000
0001
0000
0100
0001
0100
0000
,
0010
0010
2000
3001
,
0100
0000
0001
0000
1000
0001
1000
0000
,
0010
0100
0002
1003
,
2000
0000
3010
0000
0100
0010
0100
0000
,
0001
1000
0100
0000
2000
0000
3001
0000
,
0001
0010
0100
0000
0010
0000
0010
0000
,
0001
1000
0010
0000
0200
0000
0310
0000
,
1000
0001
0010
0000
0100
0000
0020
0000
,
0130
1000
0001
0000
2000
0000
3001
0000
,
0100
0001
0100
0000
0100
1000
0100
0000
,
2000
0010
3020
0000
,
0130
0000
0001
0000
0100
0001
0100
0000
,
0010
1000
0100
0000
2000
0000
3001
0000
,
0100
0010
0100
0000
0001
0000
1000
0000
,
0001
0010
0100
0000
2000
0000
3001
0000
,
0100
0001
0100
0000
0010
0000
1000
0000
,
0001
0010
0100
0000
0002
0000
1003
0000
,
0010
1000
0001
0000
2000
0000
3010
0000
,
0100
0001
0100
0000
0010
0000
0010
0000
,
1000
0000
1000
0000
0001
1000
0001
0000
,
0100
0001
0100
0000
0020
0000
1030
0000
,
2000
0000
3001
0000
1000
0001
1000
0000
,
0001
0001
0100
0010
,
2000
0000
0001
0000
3001
0000
0100
0001
,
0200
0000
0001
0000
0301
0000
1000
0001
,
0020
0000
0001
0000
0031
0000
0100
0010
,
0200
0310
0001
1000
,
0002
0000
1000
0000
1003
0000
0010
1000
,
0020
0100
0130
0001
,
2000
0000
3002
0000
,
0203
0000
0320
0000
,
1030
0000
0001
0000
1000
0001
1000
0000
,
0010
0000
0100
0000
0001
0100
0001
0000
,
1000
0000
0001
0000
0010
0100
0010
0000
,
0001
1000
0010
1000
,
0001
0100
0010
0000
1000
0000
0001
0000
,
1000
0100
0010
0000
0002
0000
1003
0000
,
0010
1000
0001
0000
0100
0000
0010
0000
,
1000
0001
1000
0001
0200
0000
0301
0000
,
1000
0000
1001
0000
0001
0100
0001
0000
,
1000
0001
0010
0100
2000
0000
3001
0000
,
0002
0103
0200
0310
,
1000
0001
1000
0001
0020
0000
0032
0000
,
0203
0000
0320
0000
1030
0001
1000
0000
,
0010
1000
0001
1000
0020
0000
1030
0000
,
0001
0100
0001
1000
,
0100
0010
0001
0010
0200
0000
2300
0000
,
3001
0000
0000
0000
;

//---------------dance-single - ----------------
#NOTEDATA:;
#CHARTNAME:;
#STEPSTYPE:dance-single;
#DESCRIPTION:;
#CHARTSTYLE:;
#DIFFICULTY:Medium;
#METER:9;
#RADARVALUES:0.307070,0.315981,0.020342,0.420405,0.240715,317.000000,314.000000,3.000000,62.000000,0.000000,0.000000,0.000000,0.000000,0.000000,0.307070,0.315981,0.020342,0.420405,0.240715,317.000000,314.000000,3.000000,62.000000,0.000000,0.000000,0.000000,0.000000,0.000000;
#CREDIT:Musey;
#NOTES:
0000
0000
0000
0000
,
0000
0000
0000
0000
,
0000
0000
0000
0000
,
0000
0000
0000
0000
,
0000
0000
0000
0000
,
0000
0000
0000
0000
,
0000
0000
1000
0000
0010
0000
0000
0100
0000
0200
0000
0000
0310
0000
0000
0000
,
0100
0000
0001
0000
1000
0000
0000
2000
0000
0000
0000
3000
0001
0000
0000
0000
,
0001
0000
0100
0000
0010
0000
0000
1000
0000
1000
0000
0001
0000
0200
0000
0000
,
0310
1000
0010
1000
0002
0000
0103
0000
,
0001
1000
0010
1000
0001
0100
0010
0100
,
0001
0001
1000
0001
2000
0000
3020
0000
,
1030
0001
0100
0100
0010
1000
0001
0001
,
1000
0010
1000
0100
0020
0000
0130
0000
,
0110
0000
1001
0000
0010
1000
0020
0000
,
1030
0001
0100
0001
2000
0000
3010
0000
,
1000
0001
0100
0010
0100
0001
2000
0000
,
3100
1000
0001
1000
0020
0000
0130
0000
,
0100
0001
1000
0100
1000
0001
0020
0000
,
0031
0100
0010
0100
0002
0000
2003
0000
,
3001
0100
0010
1000
0001
0010
1000
0010
,
0002
0203
0320
1030
,
1001
0000
0001
0000
0100
0000
0010
1000
0000
0002
0000
0000
0103
0000
0000
0000
,
0100
0000
0001
0000
1000
0000
0100
2000
0000
0000
0000
0000
3001
0000
0000
0000
,
0100
0000
0010
0000
1000
0000
0100
1000
0000
0001
0000
0001
0000
0200
0000
0000
,
0310
0000
1000
0000
0001
0000
1000
0100
0000
0020
0000
0000
0000
0032
0000
0000
,
0000
0000
1003
0000
0001
0000
1000
0010
0000
0200
0000
0000
0310
0000
0000
0000
,
1000
0000
0001
0000
0100
0000
0010
2000
0000
0000
0000
0000
3010
0000
0000
0000
,
0100
0000
0001
0000
0100
0000
0010
1000
0000
0001
0000
0010
0000
0200
0000
0000
,
0310
0000
0001
0000
0010
0000
0100
1000
0000
0002
0000
0000
0000
2003
0000
0000
,
0000
0000
0000
3000
0010
0000
0000
0010
0000
0010
0000
0000
0100
0000
0000
0000
,
0001
0000
0001
0000
0100
0000
0000
0200
0000
0000
0000
0000
0310
0000
0000
0000
,
1000
0000
0000
0000
0001
0000
0000
0001
0000
0001
0000
0000
1000
0000
0000
0000
,
0010
0000
0100
0000
0010
0000
0000
0020
0000
0000
0000
0000
1030
0000
0000
0000
,
0002
0000
0100
0000
1003
0010
1000
0001
,
0200
0000
0010
0000
0310
1000
0001
0010
,
0200
0000
0010
0000
0310
0001
1000
0010
,
2000
0000
3001
0000
0010
0100
0001
1000
,
0020
0000
1000
0000
1030
0001
0100
0010
,
2000
0000
0001
0000
3001
0001
0010
0100
,
2000
0001
3020
0100
,
2030
0001
3002
0100
,
0203
0000
0000
0000
0310
0000
0000
0010
0000
0200
0000
0000
0310
0000
0000
0000
,
1000
0000
0001
0000
1000
0000
0010
0200
0000
0000
0000
0000
0310
0000
0000
0000
,
1000
0000
0001
0000
0010
0000
0100
1000
0000
0001
0000
1000
0000
0020
0000
0000
,
0130
0000
0001
0000
1000
0000
0100
1000
0000
0002
0000
0000
0000
0203
0000
0000
,
0000
0000
0310
0000
1000
0000
0001
1000
0000
0002
0000
0000
0103
0000
0000
0000
,
0001
0000
0010
0000
0100
0000
0010
0002
0000
0000
0000
0000
1003
0000
0000
0000
,
0010
0000
1000
0000
0001
0000
1000
0010
0000
0100
0000
0001
0000
2000
0000
0000
,
3010
0000
0100
0000
0001
0000
0010
0100
0000
0020
0000
0000
0000
0230
0000
0000
,
0000
0000
0000
0000
1300
0000
0000
1000
0000
1000
0000
0000
0002
0000
0000
0000
,
0103
0000
0100
0000
0010
0100
0000
0020
0000
0000
0000
0000
1030
0000
0000
0000
,
0001
0000
0000
0000
1000
0000
0000
1000
0000
1000
0000
0000
0002
0000
0000
0000
,
0103
0000
0100
0000
0010
0000
0000
1000
0000
0002
0000
0000
0000
0203
0000
0000
,
0000
0000
0000
0300
0001
0000
0000
0001
0000
0001
0000
0000
2000
0000
0000
0000
,
3010
0000
0100
0000
0010
0100
0000
0020
0000
0000
0000
0030
2000
0000
0000
0000
,
3002
0000
0000
0000
0103
0000
0000
0100
0000
0100
0000
0000
0020
0000
0000
0000
,
1030
0000
0001
0000
0100
0000
0010
1000
0000
0002
0000
0000
0000
0023
0000
0000
,
0000
0030
0000
0000
;

//---------------dance-single - ----------------
#NOTEDATA:;
#CHARTNAME:;
#STEPSTYPE:dance-single;
#DESCRIPTION:;
#CHARTSTYLE:;
#DIFFICULTY:Hard;
#METER:11;
#RADARVALUES:0.466901,0.455198,0.162737,0.278009,0.572971,482.000000,458.000000,24.000000,41.000000,0.000000,0.000000,0.000000,0.000000,0.000000,0.466901,0.455198,0.162737,0.278009,0.572971,482.000000,458.000000,24.000000,41.000000,0.000000,0.000000,0.000000,0.000000,0.000000;
#CREDIT:Musey;
#NOTES:
0000
0000
0000
0000
,
0000
0000
0000
0000
,
0000
0000
0000
0000
,
0000
0000
0000
0000
,
0000
0000
0000
0000
,
0000
0000
0000
0000
,
0000
0000
0010
0000
1000
0000
0001
0100
0000
0020
0000
0000
0030
0000
0000
0000
,
0001
0000
1000
0000
0100
0000
0010
0200
0000
0000
0000
0000
0300
0000
0000
0000
,
0000
0000
0001
0000
0100
0000
0100
0001
0000
0010
0000
0001
0000
0200
0000
0000
,
0310
0000
1000
0000
0001
0000
1000
0010
0000
0200
0000
0000
0301
0000
0001
1000
,
0001
0000
0100
0000
0101
0000
0010
1000
0000
1000
0100
0000
0110
0000
0000
0000
,
1001
0000
1000
0000
1000
0010
0000
0200
0000
0000
0301
0000
1001
0000
0000
0000
,
0101
0000
0100
0000
0001
0000
0010
0001
0000
0001
0000
0000
1010
0000
0010
1000
,
0010
0000
0010
0000
0010
1000
0000
0200
0000
0000
0300
0000
1100
0000
0100
1000
,
0010
0000
0100
0000
0001
0000
1000
0010
0000
0200
0000
0000
0301
0000
0100
0001
,
0100
0000
0010
0000
1000
0000
0001
0100
0000
0100
0001
0000
0100
0000
0010
1000
,
0010
0000
1000
0000
0001
0000
0010
0100
0000
0200
0000
0000
0310
0000
0010
0001
,
0010
0000
0100
0000
1000
0001
0000
1000
0000
0010
1000
0000
0001
0000
0001
0100
,
0001
0000
0100
0000
0010
0000
1000
0001
0000
2000
0000
0000
3010
0000
1000
0010
,
1000
0000
0001
0000
0100
0000
0001
0010
0000
0002
0000
0000
0013
0000
0001
0010
,
0100
0020
0032
2003
3020
0230
0302
1003
,
0010
1000
0010
0000
1000
0000
0001
0100
0000
0100
0001
1000
0100
0000
0100
1000
,
0100
0000
1000
0000
0001
0000
0100
0010
0000
0200
0000
0300
0101
0000
0100
0001
,
0100
0000
0010
0000
1000
0000
0001
0020
0000
0000
0030
0000
1001
0000
0010
1000
,
0010
0000
1000
0000
0001
0000
0100
0010
0000
0100
0000
0001
0000
0020
0000
0000
,
0031
0000
1000
0000
0100
0000
1000
0001
0000
0200
0000
0000
0000
0301
1000
0001
,
1000
0000
0010
0000
0100
0000
0001
0100
0000
0020
0000
0030
0110
0000
0010
1000
,
0010
0000
1000
0000
0001
0000
1000
0200
0000
0000
0000
0300
1100
0000
0100
0010
,
0100
0000
0010
0000
1001
0000
1000
0010
0000
0100
0000
0001
0000
0020
0000
0000
,
0031
0000
0100
0000
0001
0000
0010
0001
0000
2000
0000
0000
3000
0100
1000
0100
,
2000
0000
0001
3000
1000
0001
0000
0100
0000
0100
0000
0000
0110
0000
0010
0100
,
1000
0000
1000
0000
1000
0001
0000
0200
0000
0310
0100
0000
1000
0002
0000
0003
,
1001
0000
0001
0000
0100
0010
0000
0100
0000
0100
0000
0000
0110
0000
0001
0010
,
0001
0000
0001
0000
0001
1000
0000
0200
0000
0000
0000
0300
1100
0000
0100
1000
,
0001
0000
1000
0000
0010
0100
0000
0100
0000
0000
0010
0000
0001
1000
0010
0000
,
0100
0000
0010
0000
1000
0010
0000
0010
0000
0000
1000
0000
0001
0100
0010
0000
,
1000
0000
0001
0000
1000
0001
0000
0001
0000
1000
0100
0000
0100
1000
0010
0000
,
1000
0000
0001
0000
0100
0010
0000
0010
0100
0000
0002
0000
1003
0000
0020
0000
,
0130
0000
0001
0000
0010
0100
0000
0100
0000
0000
0010
0000
0001
0100
0001
0000
,
1000
0000
0010
0000
1000
0010
0000
0010
0000
0000
1000
0000
0001
0100
0001
0000
,
2000
0000
0001
0000
0000
0001
0000
0000
3020
0000
0100
0000
0000
0100
0000
0000
,
2030
0000
0001
0000
0000
0001
0000
0000
3010
0100
0010
0000
1000
0000
0010
0100
,
0001
0000
1000
0000
0001
0000
0100
0010
0000
0100
0001
0010
0100
1000
0100
0010
,
0001
0000
0100
0000
0010
0000
1000
0002
0000
0000
0003
0000
1010
0000
1000
0001
,
1000
0000
0100
0000
0010
0000
0001
0010
0000
0001
0000
0100
0000
0010
0100
0001
,
0010
0000
0001
0000
1000
0000
0010
0100
0000
0002
0000
0000
0003
1000
0010
1000
,
0001
0000
0100
0000
0001
0000
1000
0010
0000
1000
0100
0010
0001
0010
0100
1000
,
0001
0000
0100
0000
0010
0000
0100
0002
0000
0000
0003
0000
1001
0000
0010
0100
,
0010
0000
0010
0000
0001
0000
1000
0010
0000
1000
0000
0001
0000
0100
0010
1000
,
0010
0000
1000
0000
0001
0000
0100
0010
0000
2000
0000
0000
3000
0010
1000
0010
,
2000
0000
0000
3000
1001
0000
0001
0100
0000
0100
0000
0000
0101
0000
0001
1000
,
0010
0000
0010
0000
0010
0100
0000
0001
0000
0100
0001
0000
0101
0000
0001
1000
,
0001
0000
1000
0000
0010
0100
0000
0100
0000
0100
0000
0000
0110
0000
0001
1000
,
0001
0000
0010
0000
0100
0000
0010
0001
0000
0200
0000
0300
0001
1000
0001
0100
,
0001
0000
0100
0000
0010
0000
1000
0010
0000
0010
0000
0000
0110
0000
0100
0001
,
0100
0000
0100
0000
0100
0010
0000
1000
0000
0001
0100
0000
0001
0100
0010
1000
,
0010
0000
0100
0000
0001
0000
0001
0010
0000
0010
0000
0000
1001
0000
0010
1000
,
0001
0000
0001
0000
0100
0000
0010
0100
0000
0002
0000
0000
0000
0203
0000
0000
,
0000
0000
0000
0300
0000
0000
0000
0000
;

//---------------dance-single - ----------------
#NOTEDATA:;
#CHARTNAME:;
#STEPSTYPE:dance-single;
#DESCRIPTION:;
#CHARTSTYLE:;
#DIFFICULTY:Challenge;
#METER:13;
#RADARVALUES:0.541489,0.572716,0.264448,0.094930,0.671291,559.000000,520.000000,39.000000,14.000000,0.000000,0.000000,0.000000,0.000000,0.000000,0.541489,0.572716,0.264448,0.094930,0.671291,559.000000,520.000000,39.000000,14.000000,0.000000,0.000000,0.000000,0.000000,0.000000;
#CREDIT:Rajeious's Chart;
#NOTES:
// measure 0
0000
0000
0000
0000
,  // measure 1
0000
0000
0000
0000
,  // measure 2
0000
0000
0000
0000
,  // measure 3
0000
0000
0000
0000
,  // measure 4
0000
0000
0000
0000
,  // measure 5
0000
0000
0000
0000
,  // measure 6
0000
0000
1000
0000
0001
0000
0100
0010
0000
2000
0000
0000
3000
0000
0000
0000
,  // measure 7
0100
0000
1000
0000
0010
0000
0100
0002
0000
0000
0000
0000
0003
0000
0000
0000
,  // measure 8
0000
0000
1000
0000
0100
0000
0010
0001
0000
1000
0000
0010
0000
0200
0000
0000
,  // measure 9
0301
0000
0010
0000
0100
0000
1000
0010
0000
0200
0000
0000
0300
0001
0010
0001
,  // measure 10
0100
0000
0010
0000
1001
0000
0010
0100
0001
0100
0000
0000
0110
0000
0000
0000
,  // measure 11
1000
0000
1000
0000
0001
0010
0000
1000
0100
0010
0000
0000
0010
0001
0100
0010
,  // measure 12
1000
0000
0100
0000
0011
0000
0001
0100
1000
0100
0000
0000
1001
0000
0001
1000
,  // measure 13
0100
0000
0100
0000
0010
0001
0000
1000
0100
0010
0000
0000
0001
1000
0010
0100
,  // measure 14
1000
0000
0100
0000
0110
0000
0010
1000
0001
1000
0000
0000
0102
0000
0000
0000
,  // measure 15
1003
0000
0001
0000
0010
0000
0100
1000
0000
0001
0000
0000
0100
0010
1000
0100
,  // measure 16
0010
0000
0001
0000
0101
0000
0010
1000
0100
1000
0000
0000
1100
0000
1000
0010
,  // measure 17
0001
0000
0010
0000
0100
0001
0000
1000
0001
0100
0000
0000
0001
0010
1000
0010
,  // measure 18
0001
0000
1000
0000
0011
0000
1000
0100
0010
0001
0000
0000
0120
0000
0000
0000
,  // measure 19
1030
0000
0001
0000
0100
0000
0010
1000
0000
1000
0000
0000
0001
0100
0001
0010
,  // measure 20
0100
0000
1000
0000
1010
0000
1000
0010
0100
0001
0010
0000
1001
0000
0100
0000
,  // measure 21
1001
0000
0010
0000
0011
0000
1000
0010
0000
1000
0100
0001
0100
0000
1000
0001
,  // measure 22
0020
0000
0000
0000
0000
0000
0000
0000
0000
0000
0000
0000
0000
0000
0000
0000
0000
0000
0000
0000
0000
0000
0000
0000
0000
0000
0000
0000
0000
0000
0000
0000
0000
0000
0000
0000
0000
0000
0000
0000
0000
0000
0000
0000
0000
0000
0000
0030
0011
0000
0000
0000
0000
0000
0000
0000
0000
0000
0000
0000
0000
0000
0000
0000
0000
0000
0000
0000
0000
0000
0000
0000
0001
0000
0000
0000
0000
0000
0000
0000
0000
0000
0000
0000
1000
0000
0000
0000
0000
0000
0000
0000
0000
0000
0000
0000
0010
0000
0000
0000
0000
0000
0000
0000
0000
0000
0000
0000
0100
0000
0000
0000
0000
0000
0000
0000
0000
0000
0000
0000
0000
0000
0000
0000
0000
0000
0000
0000
0000
0000
0000
0000
0000
0000
0000
0000
0000
0000
0000
0000
0000
0000
0000
0000
0102
0000
0000
0000
0000
0000
0000
0000
0000
0000
0000
0000
0000
0000
0000
0000
0000
0000
0000
0000
0000
0000
0000
0000
0000
0000
0000
0000
0000
0000
0000
0000
0000
0000
0000
0000
0000
0000
0000
0000
0000
0000
0000
0000
0000
0000
0000
0000
,  // measure 23
1003
0000
0010
0000
0100
0001
0010
0100
0000
1000
0000
0000
0001
0010
0100
0010
,  // measure 24
0001
0000
1000
0000
0010
0000
1000
0100
1000
0001
0000
0001
0000
1000
0100
0010
,  // measure 25
0001
0000
0010
0100
1000
0000
0001
0100
0001
1000
0000
0000
1000
0100
0001
0100
,  // measure 26
0010
0000
0001
0000
1000
0010
0100
0010
0000
0001
0000
0000
1100
0000
1000
0100
,  // measure 27
0010
0000
0010
0000
0001
1000
0100
1000
0000
0001
0000
0000
1000
0100
0001
0100
,  // measure 28
1000
0000
0001
0010
0001
0000
1000
0100
0010
0100
0000
0001
0000
0001
1000
0100
,  // measure 29
1000
0000
0010
0000
0100
0010
0001
0010
0000
0100
0000
0000
0001
1000
0100
1000
,  // measure 30
0100
0000
0010
0001
0100
0000
0001
1000
0001
1000
0000
0000
0120
0000
0000
0000
,  // measure 31
1030
0000
1000
0000
0010
0100
0000
0001
0010
0001
0000
0000
0100
0001
1000
0010
,  // measure 32
0001
0010
1000
0001
0010
0000
0001
0100
0001
1000
0000
0000
2001
0000
0000
0000
,  // measure 33
3010
0000
0010
0000
1000
0001
0000
0100
0010
1000
0000
0000
0101
0000
0000
0000
,  // measure 34
1000
0000
0001
0000
0100
0010
0000
0100
0001
0000
0000
0000
0101
0000
0000
0000
,  // measure 35
0010
0000
1000
0000
0100
1000
0000
1000
0010
0000
0000
0000
1001
0000
0000
0000
,  // measure 36
0100
0000
1000
0000
1000
0100
0000
1000
0010
0000
0000
0000
0101
0000
0000
0000
,  // measure 37
1000
0000
0010
0000
0100
0001
0000
0001
1000
0000
1001
0000
0001
0000
0011
0000
,  // measure 38
0100
1000
2100
0000
3001
0000
0011
0000
,  // measure 39
0100
0000
0010
0000
0001
1000
0000
0010
1000
0000
0000
0000
0011
0000
0000
0000
,  // measure 40
1001
0000
0010
0000
0010
0100
0001
0000
0110
0000
1000
0000
1000
0100
0010
0000
,  // measure 41
0011
0000
0001
0000
1000
0100
0010
0100
0010
0001
1000
0001
1000
0000
0010
1000
,  // measure 42
0020
0000
0000
0000
0000
0000
0000
0000
0000
0000
0000
0000
0000
0000
0000
0000
0000
0000
0000
0000
0000
0000
0000
0000
0000
0000
0000
0000
0000
0000
0000
0000
0000
0000
0000
0000
0000
0000
0000
0000
0000
0000
0000
0000
0000
0000
0000
0030
1010
0000
0000
0000
0000
0000
0000
0000
0000
0000
0000
0000
0000
0000
0000
0000
0000
0000
0000
0000
0000
0000
0000
0000
0001
0000
0000
0000
0000
0000
0000
0000
0000
0000
0000
0000
1000
0000
0000
0000
0000
0000
0000
0000
0000
0000
0000
0000
0010
0000
0000
0000
0000
0000
0000
0000
0000
0000
0000
0000
0100
0000
0000
0000
0000
0000
0000
0000
0000
0000
0000
0000
0000
0000
0000
0000
0000
0000
0000
0000
0000
0000
0000
0000
0000
0000
0000
0000
0000
0000
0000
0000
0000
0000
0000
0000
0011
0000
0000
0000
0000
0000
0000
0000
0000
0000
0000
0000
0000
0000
0000
0000
0000
0000
0000
0000
0000
0000
0000
0000
0100
0000
0000
0000
0000
0000
0000
0000
0000
0000
0000
0000
1000
0000
0000
0000
0000
0000
0000
0000
0000
0000
0000
0000
,  // measure 43
0100
0000
0001
0000
1000
0100
0010
0100
0000
1000
0000
0000
0010
0100
0001
0010
,  // measure 44
0100
0000
1000
0000
0001
1000
0100
0010
0100
0010
0000
0001
0000
0100
0010
1000
,  // measure 45
0001
0000
0010
0100
1000
0000
0010
0100
0001
0010
0000
0000
1000
0001
1000
0001
,  // measure 46
0100
0000
0010
0000
0100
0001
1000
0100
1000
0100
0000
0000
1001
0000
0001
0010
,  // measure 47
0100
0000
0100
0000
1000
0010
0100
0010
0000
0001
0000
0000
0100
0010
1000
0100
,  // measure 48
0010
0000
0001
1000
0100
0000
1000
0001
0010
0001
0000
1000
0000
0100
0010
0100
,  // measure 49
1000
0000
0001
0000
0001
0100
0010
0001
1000
0100
0000
0000
0100
0001
1000
0001
,  // measure 50
0020
0000
0000
0000
0000
0000
0000
0000
0000
0000
0000
0000
0000
0000
0000
0000
0000
0000
0000
0000
0000
0000
0000
0000
0000
0000
0000
0000
0000
0000
0000
0000
0000
0000
0000
0000
0000
0000
0000
0000
0000
0000
0000
0000
0000
0000
0000
0030
0011
0000
0000
0000
0000
0000
0000
0000
0000
0000
0000
0000
0000
0000
0000
0000
0000
0000
0000
0000
0000
0000
0000
0000
1000
0000
0000
0000
0000
0000
0000
0000
0000
0000
0000
0000
0001
0000
0000
0000
0000
0000
0000
0000
0000
0000
0000
0000
0010
0000
0000
0000
0000
0000
0000
0000
0000
0000
0000
0000
0100
0000
0000
0000
0000
0000
0000
0000
0000
0000
0000
0000
1000
0000
0000
0000
0000
0000
0000
0000
0000
0000
0000
0000
0000
0000
0000
0000
0000
0000
0000
0000
0000
0000
0000
0000
0011
0000
0000
0000
0000
0000
0000
0000
0000
0000
0000
0000
0000
0000
0000
0000
0000
0000
0000
0000
0000
0000
0000
0000
0100
0000
0000
0000
0000
0000
0000
0000
0000
0000
0000
0000
0010
0000
0000
0000
0000
0000
0000
0000
0000
0000
0000
0000
,  // measure 51
0001
0000
0001
0000
0100
0010
0000
1000
0100
1000
0000
0000
0010
1000
0001
0010
,  // measure 52
0100
1000
0010
0100
0001
0000
1000
0010
1000
0010
0100
0000
1001
0000
0001
0100
,  // measure 53
0010
0000
1000
0000
0001
0010
0100
0010
0000
0001
1000
0000
0100
1000
0001
1000
,  // measure 54
0001
0010
1000
0010
0001
0000
0100
1000
0010
1000
0001
0000
0110
0000
1000
0100
,  // measure 55
0010
0000
0100
0000
1000
0100
0001
0100
1000
0001
0010
0000
0001
0100
0010
1000
,  // measure 56
0001
0010
0100
0010
0001
0000
1000
0010
0100
0010
1000
0000
0101
0000
0010
0100
,  // measure 57
1000
0000
0001
0000
0010
0100
1000
0001
0000
0100
0010
0000
1000
0001
0100
0001
,  // measure 58
2000
3000
0000
0000
;
