#TITLE:Last Night;
#SUBTITLE:;
#ARTIST:TREASURE;
#TITLETRANSLIT:;
#SUBTITLETRANSLIT:;
#ARTISTTRANSLIT:;
#GENRE:;
#CREDIT:Musey;
#BANNER:AV.avi;
#BACKGROUND:bg.png;
#LYRICSPATH:;
#CDTITLE:;
#MUSIC:audio.ogg;
#OFFSET:-0.249000;
#SAMPLESTART:59.311077;
#SAMPLELENGTH:14.999999;
#SELECTABLE:YES;
#BPMS:0.000000=130.000000
;
#STOPS:
;
#BGCHANGES:0.000=MV.avi=1.200=1=0=1===CrossFade==,
3.000=MV.avi=1.000=0=0=1=====,
99999=-nosongbg-=1.000=0=0=0 // don't automatically add -songbackground-
;
#KEYSOUNDS:;
#ATTACKS:;

//---------------dance-single - ----------------
#NOTES:
     dance-single:
     :
     Challenge:
     12:
     0.473439,0.594042,0.461864,0.291703,0.048617,409.000000,352.000000,57.000000,36.000000,0.000000,0.000000,0.473439,0.594042,0.461864,0.291703,0.048617,409.000000,352.000000,57.000000,36.000000,0.000000,0.000000:
// measure 0
0000
0000
0000
0000
,  // measure 1
0000
0000
0000
0000
,  // measure 2
0000
0000
0000
0000
,  // measure 3
0000
0000
0000
0000
,  // measure 4
0000
0000
0000
0000
,  // measure 5
0000
0000
0000
0000
,  // measure 6
0000
0000
0000
0000
,  // measure 7
0000
0000
0000
0000
,  // measure 8
0001
0000
0001
1000
0100
1000
0010
0100
,  // measure 9
0000
0100
0001
1000
0000
1000
0010
0100
,  // measure 10
0001
0000
0001
0000
0001
0100
0010
2000
,  // measure 11
0000
3100
0010
1000
0010
0100
1000
0001
,  // measure 12
0100
0000
0100
0001
1000
0010
1000
0002
,  // measure 13
0000
0103
0001
2000
0000
3010
0100
0001
,  // measure 14
0020
0000
0031
0000
0001
0010
0100
1000
,  // measure 15
0000
1000
0010
0100
0000
0100
0001
1000
,  // measure 16
1001
0000
0010
1000
0100
0001
0100
0020
,  // measure 17
0000
0031
1000
0200
0000
1300
0001
0010
,  // measure 18
0100
1000
0001
0000
0010
0100
0010
0002
,  // measure 19
0000
0103
1000
0100
0001
1000
0001
0010
,  // measure 20
0100
0000
0100
0010
0001
0100
0010
2000
,  // measure 21
0000
3001
0100
0002
0000
1003
0100
0020
,  // measure 22
0000
0130
0010
0002
0000
0013
0100
2000
,  // measure 23
0000
0000
3001
0000
0100
0000
0010
0000
0100
0000
0001
0000
0010
0100
0010
0100
,  // measure 24
2000
0000
0000
0000
0000
0000
3001
0000
0000
0000
0100
0000
0001
0000
1000
0001
,  // measure 25
1000
0000
0001
0010
0000
0010
0100
1000
,  // measure 26
0002
0100
0203
0010
,  // measure 27
0302
1000
0203
0010
,  // measure 28
0302
0000
0000
0000
0000
0000
0103
0000
0000
0000
0010
0000
1000
0000
0100
1000
,  // measure 29
0100
1000
0001
0100
0000
0100
0001
1000
,  // measure 30
0010
0200
0000
1300
0100
0002
0000
1003
,  // measure 31
0020
0000
0100
0000
0130
0010
1001
0000
,  // measure 32
0110
0000
1001
0000
1200
0000
1300
0002
,  // measure 33
0000
0013
1000
0010
0100
1000
0002
0000
,  // measure 34
0013
0000
0011
0000
2100
0000
3001
0020
,  // measure 35
0000
0130
1000
0010
0100
0010
0001
0000
,  // measure 36
0110
0010
1010
1000
1001
0001
0011
0000
,  // measure 37
1001
0001
0010
0002
0000
1003
0100
2000
,  // measure 38
0001
0000
3010
0100
0002
0000
0013
0000
,  // measure 39
1100
0101
1010
0101
,  // measure 40
1000
0010
1000
0100
0010
0000
0011
0000
,  // measure 41
0001
0000
0100
0000
0001
0000
0010
0000
0100
0000
0000
0000
1000
0000
0001
1000
,  // measure 42
0001
0010
0100
0010
0100
0000
1001
0000
,  // measure 43
0001
0000
0100
0000
1000
0000
0100
0000
0001
0000
0010
0000
0001
0000
1000
0100
,  // measure 44
1000
0001
0101
0100
0010
0000
1001
1000
,  // measure 45
0010
0000
0100
0000
0110
0000
0010
0000
1000
0000
0000
0000
1001
0000
0001
1000
,  // measure 46
0001
0100
0110
0010
1000
0000
1100
0000
,  // measure 47
1000
0100
1000
0001
0100
0100
0101
0000
,  // measure 48
1010
0000
1001
0000
0110
0000
0001
0011
,  // measure 49
0000
0000
1000
0000
0100
0000
1000
0000
0001
0000
0100
0000
0010
0000
0100
0010
,  // measure 50
1000
0000
1001
0000
1100
0000
0001
0011
,  // measure 51
0000
0000
0010
0000
0100
0000
1000
0000
0001
0000
0100
0000
0010
0000
1000
0010
,  // measure 52
0100
0000
1001
0000
0110
0000
1000
1100
,  // measure 53
0000
0000
1000
0000
0100
0000
0001
0000
0100
0000
0010
0000
0001
0000
1000
0001
,  // measure 54
0100
0000
1100
0000
1001
0000
0001
1000
,  // measure 55
1001
0000
0001
0000
0101
0000
0010
0000
0110
0000
0110
0000
0001
1000
0001
1000
,  // measure 56
0001
0000
1100
0000
1002
0000
0103
0201
,  // measure 57
0000
0301
0010
0100
1000
0010
0100
0010
,  // measure 58
1010
0000
1100
0000
0120
0000
0130
0210
,  // measure 59
0000
0310
1000
0010
0100
0001
0010
0000
,  // measure 60
0101
0001
1100
1000
0101
0001
1100
0000
,  // measure 61
1001
0001
1000
0020
0000
0130
0001
0200
,  // measure 62
0010
0000
0310
1000
0002
0000
1003
0000
,  // measure 63
1001
0110
0101
1001
;

//---------------dance-single - ----------------
#NOTES:
     dance-single:
     :
     Hard:
     9:
     0.391253,0.439935,0.121543,0.623921,0.000000,338.000000,323.000000,15.000000,77.000000,0.000000,0.000000,0.391253,0.439935,0.121543,0.623921,0.000000,338.000000,323.000000,15.000000,77.000000,0.000000,0.000000:
0000
0000
0000
0000
,
0000
0000
0000
0000
,
0000
0000
0000
0000
,
0000
0000
0000
0000
,
0000
0000
0000
0000
,
0000
0000
0000
0000
,
0000
0000
0000
0000
,
0000
0000
0000
0000
,
1000
0000
1000
0001
0200
0000
0310
2000
,
0000
3001
1000
0002
0000
0013
0100
2000
,
0010
0000
3010
0000
0100
0001
0100
0020
,
0000
1030
0100
1000
0001
0100
0001
1000
,
0020
0000
1030
0100
0010
0001
1000
0020
,
0000
0130
0001
0200
0000
0301
1000
0020
,
1000
0000
1030
0000
0100
1000
0100
2000
,
0000
3001
0100
0020
0000
0000
0130
0010
,
1000
0000
1000
0001
1000
0100
1000
0002
,
0000
0103
0010
0200
0000
0301
1000
0002
,
0000
0023
0000
0030
0100
0010
0001
2000
,
0000
3010
1000
0100
1000
0010
0100
0002
,
0010
0000
0013
0001
0010
0100
1000
0020
,
0000
1030
0100
2000
0000
3001
0100
0020
,
0000
1030
0100
0020
0000
0031
1000
0020
,
0000
1030
0100
1000
0001
0100
0010
1000
,
0200
0000
0000
1300
0000
0001
1000
0001
,
0020
0000
0000
0031
0000
0001
0100
0010
,
2000
0000
3020
0000
,
0230
0000
0302
0000
,
2003
0000
0000
3001
0000
0100
0001
0100
,
0020
0000
0000
1030
0000
0100
1000
0100
,
0020
0031
0002
0103
,
0200
0000
0310
0110
,
1001
0000
2000
0000
3200
0000
1300
0002
,
0000
0103
0010
0100
0001
1000
0200
0000
,
0310
0000
0002
0000
2003
0000
3010
0200
,
0000
0310
1000
0010
0100
0001
0020
0000
,
0031
0001
0100
0100
0010
0010
2000
0000
,
3100
1000
0001
0200
0000
0310
1000
0002
,
0010
0000
0013
0001
0200
0000
0310
0000
,
1000
0100
1000
0001
0100
0001
0010
0001
,
1000
0010
0100
0010
2000
0000
3020
0000
,
0130
0001
0100
0001
0020
0000
0032
0000
,
1003
0100
1000
0100
0020
0000
0032
0000
,
0103
0010
0100
0001
1000
0100
1000
0001
,
0100
0010
1000
0001
0020
0000
0031
0000
,
0100
0001
1000
0010
0200
0000
0310
0000
,
1000
0010
1000
0001
0200
0000
0301
0000
,
0011
1100
1001
0110
,
1001
0000
1000
0000
1002
0000
0103
0002
,
0000
0013
0100
0010
0001
1000
0020
0000
,
1030
0000
1001
0000
0120
0000
1030
0002
,
0000
0013
0100
1000
0001
0100
0020
0000
,
0130
0000
0011
0000
2100
0000
3001
0200
,
0000
0310
1000
0100
0010
0001
2000
0000
,
3010
0000
0101
0000
2100
0000
3001
0100
,
0010
0100
0001
1000
0010
0100
0001
0001
,
0012
0000
0023
0000
0230
0000
1300
0002
,
0000
1003
0100
1000
0010
0100
0020
0000
,
1030
0000
0002
0000
0203
0000
0301
0020
,
0000
0031
0010
0001
0100
0010
2000
0000
,
3001
0001
1000
1000
0010
0010
0200
0000
,
0301
1000
0010
2000
0000
3100
0010
0002
,
0100
0000
0103
0020
1000
0000
1030
0000
,
0100
0010
0001
1000
0010
1000
0001
0100
;

//---------------dance-single - ----------------
#NOTES:
     dance-single:
     :
     Medium:
     6:
     0.292861,0.361591,0.040514,0.413247,0.000000,253.000000,248.000000,5.000000,51.000000,0.000000,0.000000,0.292861,0.361591,0.040514,0.413247,0.000000,253.000000,248.000000,5.000000,51.000000,0.000000,0.000000:
0000
0000
0000
0000
,
0000
0000
0000
0000
,
0000
0000
0000
0000
,
0000
0000
0000
0000
,
0000
0000
0000
0000
,
0000
0000
0000
0000
,
0000
0000
0000
0000
,
0000
0000
0000
0000
,
1000
0000
1000
0000
0001
0100
0001
0000
,
1000
0000
1000
0000
0010
0100
0001
0000
,
0020
0000
0031
0000
1000
0100
1000
0000
,
0010
0000
0100
0000
0001
1000
0010
0000
,
2000
0000
3100
0000
1000
0001
0100
0000
,
0001
0000
0010
0000
0001
1000
0010
0000
,
2000
3100
0002
0103
,
2000
3010
0100
1001
,
0011
0000
0001
0100
0020
0000
1030
0000
,
0100
1000
0001
0000
0100
0001
0010
0000
,
0002
1003
2000
3001
,
0100
0010
0100
0000
0001
1000
0100
0000
,
0010
0000
0010
0000
0001
1000
0010
0000
,
1000
0000
0001
0000
0100
0010
1000
0000
,
0001
0001
1000
1000
,
0010
1000
0010
1000
0002
0000
0103
0000
,
0002
0000
0000
0000
,
0023
0000
0000
0000
,
0032
0000
0203
0000
,
0302
0000
2003
0000
,
3020
0000
0000
0000
,
2030
0000
0000
0000
,
3002
0000
0203
0000
,
0320
0000
0000
1030
,
1001
0000
0002
0000
0203
0000
0000
0320
,
0000
1030
0100
1000
0002
0000
0103
0000
,
0010
0000
1000
0000
0002
0000
0000
0023
,
0000
0130
0010
0000
0002
0000
1003
0000
,
0010
1000
0010
1000
0010
1000
0020
0000
,
0130
0000
0001
0000
1000
0100
1000
0000
,
0002
0013
0020
0031
,
0100
0010
0100
0010
2000
0000
3001
0000
,
0100
0001
0100
0000
0020
0000
0130
0000
,
0001
1000
0100
0000
2000
0000
3001
0000
,
1000
0001
0100
0000
0020
0000
1030
0000
,
0001
0001
1000
1000
,
0001
1000
0100
0000
0020
0000
0031
0000
,
0100
0010
1000
0000
0002
0000
0103
0000
,
0001
1000
0100
0000
0020
0000
0031
0000
,
1000
1000
0001
0001
,
1000
1000
0010
0010
,
0100
0010
0100
0010
2000
0000
3001
0000
,
0100
0100
0001
0001
,
1000
0001
1000
0001
0200
0000
0301
0000
,
0010
0010
0001
0001
,
1000
0100
1000
0001
0200
0000
0310
0000
,
1000
1000
0001
0100
,
0001
0001
1001
1001
,
2000
0000
3020
0000
0230
0000
0301
2000
,
0000
3001
1000
0010
0200
0000
0310
0000
,
1000
0000
0001
0000
0020
0000
0031
0200
,
0000
0310
0100
0010
2000
0000
3001
0000
,
1000
0001
1000
0001
1000
0001
0200
0000
,
0310
1000
0100
0000
0010
0000
0001
0000
,
2000
3010
0020
0130
,
0001
0100
0001
0100
0010
0000
0010
0000
;

//---------------dance-single - ----------------
#NOTES:
     dance-single:
     :
     Easy:
     3:
     0.175948,0.232451,0.000000,0.259292,0.000000,152.000000,152.000000,0.000000,32.000000,0.000000,0.000000,0.175948,0.232451,0.000000,0.259292,0.000000,152.000000,152.000000,0.000000,32.000000,0.000000,0.000000:
0000
0000
0000
0000
,
0000
0000
0000
0000
,
0000
0000
0000
0000
,
0000
0000
0000
0000
,
0000
0000
0000
0000
,
0000
0000
0000
0000
,
0000
0000
0000
0000
,
0000
0000
0000
0000
,
1000
0001
1000
1000
,
0001
0100
0001
0001
,
1000
0000
0001
0000
,
0010
0001
0010
0100
,
1000
1000
0010
0010
,
0100
0100
0001
0001
,
1000
0000
0001
0000
,
1000
0010
0200
0000
,
0310
0010
2000
0000
,
3001
0100
0002
0000
,
0023
0000
0032
0000
,
1003
0001
1000
1000
,
0010
1000
0001
0001
,
0200
0000
0320
0000
,
1030
1000
0001
0001
,
0200
0000
0301
0000
,
2000
0000
3001
0000
,
0002
0000
1003
0000
,
2000
0000
3010
0000
,
0020
0000
0130
0000
,
0200
0000
0310
0000
,
0020
0000
1030
0000
,
0002
0000
1003
0000
,
2000
0000
0000
0000
,
3001
0000
0001
0000
,
0100
0001
1000
1000
,
0010
0000
0010
0000
,
0100
0001
0100
0100
,
0010
0010
0010
0010
,
2000
0000
3001
0000
,
0100
0001
0100
0000
,
0010
0010
1000
0000
,
0002
0000
1003
0000
,
2000
0000
3001
0000
,
0002
0000
1003
0000
,
0010
1000
0100
0000
,
0200
0000
0310
0000
,
0020
0000
0130
0000
,
0200
0000
0310
0000
,
0001
1000
0001
0000
,
2000
0000
3010
0000
,
0100
0100
0010
0000
,
0002
0000
1003
0000
,
1000
1000
0010
0000
,
2000
0000
3100
0000
,
0010
0010
0100
0000
,
2000
0000
3001
0000
,
0001
1000
0001
1000
,
0020
0000
0130
0000
,
0001
0100
0001
0001
,
2000
0000
3010
0000
,
1000
0100
2000
0000
,
3001
0001
0001
0001
,
0200
0000
0310
0000
,
2000
0000
3010
0000
,
0100
0001
0100
0001
;

//---------------dance-single - ----------------
#NOTES:
     dance-single:
     :
     Beginner:
     1:
     0.070611,0.102907,0.000000,0.040514,0.000000,61.000000,61.000000,0.000000,5.000000,0.000000,0.000000,0.070611,0.102907,0.000000,0.040514,0.000000,61.000000,61.000000,0.000000,5.000000,0.000000,0.000000:
0000
0000
0000
0000
,
0000
0000
0000
0000
,
0000
0000
0000
0000
,
0000
0000
0000
0000
,
0000
0000
0000
0000
,
0000
0000
0000
0000
,
0000
0000
0000
0000
,
0000
0000
0000
0000
,
1000
0000
0000
0000
,
1000
0000
0000
0000
,
0001
0000
0000
0000
,
0001
0000
0000
0000
,
0010
0000
0000
0000
,
0010
0000
0000
0000
,
0100
0000
0000
0000
,
0010
0000
0000
0000
,
1000
0000
1000
0000
,
1000
0000
0000
0000
,
0001
0000
0001
0000
,
0001
0000
0000
0000
,
0010
0000
0010
0000
,
0010
0000
0000
0000
,
0100
0000
0100
0000
,
0100
0000
0000
0000
,
0010
0000
0000
0000
,
0010
0000
0000
0000
,
1000
0000
0000
0000
,
1000
0000
0000
0000
,
0001
0000
0000
0000
,
0001
0000
0000
0000
,
1000
0000
0000
0000
,
0020
0000
0000
0000
,
1030
0000
0000
0000
,
1000
0000
0000
0000
,
0001
0000
0000
0000
,
0001
0000
0000
0000
,
0010
0000
0000
0000
,
0010
0000
0000
0000
,
0100
0000
0000
0000
,
0100
0000
0000
0000
,
0001
0000
0000
0000
,
0001
0000
0000
0000
,
1000
0000
0000
0000
,
1000
0000
0000
0000
,
0010
0000
0000
0000
,
0010
0000
0000
0000
,
0010
0000
0000
0000
,
0100
0000
0000
0000
,
2000
0000
0000
0000
,
3001
0000
0000
0000
,
0020
0000
0000
0000
,
1030
0000
0000
0000
,
0002
0000
0000
0000
,
1003
0000
0000
0000
,
2000
0000
0000
0000
,
3001
0000
0000
0000
,
0001
0000
0000
0000
,
1000
0000
0000
0000
,
0010
0000
0000
0000
,
1000
0000
0000
0000
,
0001
0000
0000
0000
,
1000
0000
0000
0000
,
0010
0000
0000
0000
,
1000
0000
1000
0000
;
