#VERSION:0.83;
#TITLE:Kafig;
#SUBTITLE:;
#ARTIST:Chicala lpis;
#TITLETRANSLIT:;
#SUBTITLETRANSLIT:;
#ARTISTTRANSLIT:;
#GENRE:;
#ORIGIN:;
#CREDIT:;
#BANNER:AV.avi;
#BACKGROUND:bg.png;
#PREVIEWVID:;
#JACKET:jacket.png;
#CDIMAGE:;
#DISCIMAGE:;
#LYRICSPATH:;
#CDTITLE:;
#MUSIC:audio.ogg;
#OFFSET:0.000000;
#SAMPLESTART:55.179993;
#SAMPLELENGTH:14.999998;
#SELECTABLE:YES;
#BPMS:0.000=96.000,
80.000=90.000,
80.500=84.000,
81.000=81.000,
81.500=72.000,
82.000=69.000,
82.500=66.000,
83.000=127.000,
202.000=133.000,
203.000=141.000;
#STOPS:;
#DELAYS:;
#WARPS:;
#TIMESIGNATURES:0.000=4=4;
#TICKCOUNTS:0.000=4;
#COMBOS:0.000=1;
#SPEEDS:0.000=1.000=0.000=0;
#SCROLLS:0.000=1.000;
#FAKES:;
#LABELS:0.000=Song Start;
#BGCHANGES:0.000=MV.avi=1.000=1=0=1===CrossFade==,
99999=-nosongbg-=1.000=0=0=0 // don't automatically add -songbackground-
;
#KEYSOUNDS:;
#ATTACKS:
;

//---------------dance-single - ----------------
#NOTEDATA:;
#CHARTNAME:;
#STEPSTYPE:dance-single;
#DESCRIPTION:;
#CHARTSTYLE:;
#DIFFICULTY:Challenge;
#METER:16;
#RADARVALUES:0.717823,0.710695,0.792957,0.072823,0.683723,621.000000,523.000000,98.000000,9.000000,0.000000,0.000000,0.000000,0.000000,0.000000,0.717823,0.710695,0.792957,0.072823,0.683723,621.000000,523.000000,98.000000,9.000000,0.000000,0.000000,0.000000,0.000000,0.000000;
#CREDIT:Musey;
#OFFSET:0.000000;
#BPMS:0.000000=96.000000
,80.000000=90.000000
,80.500000=84.000000
,81.000000=81.000000
,81.500000=72.000000
,82.000000=69.000000
,82.500000=66.000000
,83.000000=126.999992
,202.000000=133.000000
,203.000000=141.000000
;
#STOPS:;
#DELAYS:;
#WARPS:;
#TIMESIGNATURES:0.000000=4=4
;
#TICKCOUNTS:0.000000=4
;
#COMBOS:0.000000=1
;
#SPEEDS:0.000000=1.000000=0.000000=0
;
#SCROLLS:0.000000=1.000000
,131.000000=1.700000
,131.333328=0.600000
,131.750000=1.700000
,132.166672=0.600000
,132.500000=1.700000
,132.750000=0.600000
,133.000000=1.700000
,133.250000=0.600000
,133.500000=1.700000
,133.750000=0.600000
,134.000000=1.700000
,134.250000=0.600000
,134.500000=1.700000
,134.750000=0.600000
,135.000000=1.700000
,135.250000=0.600000
,135.500000=1.000000
,136.500000=1.700000
,136.750000=0.600000
,137.000000=1.700000
,137.250000=0.600000
,137.500000=1.000000
,138.500000=1.700000
,138.750000=0.600000
,139.000000=1.700000
,139.250000=0.600000
,139.500000=1.000000
,140.500000=1.700000
,140.750000=0.600000
,141.000000=1.700000
,141.250000=0.600000
,141.500000=1.700000
,141.750000=0.600000
,142.000000=1.700000
,142.250000=0.600000
,142.500000=1.700000
,142.750000=0.600000
,143.000000=1.700000
,143.250000=0.600000
,143.500000=1.000000
,144.500000=1.700000
,144.750000=0.600000
,145.000000=1.700000
,145.250000=0.600000
,145.500000=1.000000
,146.500000=1.700000
,146.750000=0.600000
,147.000000=1.700000
,147.250000=0.600000
,147.500000=1.000000
,148.000000=1.700000
,148.250000=0.600000
,148.500000=1.000000
,149.000000=1.700000
,149.250000=0.600000
,149.500000=1.000000
,177.250000=1.700000
,177.500000=0.600000
,177.750000=1.700000
,178.000000=0.600000
,178.250000=1.000000
,203.000000=1.600000
,203.333328=0.600000
,203.750000=1.600000
,204.000000=0.600000
,204.500000=1.000000
,205.000000=1.600000
,205.333328=0.600000
,205.750000=1.600000
,206.166672=0.600000
,206.500000=1.000000
,207.000000=1.600000
,207.333328=0.600000
,207.750000=1.600000
,208.166672=0.600000
,208.500000=1.000000
,209.000000=1.600000
,209.250000=0.600000
,209.500000=1.600000
,209.750000=0.600000
,210.000000=1.600000
,210.250000=0.600000
,210.500000=1.600000
,210.750000=0.600000
,211.000000=1.600000
,211.333328=0.600000
,211.750000=1.600000
,212.166672=0.600000
,212.500000=1.000000
,213.000000=1.600000
,213.333328=0.600000
,213.750000=1.600000
,214.166672=0.600000
,214.500000=1.000000
,215.000000=1.600000
,215.333328=0.600000
,215.750000=1.600000
,216.166672=0.600000
,216.500000=1.000000
,217.000000=1.600000
,217.250000=0.600000
,217.500000=1.600000
,217.750000=0.600000
,218.000000=1.600000
,218.250000=0.600000
,218.500000=1.600000
,218.750000=0.600000
,219.000000=1.000000
,223.000000=1.600000
,223.166672=0.600000
,223.333328=1.600000
,223.666672=0.600000
,224.000000=1.600000
,224.333328=0.600000
,224.666672=1.600000
,225.000000=0.600000
,225.333328=1.600000
,225.666672=0.600000
,226.000000=1.600000
,226.333328=0.600000
,226.666672=1.000000
;
#FAKES:;
#LABELS:0.000000=Song Start
;
#NOTES:
0000
0000
0000
0000
,
0000
0000
0000
0000
,
0000
0000
0000
0000
,
0000
0000
0000
0000
2001
0010
3001
0102
,
0010
0103
2100
0010
3001
0101
1100
1001
,
0110
0001
1000
0010
0200
0000
0301
0100
,
0010
1001
0100
1000
0110
0100
0001
1100
,
0001
0010
0100
1000
0001
0000
0010
0000
0100
0000
0011
0000
0100
1000
0100
0010
,
0001
0000
1000
0000
0010
1000
0001
0000
0002
0000
0000
0000
1003
0000
0100
0000
,
1000
0000
0010
0000
0100
0000
0100
0000
0001
0000
0100
0000
0010
0000
1000
0100
,
0010
0001
0010
0100
1000
0000
0001
0000
0001
0000
0100
0000
0010
0000
1000
0000
,
0001
0000
0000
0000
0100
0000
0000
0000
0001
0000
0000
0000
0010
0000
0001
0000
0100
0000
0001
1000
0001
0000
0010
0000
0200
0000
0000
0000
1300
0000
0000
0000
,
0001
0000
0100
0010
1000
0000
0100
0000
0010
0000
0100
0000
0001
0000
0100
0010
,
0001
1000
0100
1000
0001
0000
0100
0000
0001
0100
1000
0000
0100
0000
1000
0100
,
0001
0000
0100
0000
0001
0000
1000
0100
0010
0100
1000
0001
1000
0000
0100
0000
,
0010
0000
0001
0000
0100
0000
0010
0000
0100
0000
0001
1000
1000
0010
0010
0100
,
0100
0001
0001
0100
0010
0000
1000
0000
0001
0000
0100
0001
1000
0000
0001
0100
,
0010
0000
1000
0000
0001
1000
0100
0000
1000
0000
0001
0100
0001
0000
1001
0000
,
0010
0010
0101
1000
1000
0101
0100
0101
,
1010
0000
0000
0000
0011
0000
0000
0000
1100
0000
1000
0000
0000
0000
0000
0000
0001
0000
0000
0000
0100
0000
0000
0000
0001
0000
0000
0000
1000
0001
1000
0001
,
0020
0000
0000
0130
0010
0000
0110
0000
1100
0000
1001
0000
0000
0000
0000
0000
,
0000
0000
0000
0002
,
0003
0000
0000
0000
0000
0000
0000
0000
1000
0010
0100
0001
0100
0000
0100
0001
,
0000
0001
1000
0000
0001
0010
0100
1000
0001
0100
0010
1000
0100
0000
0100
1000
,
0000
1000
0010
0100
1000
0100
0010
1000
0001
0010
1000
0010
0001
0000
0001
0100
,
0000
0100
0001
0010
0100
0010
0001
0100
0010
0100
1000
0100
0001
0000
0100
0001
,
0000
0100
0001
0001
0001
0100
1000
0100
0001
1000
0100
0010
0001
0000
0001
1000
,
0000
1000
0001
0000
0001
1000
0100
1000
0010
0001
0010
1000
0100
0000
0010
0001
,
0000
0000
0000
0000
0001
0000
0000
0000
0100
0000
0000
0000
0001
0000
0000
0000
1000
0000
0000
0000
0000
0000
0000
0000
1000
0001
0000
0000
0000
0000
0000
0000
0100
0000
0000
0000
0000
0000
0000
0000
1000
0000
0000
0000
0100
0000
0000
0000
0001
0000
0000
0000
0000
0000
0000
0000
0001
0000
0000
0000
0100
0000
0000
0000
,
0000
1000
0100
1000
0001
0010
0100
1000
0001
0100
0010
0100
1000
0000
1000
0100
,
0000
0001
0010
0100
1000
0010
0100
0001
0100
0010
1000
0100
0001
0000
0001
0100
,
0000
1000
0100
0010
0100
1000
0010
0100
0001
0010
0100
1000
0001
0000
0000
0110
,
0000
0000
0100
0000
1100
0000
0101
0000
1100
0000
0010
0100
0010
0000
0000
1001
,
0000
0000
1100
0000
1100
0000
1001
0000
1010
0000
1100
0000
1001
0000
1000
0001
,
1000
0000
0101
0000
0101
0000
0001
0010
0100
0000
0011
0000
0011
0000
1000
0100
,
1000
0000
0101
0000
0101
0000
0011
0000
0011
0000
0110
0000
0011
0000
0010
0001
,
0010
0000
1100
0000
1100
0000
0010
0100
0001
0000
1100
0000
1100
0000
0001
0000
,
0101
0000
0100
0000
1001
0000
0010
1000
0100
0010
0001
0100
0010
0000
0100
0001
,
0100
0000
1001
0000
0110
0000
0100
0010
0001
0000
1100
0000
1001
0000
0010
1000
,
0001
0010
0100
1000
0001
0000
0001
0100
0000
0100
0010
0000
1001
0000
0001
1000
,
0000
1000
0100
0000
1000
0100
0001
0100
1000
0010
0100
0001
0010
0000
0001
1000
,
1001
0000
1010
0000
1100
0000
1000
0001
0011
0000
0101
0000
1001
0000
0100
0010
,
1000
0000
0001
0100
0010
0000
0100
0000
0001
0010
0100
1000
0001
0000
0001
1000
,
0000
1000
0100
0000
1000
0100
0010
0001
0000
0001
0100
0000
0001
1000
0100
1000
,
0001
0010
0100
1000
0001
1000
0000
1010
0000
1100
0001
0010
0100
0000
0010
0001
,
0100
0000
0101
0000
1100
0000
0001
1000
0010
0000
1100
0000
0101
0000
1000
0010
,
0001
0010
1000
0010
0100
0000
0100
0001
0000
0001
0010
0000
0011
0000
0100
1000
,
0000
1000
0100
0000
1000
0100
0001
0100
1000
0001
0100
0001
0010
0000
0100
1000
,
0000
1000
0100
0000
0100
0010
0100
1000
0001
0100
0010
0100
1000
0000
0000
1100
,
0000
0110
1001
0000
0000
0000
0000
0000
,
0000
0000
0000
0000
0000
0000
0000
0000
1001
0000
0000
0000
1001
0000
0000
1100
,
0000
0000
0001
0000
0101
0000
0000
0110
0000
0000
1000
0000
1100
0000
0000
0110
,
0000
0000
0001
0000
0101
0000
1010
0000
0101
0000
1001
0000
1100
0000
0000
1100
,
0000
0000
0001
0000
0101
0000
0000
0101
0000
0000
1000
0000
0110
0000
0000
0110
,
0000
0001
1010
0011
0110
0101
2001
0000
,
0100
0000
0000
0010
0000
0000
3001
0000
0000
0011
0011
0000
,
1100
0000
1100
0000
0110
0000
0110
0000
1001
0000
0000
0000
;

//---------------dance-single - ----------------
#NOTEDATA:;
#CHARTNAME:;
#STEPSTYPE:dance-single;
#DESCRIPTION:;
#CHARTSTYLE:;
#DIFFICULTY:Hard;
#METER:12;
#RADARVALUES:0.567554,0.618992,0.291290,0.129462,0.384342,491.000000,455.000000,36.000000,16.000000,0.000000,0.000000,0.000000,0.000000,0.000000,0.567554,0.618992,0.291290,0.129462,0.384342,491.000000,455.000000,36.000000,16.000000,0.000000,0.000000,0.000000,0.000000,0.000000;
#CREDIT:Musey;
#NOTES:
0000
0000
0000
0000
,
0000
0000
0000
0000
,
0000
0000
0000
0000
,
0000
0000
0000
0000
2100
0000
3100
1002
,
0000
0103
2100
0000
3100
0001
0001
0010
,
0010
0100
1000
0001
0000
0000
0100
0001
,
0100
0001
1000
0100
1000
0001
0100
0010
,
1000
0001
1000
0001
0100
0000
0001
0000
0001
0000
0010
0000
0100
0000
0100
0000
,
1000
0001
0100
0001
0200
0000
0301
0010
,
0001
0000
1000
0000
0100
0000
0100
0000
1000
0000
0001
0000
1000
0000
0100
1000
,
0100
1000
0001
0100
0010
0000
0100
0000
0001
0000
0010
0000
0001
0000
1000
0000
,
0100
0000
1000
0000
0001
0100
0001
0000
0010
0000
0100
0000
2000
0000
0100
0000
,
3001
0000
0200
0000
0010
0000
0301
0000
0020
0000
0100
0000
0031
0000
1000
0100
,
1000
0001
0100
0010
1000
0000
0001
0000
0010
0000
0100
0000
1000
0000
0001
0000
,
0100
0000
0010
0100
0010
0000
1000
0000
0100
0000
1000
0000
0001
0000
0010
0000
,
0100
1000
0100
1000
0001
0100
0010
0100
,
0001
0000
1000
0100
2000
0000
0010
0000
3001
0000
0100
0000
0001
0000
0010
0001
,
0100
0000
0010
0000
1000
0000
0100
0000
1000
0000
0001
0100
0001
0000
0101
0000
,
1000
1000
1100
0001
0001
1001
0100
1000
,
0001
0100
0020
0000
0100
1030
0000
0001
,
2001
0000
0000
3100
0000
0000
0001
0000
1000
0000
1000
0000
0000
0000
0000
0000
,
0000
0000
0000
2000
,
0000
0000
3000
0000
0000
0000
0000
0000
0001
0100
0001
0000
1000
0000
0100
0000
,
0010
0000
0100
0000
1000
0100
1000
0001
0100
0001
0010
0001
0100
0000
0010
0000
,
1000
0000
0100
0000
1000
0100
1000
0010
0100
0001
0010
0100
1000
0000
0001
0000
,
1000
0000
1000
0000
0001
0010
0001
1000
0010
1000
0100
0010
0001
0000
1000
0000
,
0010
0000
0100
0000
0001
0010
0001
1000
0010
1000
0100
0010
0100
0000
1000
0000
,
0001
0000
0100
0000
0010
0100
0001
0100
0010
1000
0100
0010
0001
0000
1000
0000
,
0100
0000
1000
0001
0100
0000
0101
0000
0001
0000
0010
0100
0010
0000
0001
0000
,
1000
0000
0010
1000
0200
0000
0000
0000
1300
0000
0001
0100
0010
0000
0100
0000
,
0001
0000
1000
0100
2000
0000
0000
0000
3100
0000
1000
0001
0100
0000
0010
0000
,
0100
0000
0001
0010
0002
0000
0000
0000
0103
0000
0001
0010
0002
0000
0000
0000
,
1000
0000
0000
0000
0100
0000
0000
0000
1003
0000
0010
0100
0010
0000
0000
1001
,
0000
0000
0001
0000
1001
0000
1000
0000
1100
0000
0100
0000
0110
0000
0010
0001
,
0010
0000
0001
0000
1001
0000
0100
1000
0100
0000
1000
0000
1001
0000
0010
0100
,
0010
0000
0001
0000
0101
0000
0100
0000
0010
0000
1000
0000
1100
0000
0001
1000
,
0001
0000
0100
0000
0101
0000
0001
1000
0001
0000
1000
0000
1100
0000
0100
0000
,
0110
0000
0010
0000
1001
0000
0001
0010
0100
0000
0010
0000
0001
0000
1000
0100
,
1000
0000
0001
0000
0101
0000
0001
0010
0100
0000
1000
0000
1100
0000
0001
0000
,
1000
0000
0010
0100
0001
0000
0100
0000
0001
0000
1000
0000
0100
0000
0010
0000
,
0001
0000
0100
0000
0001
0100
0001
1000
0010
1000
0001
0100
0001
0000
0100
0010
,
1000
0000
0100
0000
1100
0000
0001
0100
0001
0000
0100
0000
0101
0000
0001
1000
,
0001
0000
1000
0100
1000
0000
0001
0000
0100
0000
0010
0100
0001
0000
1000
0000
,
0001
0000
0100
0010
1000
0000
0100
0000
0010
0000
0001
1000
0001
0000
0100
0000
,
0010
0000
1000
0000
0100
1000
0000
1000
0000
1000
0001
0000
0001
0010
0100
0010
,
0001
0000
0010
0000
0001
0010
0100
1000
0010
0000
1000
0000
0100
1000
0010
0100
,
1000
0100
0010
1000
0001
0000
0100
0000
0001
0000
1000
0000
0100
0000
1000
0000
,
0001
0000
0100
0000
0001
0010
0001
0010
0100
1000
0001
0100
0010
0000
0010
0000
,
0100
0000
0001
0000
1000
0100
1000
0100
0010
0001
0010
0100
1000
0000
0000
1000
,
0000
0001
1001
0000
0000
0000
0000
0000
,
0000
0000
0000
0000
0000
0000
0000
0000
1001
0000
0000
0000
1001
0000
0000
0001
,
0000
0000
0100
0000
0001
0000
0000
0101
0000
0000
1000
0000
0010
0000
0000
1100
,
0000
0000
1000
0000
0001
0000
0100
0000
0010
0000
0100
0000
0001
0000
0000
0011
,
0000
0000
0100
0000
1000
0000
0000
1100
0000
0000
0010
0000
0001
0000
0000
1001
,
0000
0010
1000
0100
0010
0001
0200
0000
,
0001
0000
0000
0010
0000
0000
0301
0000
0000
0001
1001
0000
,
1000
0000
1100
0000
0001
0000
0101
0000
1001
0000
0000
0000
;

//---------------dance-single - ----------------
#NOTEDATA:;
#CHARTNAME:;
#STEPSTYPE:dance-single;
#DESCRIPTION:;
#CHARTSTYLE:;
#DIFFICULTY:Medium;
#METER:9;
#RADARVALUES:0.417285,0.458513,0.178011,0.161828,0.028320,361.000000,339.000000,22.000000,20.000000,0.000000,0.000000,0.000000,0.000000,0.000000,0.417285,0.458513,0.178011,0.161828,0.028320,361.000000,339.000000,22.000000,20.000000,0.000000,0.000000,0.000000,0.000000,0.000000;
#CREDIT:Musey;
#NOTES:
0000
0000
0000
0000
,
0000
0000
0000
0000
,
0000
0000
0000
0000
,
0000
0000
0000
0000
2002
3003
0000
0022
,
0033
0000
0220
0330
0000
0010
0010
0100
,
0001
0100
0001
1000
0000
0000
0001
0100
,
0001
1000
0100
1000
0010
0100
0010
1000
,
0001
0010
0100
0010
0100
1000
0001
1000
,
0010
1000
0100
0010
0010
0000
0002
0000
,
0103
0001
1000
0001
0100
0000
0010
1000
,
0100
1000
0001
0000
0001
0100
0010
1000
,
0100
1000
0001
0100
0010
1000
0002
0000
,
0013
0100
0010
0100
2000
0000
3001
1000
,
0100
1000
0020
0000
0130
0001
0100
0010
,
1000
0100
1000
0001
0100
0001
0010
0100
,
1000
0100
0010
0001
0200
0000
0301
0100
,
0010
1000
0002
0000
0103
0100
0001
1000
,
0100
0010
0100
1000
0001
0100
0100
0101
,
0001
0001
1001
1000
1000
1100
1000
0001
,
0100
0001
0200
0000
0000
0000
0000
0301
,
0002
0000
0000
2003
0000
0000
3000
0000
,
0000
0000
0000
0000
,
0000
0000
0000
0000
0001
0100
0001
1000
,
0100
1000
0010
0010
0100
0100
0001
0010
,
0100
1000
0001
0001
1000
1000
0010
1000
,
0100
0010
0001
0001
0100
0100
0010
1000
,
0100
1000
0001
0001
1000
1000
0100
1000
,
0001
0100
0010
0010
0100
0001
0010
0100
,
1000
0001
1000
0001
0100
0010
0100
0100
,
0001
1000
0002
0000
1003
0100
0010
0001
,
0100
0010
2000
0000
3100
1000
0001
0100
,
0010
0100
0002
0000
0013
0100
2000
0000
,
0100
0000
3100
1000
0100
0010
0001
0000
,
0101
0000
1001
0000
0001
0100
0101
0000
,
0001
1000
1001
0000
1000
0100
1100
0000
,
1000
0100
0010
0001
0100
0001
0101
0000
,
1000
0100
1100
0000
1000
0001
1001
0000
,
0101
0000
0110
0000
1001
0000
1000
0100
,
0010
0001
0100
0001
0010
0100
1000
0010
,
0100
0001
1000
1000
0001
0001
0100
0010
,
1000
0100
0010
0001
0100
0001
0100
0000
,
1000
0100
1100
0000
0001
0100
0101
0000
,
1000
0100
0010
0100
1000
0001
0100
0100
,
0010
0010
0100
0001
0010
0100
1000
0001
,
0100
0000
0000
0000
0001
0100
0000
0100
0000
0100
0000
0100
0001
0000
0000
0000
,
1000
0100
1000
0000
0001
0100
0001
0000
,
0010
0100
1000
0100
0010
0001
0100
0001
,
1000
0010
1000
1000
0001
0001
0100
0001
,
0010
0100
1000
1000
0001
0001
0100
0000
,
0100
0101
0000
0000
,
0000
0000
1001
1001
,
0001
0100
0001
0010
0100
1000
0010
0000
,
0010
1000
0100
0010
0001
1000
0001
0000
,
0001
0100
0010
1000
0100
1000
0001
0000
,
0001
0100
0010
1000
0100
0010
0002
0000
,
0000
0000
0000
0103
,
0100
0000
0100
0000
0001
0000
0001
0000
0001
0000
0000
0000
;

//---------------dance-single - ----------------
#NOTEDATA:;
#CHARTNAME:;
#STEPSTYPE:dance-single;
#DESCRIPTION:;
#CHARTSTYLE:;
#DIFFICULTY:Easy;
#METER:5;
#RADARVALUES:0.257769,0.321431,0.008091,0.242742,0.000000,223.000000,222.000000,1.000000,30.000000,0.000000,0.000000,0.000000,0.000000,0.000000,0.257769,0.321431,0.008091,0.242742,0.000000,223.000000,222.000000,1.000000,30.000000,0.000000,0.000000,0.000000,0.000000,0.000000;
#CREDIT:Musey;
#NOTES:
0000
0000
0000
0000
,
0000
0000
0000
0000
,
0000
0000
0000
0000
,
0000
0000
0000
0000
0002
0000
0000
2003
,
0000
0000
3200
0000
0000
1300
0100
1000
,
0001
0000
0000
0001
0000
0000
0200
0000
,
0000
0301
0000
0000
0002
0000
0000
0103
,
0000
0000
2000
0000
0000
3001
0000
0000
,
0001
0100
0001
1000
0000
0000
0020
0000
,
0000
1030
0000
0000
2000
0000
0000
3100
,
0100
1000
0002
0000
0000
0103
0000
0000
,
0001
0100
0001
2000
0000
0000
3002
0000
,
0000
0203
0000
0000
0302
0000
0000
1003
,
0100
1000
0002
0000
0000
0023
0000
0000
,
0032
0000
0000
0103
0000
0000
0001
0000
,
1000
0100
0000
0100
1000
0000
0001
0100
,
0000
0100
0001
0000
0010
0100
0000
0100
,
0010
0000
0010
0100
0000
1000
0001
0000
,
0001
1000
0000
1000
0010
0000
0010
0100
,
0000
0100
0002
0000
0000
0000
0000
0000
,
2003
0000
0000
0000
,
0000
0000
3000
0000
,
0000
0000
0000
0000
1000
0000
1000
0001
,
0100
0000
0001
0010
0100
0000
1000
0010
,
1000
0000
0001
0100
0010
0000
1000
0100
,
1000
0000
0001
0100
0010
0000
1000
0100
,
0010
0000
0001
0100
0001
0000
1000
0000
,
1000
0000
0001
0010
0100
0000
1000
0000
,
0001
0000
0100
0010
0100
0000
0001
0000
,
0010
0200
0310
0001
,
0010
0200
1300
1000
,
0001
0200
0310
2000
,
0000
0001
3001
0100
,
0001
0100
0001
1000
,
1000
0001
0001
0100
,
0100
0000
0001
0100
0001
0100
0001
0000
,
0001
1000
1000
0010
,
0010
0000
0010
0000
1010
0000
1000
0001
,
0100
0000
0001
0010
0100
0000
1000
0100
,
1000
0000
0001
0100
0010
0000
1000
0000
,
1000
0000
0001
0010
0100
1000
0001
0000
,
0001
0000
0100
0000
0100
0010
1000
0000
,
1000
0000
0100
0000
0010
0001
0100
0000
,
0001
1000
0010
0000
1000
0100
0010
0000
,
0001
0100
0001
0000
1000
0010
1000
0000
,
0100
0010
0001
0000
1000
0010
0100
0000
,
0001
1000
0100
0000
1000
0000
0001
0000
,
0100
0000
0001
0010
0100
1000
0001
0000
,
1000
0000
0001
0010
0100
1000
0001
0000
,
0001
0001
0000
0000
,
0000
0000
0000
2000
,
3001
0002
0103
0200
,
0301
0001
0001
0020
,
0130
0200
0310
0020
,
0130
0010
0001
2000
,
0000
0000
0000
3002
,
0000
0000
0000
0003
;

//---------------dance-single - ----------------
#NOTEDATA:;
#CHARTNAME:;
#STEPSTYPE:dance-single;
#DESCRIPTION:;
#CHARTSTYLE:;
#DIFFICULTY:Beginner;
#METER:2;
#RADARVALUES:0.105188,0.157883,0.008091,0.016183,0.000000,91.000000,90.000000,1.000000,2.000000,0.000000,0.000000,0.000000,0.000000,0.000000,0.105188,0.157883,0.008091,0.016183,0.000000,91.000000,90.000000,1.000000,2.000000,0.000000,0.000000,0.000000,0.000000,0.000000;
#CREDIT:Musey;
#NOTES:
// measure 0
0000
0000
0000
0000
,  // measure 1
0000
0000
0000
0000
,  // measure 2
0000
0000
0000
0000
,  // measure 3
0000
0000
0001
0000
,  // measure 4
0000
1000
0000
0000
,  // measure 5
0001
0000
0000
0100
,  // measure 6
0000
0000
0001
0000
,  // measure 7
0000
0001
0000
0000
,  // measure 8
1000
0000
0000
0010
,  // measure 9
0000
0000
1000
0000
,  // measure 10
0000
0001
0000
0000
,  // measure 11
1000
0000
0000
0001
,  // measure 12
0000
0000
1000
0000
,  // measure 13
0000
0001
0000
0000
,  // measure 14
0010
0000
0000
1000
,  // measure 15
0000
0000
0001
0000
,  // measure 16
0000
1000
0000
0000
,  // measure 17
0001
0000
0000
0001
,  // measure 18
0000
0000
0010
0000
,  // measure 19
0000
0001
0000
0000
,  // measure 20
1000
0000
0000
0000
,  // measure 21
0000
0000
0000
0000
,  // measure 22
0000
0000
0000
0001
,  // measure 23
0000
0001
0000
1000
,  // measure 24
0000
1000
0000
0010
,  // measure 25
0000
0010
0000
1000
,  // measure 26
0000
1000
0000
0001
,  // measure 27
0000
0001
0000
1000
,  // measure 28
0000
1000
0000
0001
,  // measure 29
0000
0001
0000
0010
,  // measure 30
0000
0010
0000
1000
,  // measure 31
0000
1000
0000
0001
,  // measure 32
0000
0001
0000
1000
,  // measure 33
0000
1000
0000
0001
,  // measure 34
0000
0001
0000
0100
,  // measure 35
0000
0100
0000
0001
,  // measure 36
0000
0001
0000
1000
,  // measure 37
0000
1000
0000
0001
,  // measure 38
0100
0001
0000
0001
,  // measure 39
1000
0100
0000
1000
,  // measure 40
0010
0100
0000
0001
,  // measure 41
0000
0001
0000
1000
,  // measure 42
0000
1000
0000
0010
,  // measure 43
0000
0010
0000
1000
,  // measure 44
0100
1000
0000
0001
,  // measure 45
0100
0001
0000
0010
,  // measure 46
0100
1000
0000
0001
,  // measure 47
1000
0010
0000
0100
,  // measure 48
0001
1000
0000
0001
,  // measure 49
0010
0001
0000
0000
,  // measure 50
0000
0000
0000
2000
,  // measure 51
0000
0000
0000
0000
,  // measure 52
0000
0000
0000
3002
,  // measure 53
0000
0000
0000
0000
,  // measure 54
0000
0000
0000
0103
,  // measure 55
0000
0000
0000
1001
;
