#TITLE:If;
#SUBTITLE:;
#ARTIST:MIMI, Mass;
#TITLETRANSLIT:;
#SUBTITLETRANSLIT:;
#ARTISTTRANSLIT:;
#GENRE:;
#CREDIT:;
#BANNER:AV.avi;
#BACKGROUND:bg.png;
#LYRICSPATH:;
#CDTITLE:;
#MUSIC:audio.ogg;
#OFFSET:-0.330000;
#SAMPLESTART:31.879951;
#SAMPLELENGTH:15.000007;
#SELECTABLE:YES;
#BPMS:0.000000=91.000000
;
#STOPS:
;
#BGCHANGES:0.000=MV.avi=1.000=1=0=1===CrossFade==,
162.000=MV.avi=0.100=0=0=1=====,
99999=-nosongbg-=1.000=0=0=0 // don't automatically add -songbackground-
;
#KEYSOUNDS:;
#ATTACKS:;

//---------------dance-single - ----------------
#NOTES:
     dance-single:
     :
     Challenge:
     12:
     0.538748,0.626327,0.118995,0.713972,0.613284,412.000000,399.000000,13.000000,78.000000,7.000000,0.000000,0.538748,0.626327,0.118995,0.713972,0.613284,412.000000,399.000000,13.000000,78.000000,7.000000,0.000000:
0000
0000
0000
0000
,
0000
0000
0000
0000
,
0000
0000
0000
0000
,
0000
0000
0000
0000
,
0000
0000
0000
0001
0000
0010
0100
0000
0100
1000
0000
0002
0000
0000
0023
0000
0000
0031
0100
0000
0001
0010
0000
0200
,
0000
0000
0000
1300
0000
0100
2000
0000
0000
3010
0000
0100
0002
0000
0000
0013
0000
0001
0200
0000
0000
0301
0000
0000
,
0002
0000
0000
2003
0000
0000
3002
0000
0000
0013
0000
0100
0020
0000
0000
0031
0000
0010
0200
0000
0000
1300
0000
0010
,
0002
0000
0000
0013
0000
0010
0200
0000
0000
0301
0000
0100
0020
0000
0000
0130
0000
0001
0200
0000
0301
0010
0100
1000
,
0100
0000
0100
1000
0000
1000
0001
0000
0000
0101
0000
0000
0101
0000
0001
0100
0000
0001
0020
0000
0000
0031
0000
1000
,
0010
0000
0100
0001
0000
1000
0100
0000
0000
0101
0000
0000
0101
0000
0000
0100
0000
0010
2000
0000
0000
3010
0000
0100
,
0001
0000
0010
0001
0000
0100
0020
0000
0000
1030
0000
0000
1001
0000
0000
0001
0000
0000
0010
0000
0000
0001
0000
0000
,
0100
0000
0000
0001
0000
0000
1000
0000
1000
0001
0000
0001
0100
0000
0100
0010
0000
0010
1000
0000
0000
1000
0000
0000
,
1001
0000
0000
0000
0000
0000
0021
0000
0000
0031
0000
0000
0100
0000
0001
0100
0000
0010
2000
0000
0000
0100
0000
0000
,
3001
0000
0000
0100
0000
0001
0100
0000
0001
1000
0000
0100
0020
0000
0000
0031
0000
1000
0020
0000
0000
0130
0000
0000
,
0002
0000
0000
0203
0000
0000
2300
0000
0000
3100
0000
0000
0001
0000
0010
0001
0000
0010
0002
0000
0000
1003
0000
0100
,
2000
0000
0000
3010
0000
0100
0002
0000
0000
1003
0000
0010
0200
0000
0000
0310
0000
0100
0002
0000
0000
0100
0000
0000
,
2003
0000
0000
3100
0000
0000
2100
0000
0000
3001
0000
0001
2000
0000
0000
3001
0000
0100
0020
0000
0000
1000
0000
0000
,
0031
0000
0000
0010
0000
1000
0200
0000
0000
1300
0000
0001
0020
0000
0000
0130
0000
1000
0002
0000
0000
1003
0000
0000
,
0002
0000
0000
0203
0000
0000
0320
0000
0000
1030
0000
0000
1000
0000
0010
1000
0000
0000
0010
0000
0100
0010
0000
0100
,
0002
0000
0000
0010
0000
0000
0103
0000
0000
0001
0000
1000
0200
0000
0000
0301
0000
0100
0020
0000
0031
0010
0100
1000
,
0001
0000
0001
0100
0000
0100
0010
0000
0010
1000
0000
1000
0100
M000
0100
0001
0000
0001
0010
0000
0010
0001
0000
0001
,
0100
000M
0100
1000
0000
1000
0010
0000
0010
1000
0000
1000
0100
M000
0100
0001
0000
0001
0010
0000
0010
0001
0000
0001
,
0100
000M
0100
1000
0000
0000
0001
0000
0000
0100
0000
0000
0001
0000
0010
0001
0000
1000
0200
0000
0000
1300
0000
0001
,
0010
0000
0010
0100
0000
1000
0200
0000
0000
1300
0000
0000
1001
0000
0000
0001
0000
0100
0010
0000
0100
0001
0000
1000
,
0200
0000
0000
1300
0000
0000
0001
0000
0001
0010
000M
0010
1000
0000
1000
0100
M000
0100
0001
0000
0001
0010
000M
0010
,
1000
0000
0010
0100
0000
0100
0001
0000
0000
0010
0000
0001
1000
0000
0000
0010
0000
0000
0020
0000
0000
0130
0000
0001
,
2000
3100
0200
1000
1300
0100
1000
0010
,
0100
0001
0020
0000
0100
0000
0031
0000
,
0010
0100
1001
0000
0001
0000
0001
0000
,
0001
0000
0000
0100
0000
0001
0010
0000
0000
0001
0000
1000
0010
0000
0000
1000
0000
0001
0010
0000
0001
0010
0000
0001
,
0100
0000
0001
0010
0100
1000
0001
0000
0000
0001
0000
0000
0100
0000
0001
0100
0000
0001
0020
0000
0000
0031
0000
1000
,
0020
0000
0000
0130
0000
0001
0200
0000
0000
0310
0000
1000
0200
0000
0000
1300
0000
0001
0200
0000
0000
0010
0000
0000
,
0302
0000
0000
0013
0000
0000
0201
0000
0000
0310
0000
0000
0100
0000
0010
0100
0000
1000
0200
0000
0000
0001
0000
0000
,
0310
0000
0000
0100
0000
0001
0010
0000
0100
1000
0000
0001
0020
0000
0000
0031
0000
0100
0020
0000
0000
0130
0000
0000
,
0100
0000
0000
0001
0000
0000
0020
0000
0000
0130
0000
0000
0100
0000
1000
0020
0000
0000
0031
0000
0010
1000
0000
0010
,
0002
0000
0000
0013
0000
0000
0200
0000
0000
0301
0000
0010
0002
0000
0000
1003
0000
0001
0200
0000
0000
0301
0000
0000
,
1100
0000
0000
0001
0000
0000
0102
0000
0000
0013
0000
0000
0001
0000
0100
0001
0000
0100
0020
0000
0000
1000
0000
0000
,
0130
0000
0000
0001
0000
0010
0002
0000
0000
1003
0000
0100
0002
0000
0000
0103
0000
1000
0002
0000
0000
0103
0000
0001
,
0100
0000
0100
0001
0000
0001
2000
0000
0000
0000
0000
0000
3001
0000
0000
0000
0000
0000
0002
0000
0000
0000
0000
0000
,
1003
0000
0000
0000
0000
0000
0002
0000
0003
0000
0000
0000
0020
0000
0030
0000
0000
0000
0002
0000
0003
0020
0000
0030
,
0200
0300
0000
0000
;

//---------------dance-single - ----------------
#NOTES:
     dance-single:
     :
     Hard:
     8:
     0.419753,0.460535,0.054921,0.356986,0.187646,321.000000,315.000000,6.000000,39.000000,0.000000,0.000000,0.419753,0.460535,0.054921,0.356986,0.187646,321.000000,315.000000,6.000000,39.000000,0.000000,0.000000:
0000
0000
0000
0000
,
0000
0000
0000
0000
,
0000
0000
0000
0000
,
0000
0000
0000
0000
,
0000
0000
0000
1000
0000
0000
0001
0000
0000
0100
0000
0001
0100
0000
0000
0001
0000
0000
0100
0000
0000
0001
0000
1000
,
0100
0000
0000
1000
0000
0000
0010
0000
0000
0100
0000
0001
0010
0000
0000
0001
0000
0000
1000
0000
0000
0010
0000
0000
,
1000
0000
0000
0100
0000
0000
0010
0000
0000
0001
0000
0100
0001
0000
0000
0100
0000
0000
0010
0000
0000
1000
0000
0100
,
1000
0000
0000
0001
0000
0000
0100
0000
0000
0100
0000
0000
0010
0000
0000
0010
0000
0000
1000
0000
0000
0100
0000
1000
,
0100
0000
0000
0100
0000
0000
1000
0000
0000
1000
0000
0000
1000
0000
0000
0001
0000
0100
0002
0000
0000
0013
0000
0000
,
0001
0000
0000
0100
0000
0000
0010
0000
0000
0010
0000
0000
0010
0000
0000
1000
0000
0100
2000
0000
0000
3001
0000
0000
,
0100
0010
0002
0010
0103
0010
1000
0100
,
0010
0001
0100
0001
0100
0010
1000
0001
,
1000
0000
0000
0000
0000
0000
0101
0000
0000
0100
0000
0000
0010
0000
0100
0001
0000
0000
0200
0000
0000
0010
0000
0000
,
0301
0000
0000
1000
0000
0000
0100
0000
0000
0010
0000
0000
0001
0000
0000
0100
0000
0010
0200
0000
0000
0301
0000
0000
,
0010
0000
0000
0100
0000
0000
2000
0000
0000
3001
0000
0000
0100
0000
0000
0001
0000
0100
0002
0000
0000
0010
0000
0000
,
0103
0000
0000
0010
0000
1000
0200
0000
0000
1000
0000
0000
0010
0300
0000
0001
0000
0000
0200
0000
0000
0010
0000
0000
,
0301
0000
0000
1000
0000
0000
0200
0000
0000
1300
0000
0000
0001
0000
0000
0100
0000
0001
0200
0000
0000
0010
0000
0000
,
0301
1000
0200
0010
1300
0001
0200
0310
,
1000
0000
0000
0100
0000
0000
0020
0000
0000
0031
0000
0000
0001
0000
0100
0010
0000
0000
0100
0000
0000
0001
0000
0000
,
0020
0000
0000
0100
0000
0000
0031
0000
0000
1000
0000
0000
0010
0000
0000
1000
0000
1000
0002
0000
0000
0100
0000
0000
,
0103
0000
0000
0010
0000
0000
1000
0000
0000
0001
0000
0100
0001
0000
0100
0001
0000
0000
0010
0000
0000
0100
0000
1000
,
0100
0000
1000
0100
0000
0000
1000
0000
0000
0001
0000
0100
0001
0000
0100
0001
0000
0000
0010
0000
0000
0001
0000
1000
,
0100
0000
1000
0100
0000
0000
1000
0000
0000
0010
0000
0000
0100
0000
0000
0001
0000
0000
0020
0000
0000
0001
0000
0000
,
0130
0010
0001
0100
0010
1000
0010
1000
,
0002
0000
0000
0000
0000
0000
0103
0000
0001
0100
0000
0001
0100
0000
0000
0010
0000
0000
1000
0000
0100
0010
0000
0100
,
0010
0100
1000
0010
0100
0001
0001
0100
,
0010
1000
0002
0000
0103
0010
1000
0100
,
1000
0010
0200
0000
0001
0000
0310
0100
,
0010
0100
0002
0000
0013
0000
0020
0000
,
0031
0100
0101
0001
0101
0100
0110
0010
,
1010
0000
0000
0010
0000
0000
2010
0000
0000
3001
0000
0000
0100
0000
0001
0100
0000
0001
0020
0000
0000
0100
0000
0000
,
0031
0000
0000
1000
0000
0010
2000
0000
0000
0100
0000
0000
3010
0000
0000
0100
0000
0001
0020
0000
0000
0100
0000
0000
,
0031
0000
0000
0100
0000
0000
0020
0000
0000
1030
0000
0000
1000
0000
0001
0100
0000
0000
0002
0000
0000
0010
0000
0000
,
0103
0000
0000
0010
0000
1000
0200
0000
0000
0010
0000
0000
1300
0000
0000
0010
0000
1000
0002
0000
0000
1000
0000
0000
,
0103
0000
0000
0010
0000
0000
0002
0000
0000
0013
0000
0000
0001
0000
0100
0010
0000
0000
0100
0000
0001
0010
0000
0001
,
0020
0000
0000
0001
0000
0000
0230
0000
0000
1300
0000
0001
2000
0000
0000
3001
0000
0100
0002
0000
0000
0100
0000
0000
,
0013
0000
0000
0001
0000
0000
0200
0000
0000
0310
0000
0000
0100
0000
0010
0100
0000
0010
2000
0000
0000
0001
0000
0000
,
3010
1000
0100
1000
0001
0100
0020
0100
,
1030
0100
0010
0000
0001
0000
0001
0000
,
1000
0000
1000
0000
0010
0000
1000
0001
,
0200
0300
0000
0000
;

//---------------dance-single - ----------------
#NOTES:
     dance-single:
     :
     Medium:
     6:
     0.268066,0.276321,0.000000,0.475981,0.000000,205.000000,205.000000,0.000000,52.000000,0.000000,0.000000,0.268066,0.276321,0.000000,0.475981,0.000000,205.000000,205.000000,0.000000,52.000000,0.000000,0.000000:
0000
0000
0000
0000
,
0000
0000
0000
0000
,
0000
0000
0000
0000
,
0000
0000
0000
0000
,
0000
0000
1000
0001
1000
0000
0001
0100
,
0001
0000
0100
0010
0100
0010
2000
0000
,
3100
0000
0010
0001
0100
0000
0010
0100
,
0001
0000
1000
0100
1000
0100
0020
0000
,
0031
0000
0100
0100
0100
0000
0002
0000
,
1003
0000
0010
0010
0010
0000
2000
0000
,
3100
2000
3001
0002
,
0103
0000
0020
0000
0130
0000
0001
0100
,
0001
0000
0200
0000
0301
0010
0001
1000
,
0010
1000
0001
0100
0010
0100
0020
0000
,
1030
0100
2000
0000
3001
0100
0002
0000
,
0013
0100
1000
0010
0100
0010
2000
0000
,
3002
0000
0203
0000
0301
0100
0010
0100
,
0001
1000
0100
0010
0001
1000
0020
0000
,
0130
0010
2000
0000
3001
0100
0001
0100
,
0020
0000
1030
0100
1000
0001
0200
0000
,
0310
0100
0001
0001
0020
0000
0031
0001
,
0200
0000
0301
1000
0020
0000
1030
0100
,
2000
0000
3002
0000
0203
0000
0310
0100
,
0010
1000
0002
0000
0103
0000
0200
0000
,
0301
0000
1000
0100
0010
0001
0200
0000
,
0310
0000
0001
0010
0100
1000
0002
0000
,
1003
2000
3001
0200
,
0310
0020
0130
0002
,
0013
0001
0001
1000
,
1000
0000
0001
1000
0001
1000
0020
0000
,
0230
0000
0302
0000
1003
0100
2000
0000
,
3020
0000
0130
0001
0010
0100
2000
0000
,
3020
0000
2030
0000
3001
0100
0001
0100
,
0020
0000
1030
0100
1000
0001
0200
0000
,
0301
0010
0002
0000
0103
0010
0100
0001
,
0020
0000
0031
0010
0100
0010
0002
0000
,
1003
0100
2000
0000
3020
0000
0130
0001
,
0020
0000
0031
0100
1000
0100
0002
0000
,
0013
0200
0310
0020
,
0130
0000
0100
0000
0100
0000
0010
0100
,
2000
3000
0000
0000
;

//---------------dance-single - ----------------
#NOTES:
     dance-single:
     :
     Easy:
     3:
     0.145148,0.163733,0.000000,0.000000,0.000000,111.000000,111.000000,0.000000,0.000000,0.000000,0.000000,0.145148,0.163733,0.000000,0.000000,0.000000,111.000000,111.000000,0.000000,0.000000,0.000000,0.000000:
0000
0000
0000
0000
,
0000
0000
0000
0000
,
0000
0000
0000
0000
,
0000
0000
0000
0000
,
0000
1000
1000
0001
,
0000
0100
0001
0100
,
0000
0010
1000
0100
,
0000
1000
0001
1000
,
0000
0010
0010
0010
,
0000
0100
0100
0100
,
0000
0001
0100
0001
,
1000
0010
0000
0010
,
0000
0100
0100
0001
,
0000
0100
0001
0010
,
0000
0001
1000
0100
,
0000
1000
0010
0100
,
0100
0001
0100
0001
,
0000
0010
0001
1000
,
0000
0010
1000
0100
,
0000
1000
0100
1000
,
0000
0001
0001
0100
,
0100
0001
0001
1000
,
1000
0010
0010
0100
,
0100
0001
0000
1000
,
0000
0001
0001
1000
,
1000
0010
0010
0100
,
0001
0100
0000
0001
,
0010
0100
0000
0100
,
0000
1000
0000
1000
,
0000
0001
0001
0001
,
0001
1000
0000
0010
,
0000
1000
0010
0100
,
0010
1000
0000
0001
,
0000
0100
0001
0100
,
0001
0010
0000
0100
,
0000
0010
0100
1000
,
0001
0100
0000
0010
,
0000
0100
0001
0010
,
0001
1000
0000
1000
,
0000
0001
0001
0001
;

//---------------dance-single - ----------------
#NOTES:
     dance-single:
     :
     Beginner:
     2:
     0.083689,0.090963,0.000000,0.000000,0.000000,64.000000,64.000000,0.000000,0.000000,0.000000,0.000000,0.083689,0.090963,0.000000,0.000000,0.000000,64.000000,64.000000,0.000000,0.000000,0.000000,0.000000:
// measure 0
0000
0000
0000
0000
,  // measure 1
0000
0000
0000
0000
,  // measure 2
0000
0000
0000
0000
,  // measure 3
0000
0000
0000
0000
,  // measure 4
0000
1000
0000
0000
,  // measure 5
0000
0001
0000
0000
,  // measure 6
0000
1000
0000
0000
,  // measure 7
0000
0010
0000
0000
,  // measure 8
0000
0100
0000
0100
,  // measure 9
0000
0001
0000
0001
,  // measure 10
0000
1000
0000
1000
,  // measure 11
0000
0010
0000
0000
,  // measure 12
0000
0001
0000
1000
,  // measure 13
0000
0001
0000
0001
,  // measure 14
0000
0010
0000
0010
,  // measure 15
0000
0010
0000
1000
,  // measure 16
0000
0001
0000
0100
,  // measure 17
0000
0001
0000
1000
,  // measure 18
0000
0010
0000
1000
,  // measure 19
0000
0001
0000
1000
,  // measure 20
0000
0010
0000
0010
,  // measure 21
0000
1000
0000
1000
,  // measure 22
0000
0001
0000
0001
,  // measure 23
0000
0100
0000
0100
,  // measure 24
0000
0010
0000
0010
,  // measure 25
0000
1000
0000
1000
,  // measure 26
0000
0001
0000
0001
,  // measure 27
0000
0100
0000
0000
,  // measure 28
0000
0001
0000
0000
,  // measure 29
0000
1000
0000
1000
,  // measure 30
0000
0001
0000
0001
,  // measure 31
0000
0010
0000
0010
,  // measure 32
0000
0001
0000
1000
,  // measure 33
0000
0001
0000
0100
,  // measure 34
0000
0001
0000
1000
,  // measure 35
0000
0010
0000
1000
,  // measure 36
0000
0001
0000
0001
,  // measure 37
0000
1000
0000
1000
,  // measure 38
0000
0001
0000
0000
,  // measure 39
0000
0001
0000
0001
;
