#TITLE:Ice On My Teeth;
#SUBTITLE:;
#ARTIST:ATEEZ;
#TITLETRANSLIT:;
#SUBTITLETRANSLIT:;
#ARTISTTRANSLIT:;
#GENRE:;
#CREDIT:;
#BANNER:AV.avi;
#BACKGROUND:bg.png;
#LYRICSPATH:;
#CDTITLE:;
#MUSIC:audio.ogg;
#OFFSET:-0.198000;
#SAMPLESTART:66.941002;
#SAMPLELENGTH:14.999995;
#SELECTABLE:YES;
#BPMS:0.000000=202.000000
;
#STOPS:
;
#BGCHANGES:0.000=MV.avi=1.200=1=0=1===CrossFade==,
3.000=MV.avi=1.000=0=0=1=====,
99999=-nosongbg-=1.000=0=0=0 // don't automatically add -songbackground-
;
#KEYSOUNDS:;
#ATTACKS:;

//---------------dance-single - ----------------
#NOTES:
     dance-single:
     :
     Challenge:
     14:
     0.642129,0.696105,0.651435,0.214043,0.000000,483.000000,413.000000,70.000000,23.000000,0.000000,0.000000,0.642129,0.696105,0.651435,0.214043,0.000000,483.000000,413.000000,70.000000,23.000000,0.000000,0.000000:
0000
0000
0000
0000
,
0000
0000
0000
0000
,
0000
0000
0000
0000
,
0000
0000
0000
0000
,
0000
0000
0000
0000
,
0000
0000
0000
0000
,
0000
0000
0000
0000
,
0000
0000
0000
0000
,
0000
0000
0001
1001
,
0001
1000
0001
0100
0010
0001
0010
0000
,
1000
0000
1001
0000
0001
0100
0001
0000
,
1000
0000
1000
0001
0100
0001
1000
0000
,
0001
1001
1000
0010
,
1100
0000
1001
0000
0001
0010
0100
0000
,
1000
0000
1000
0001
1000
0001
0100
0010
,
0100
0010
1000
0100
0010
0001
0100
0000
,
0101
0000
1002
0000
0013
0100
1000
0000
,
0110
0000
1002
0000
0013
0100
1000
0000
,
0110
0000
1002
0000
1003
0010
0100
0000
,
0001
0100
1000
0100
0001
0000
1100
0000
,
1001
0000
2010
0000
3001
0010
0100
0000
,
1001
0000
2010
0000
3001
0010
0100
0000
,
1000
0000
2000
0000
3001
0010
0100
0000
,
1000
0001
0000
0000
0010
0000
0110
0000
,
0110
0000
1000
0010
0100
0001
0010
0000
,
0010
0000
0001
0100
0010
1000
0100
0000
,
0100
0000
1000
0001
1000
0000
0001
0000
,
1000
0010
0100
0010
1000
0001
0010
0000
,
0010
0100
1000
0100
0001
0000
0010
0100
,
0010
0000
0001
0010
1000
0010
0001
0000
,
0001
1000
0100
1000
0000
0000
1000
0100
,
0010
0001
0100
0010
1000
0100
1000
0000
,
0101
0000
1001
0000
0002
0000
1003
0100
,
1000
0001
0010
0100
0010
0100
1000
0000
,
1010
0000
0001
1000
0001
0010
0100
0001
,
0100
1000
0001
1000
0001
0000
1100
0000
,
1001
0000
1000
0100
0010
1000
0010
0100
,
1000
0001
0010
0000
0010
0001
0100
0000
,
0001
0000
1000
0100
0010
0001
1000
0000
,
0100
0100
1000
0010
,
1000
0001
0010
0100
,
0000
1000
0001
0100
,
0010
1000
0100
0010
,
0000
0001
1000
0100
,
1000
0010
0100
0001
,
0000
1000
0001
1000
,
0100
0010
0001
1000
,
1000
0010
0100
0001
,
1000
0200
1300
1010
,
0000
0001
0010
1100
,
0010
0001
1000
1001
,
0000
0010
0100
1010
,
1000
0020
0130
0101
,
1000
0100
0010
1001
,
1000
0100
1000
0010
,
0000
0000
0000
1100
,
1100
0000
1001
0000
0100
0010
1000
0000
,
0010
1000
0100
1000
0010
0100
0001
1000
,
0001
0000
1100
0000
0001
0010
0100
0000
,
0110
0000
1000
0100
0010
0001
1000
0000
,
0011
0000
2001
0000
3010
0100
0010
0000
,
1000
0100
0001
0000
0110
0000
0001
0100
,
1000
0000
1001
0000
1000
0100
0010
0001
,
0100
0001
1000
0001
0010
0100
1000
0000
,
1010
0000
1002
0000
1003
0100
0010
0100
,
1000
0000
0012
0000
1003
0100
0010
0100
,
1000
0000
0012
0000
1003
0100
0010
0100
,
1000
0001
0100
0001
0010
0000
1001
0000
,
0101
0000
2100
0000
3001
0010
0100
0010
,
0001
0000
2100
0000
3001
0010
0100
0010
,
0001
0000
2100
0000
3001
0010
0100
0010
,
0001
1000
0000
0000
0011
0000
1001
0000
,
0000
1002
0010
1003
,
2010
0000
0001
0000
3100
0000
1000
0100
,
0001
2100
0001
3010
,
0120
0000
1030
0001
0100
0000
0011
0000
,
0011
0000
2001
0000
3010
0100
0010
0000
,
0012
0000
1000
0000
1003
0000
0001
0100
,
0001
1200
0001
1300
,
1000
0100
0001
0100
1000
0001
1000
0000
,
1001
0000
1010
0000
0001
0010
0100
0000
,
1001
0000
1000
0010
0100
0000
0001
0100
,
0010
0000
1100
0000
0001
1000
0001
0000
,
0110
0000
1000
0100
1000
0000
0101
0000
,
0101
0000
1001
0000
0010
0100
0010
0000
,
1001
0000
1000
0100
0010
0000
0001
0010
,
0100
1100
0001
1001
,
1000
0100
0001
0100
1000
0001
1000
0000
,
0110
0000
0000
0000
;

//---------------dance-single - ----------------
#NOTES:
     dance-single:
     :
     Hard:
     12:
     0.511842,0.573263,0.446699,0.167512,0.000000,385.000000,337.000000,48.000000,18.000000,0.000000,0.000000,0.511842,0.573263,0.446699,0.167512,0.000000,385.000000,337.000000,48.000000,18.000000,0.000000,0.000000:
// measure 0
0000
0000
0000
0000
,  // measure 1
0000
0000
0000
0000
,  // measure 2
0000
0000
0000
0000
,  // measure 3
0000
0000
0000
0000
,  // measure 4
0000
0000
0000
0000
,  // measure 5
0000
0000
0000
0000
,  // measure 6
0000
0000
0000
0000
,  // measure 7
0000
0000
0000
0000
,  // measure 8
0000
0000
0001
0010
,  // measure 9
0001
0010
0001
0000
1000
0000
0200
0000
,  // measure 10
0000
0000
1300
0000
0001
0100
0001
0000
,  // measure 11
0010
0000
0010
0100
1000
0000
0020
0000
,  // measure 12
0000
0130
0010
1000
,  // measure 13
0100
0010
0001
2000
,  // measure 14
0000
0000
3001
0000
0100
0010
0100
0000
,  // measure 15
0001
0000
1000
0100
1000
0001
0100
0000
,  // measure 16
0010
0000
0210
0000
0301
1000
0010
0000
,  // measure 17
0000
0000
0210
0000
0301
1000
0010
0000
,  // measure 18
0000
0000
0210
0000
0301
1000
0010
0000
,  // measure 19
0001
0100
0000
0000
1001
0000
0101
0000
,  // measure 20
0000
0000
1020
0000
0130
0001
0010
0000
,  // measure 21
0000
0000
1020
0000
0130
0001
0010
0000
,  // measure 22
0000
0000
1020
0000
0130
0001
0010
0000
,  // measure 23
0010
0001
0000
0000
1001
0000
1100
0000
,  // measure 24
1000
0000
0010
0000
0100
0001
1000
0000
,  // measure 25
0011
0000
0100
0000
0010
1000
0001
0000
,  // measure 26
1100
0000
0001
1000
0001
0000
0100
0000
,  // measure 27
0010
0000
1000
0100
0010
0001
1000
0000
,  // measure 28
1000
0000
0010
0100
0001
0000
1000
0100
,  // measure 29
1000
0000
0001
1000
0010
0000
1010
0000
,  // measure 30
0000
0000
0100
0010
0000
0000
1000
0000
,  // measure 31
0001
0010
0100
1000
0001
0000
1000
0000
,  // measure 32
0110
0000
0110
0000
0002
0000
0013
0100
,  // measure 33
0010
0000
1000
0100
1000
0000
0010
0000
,  // measure 34
1010
0000
1000
0000
1000
0000
0010
0100
,  // measure 35
0010
0100
0001
0000
0010
0000
0100
0000
,  // measure 36
1100
0000
0010
0100
0000
0100
0010
0001
,  // measure 37
1000
0000
0010
0000
1000
0001
0100
0000
,  // measure 38
0001
0000
0010
0100
1000
0100
0010
0000
,  // measure 39
0100
0000
0000
0000
,  // measure 40
0000
0001
0010
0100
,  // measure 41
1000
0010
0000
0000
,  // measure 42
0000
0000
1000
0100
,  // measure 43
0010
0001
0000
0000
,  // measure 44
0000
0000
0001
1000
,  // measure 45
0100
1000
0000
0000
,  // measure 46
0000
0000
0001
1000
,  // measure 47
0001
0200
0000
0302
,  // measure 48
0000
1003
0000
1010
,  // measure 49
0000
0001
1000
0110
,  // measure 50
0000
0001
0010
0011
,  // measure 51
0000
1000
0000
1010
,  // measure 52
0000
1000
0000
0101
,  // measure 53
0000
0001
1000
0011
,  // measure 54
0000
0100
0010
1000
,  // measure 55
0000
0000
0000
0110
,  // measure 56
0110
1001
0100
0010
,  // measure 57
1000
0010
0100
0010
1000
0000
0001
0000
,  // measure 58
0100
0000
0101
0000
0001
0010
0100
0000
,  // measure 59
0001
0000
0010
0100
1000
0100
0010
0000
,  // measure 60
0001
1001
0010
0010
,  // measure 61
1000
0100
1000
0000
0001
1000
0001
0000
,  // measure 62
0010
0000
0011
0000
1000
0001
1000
0000
,  // measure 63
0001
0000
0010
0001
0100
0010
1000
0000
,  // measure 64
1000
0000
0012
0000
0013
0100
1000
0000
,  // measure 65
0010
0000
0012
0000
0013
0100
1000
0000
,  // measure 66
0010
0000
0012
0000
0013
0100
1000
0000
,  // measure 67
0010
0001
0000
0001
1000
0000
0011
0000
,  // measure 68
0000
0000
2100
0000
3100
0010
0001
0000
,  // measure 69
0100
0000
2100
0000
3100
0010
0001
0000
,  // measure 70
0100
0000
2100
0000
3100
0010
0001
0000
,  // measure 71
0001
0010
0000
0000
1001
0000
0011
0000
,  // measure 72
0000
0001
1000
0010
,  // measure 73
1000
0000
0001
0000
0100
0000
0010
1000
,  // measure 74
0001
1000
0001
1000
,  // measure 75
0100
0000
0010
0001
1000
0000
1001
0000
,  // measure 76
1001
0000
0001
0000
1000
0100
1000
0000
,  // measure 77
0001
0010
0001
1000
,  // measure 78
0100
1000
0001
0010
,  // measure 79
0100
1000
0000
1000
0001
0000
0100
0000
,  // measure 80
0101
0000
1010
0000
1000
0001
0100
0000
,  // measure 81
0010
0000
0010
0000
0100
0000
0001
0100
,  // measure 82
0001
0000
0110
0000
1000
0100
0010
0000
,  // measure 83
0100
0000
1000
0001
1000
0000
0010
0000
,  // measure 84
0010
0000
0110
0000
1000
0001
1000
0000
,  // measure 85
0010
0000
0100
0010
0100
0000
0001
0000
,  // measure 86
1000
0110
0001
0011
,  // measure 87
0010
0100
0000
0100
0010
0000
1001
0000
,  // measure 88
1100
0000
0000
0000
;

//---------------dance-single - ----------------
#NOTES:
     dance-single:
     :
     Medium:
     9:
     0.400167,0.491368,0.232656,0.055837,0.000000,301.000000,276.000000,25.000000,6.000000,0.000000,0.000000,0.400167,0.491368,0.232656,0.055837,0.000000,301.000000,276.000000,25.000000,6.000000,0.000000,0.000000:
0000
0000
0000
0000
,
0000
0000
0000
0000
,
0000
0000
0000
0000
,
0000
0000
0000
0000
,
0000
0000
0000
0000
,
0000
0000
0000
0000
,
0000
0000
0000
0000
,
0000
0000
0000
0000
,
0000
0000
0001
0010
,
0100
2000
0000
3002
,
0000
0000
1003
0000
1000
0100
1000
0000
,
0010
0200
0000
0302
,
0000
1003
1000
0001
,
1000
0200
0000
2300
,
0000
0000
3001
0000
0001
0010
0001
0000
,
1000
0100
0010
0001
,
0100
0110
1000
0001
,
1000
0110
0001
1000
,
0001
0110
1000
0001
,
1000
0100
1000
0010
,
0000
0110
0001
1000
,
0001
0110
1000
0001
,
1000
0110
0001
1000
,
0001
0000
1000
0100
,
0000
1000
0001
0010
,
0001
0001
1000
0100
,
1000
0010
0000
1000
,
0001
0010
0010
0100
,
1000
0001
1000
0010
,
0100
0001
0010
0100
,
0100
1000
0001
0100
,
0100
0001
0010
0100
,
1000
0000
0010
0000
1000
0000
0001
1000
,
0001
0010
0100
1000
,
0010
0000
0010
0000
1000
0000
0100
1000
,
0100
1000
0001
0010
,
0100
0000
0100
1000
0100
0000
0001
0100
,
0001
1000
0100
1000
,
0010
1000
0000
0000
,
0000
0000
0000
0000
,
0000
0001
0010
0100
,
1000
0100
0000
0000
,
0000
0000
1000
0100
,
0010
0001
0000
0000
,
0000
0000
0001
1000
,
0100
1000
0000
0000
,
0000
0000
0001
0010
,
0100
1000
0000
0010
,
0000
1000
0000
1001
,
0000
0010
0000
0101
,
0000
1000
0000
1100
,
0000
0010
0000
1001
,
0000
0100
0000
1100
,
0000
0001
0000
0101
,
0000
1000
0000
0000
,
0000
0000
0000
0001
,
0001
0000
1000
0000
0001
0100
0001
0000
,
1000
0100
0001
0100
,
1000
0000
1000
0000
0100
1000
0100
0000
,
0100
0010
0001
1000
,
1000
0000
0001
0000
1000
0010
0100
0000
,
0010
0100
0001
0010
,
1000
0000
0010
0000
0100
1000
0100
0000
,
1000
0000
0010
0000
0100
0010
0100
0000
,
0001
1001
0010
0100
,
0010
1001
0010
0100
,
0010
1001
0010
0100
,
0010
0000
0100
0001
1000
0000
0010
0000
,
0000
1001
0100
0010
,
0100
1001
0100
0010
,
0100
1001
0100
0010
,
1000
0000
1010
1001
,
0000
1001
1000
0100
,
0010
0000
0001
1000
,
0100
1000
0010
0100
,
0001
0000
0001
0010
,
0100
1000
0010
0100
,
0001
0000
1000
0100
,
0010
0001
1000
0010
,
0100
0000
0001
1001
,
1001
0100
1000
0010
,
0100
0001
1000
0100
,
0010
0001
1000
0100
,
1000
0010
0100
0001
,
0010
0001
1000
0100
,
1000
0010
0100
0001
,
1000
0100
1000
0010
,
0100
0001
1000
1100
,
1100
0000
0000
0000
;

//---------------dance-single - ----------------
#NOTES:
     dance-single:
     :
     Easy:
     5:
     0.293811,0.409474,0.195431,0.000000,0.000000,221.000000,200.000000,21.000000,0.000000,0.000000,0.000000,0.293811,0.409474,0.195431,0.000000,0.000000,221.000000,200.000000,21.000000,0.000000,0.000000,0.000000:
0000
0000
0000
0000
,
0000
0000
0000
0000
,
0000
0000
0000
0000
,
0000
0000
0000
0000
,
0000
0000
0000
0000
,
0000
0000
0000
0000
,
0000
0000
0000
0000
,
0000
0000
0000
0000
,
0000
0000
1000
0100
,
1000
0010
0000
1000
,
0000
0000
1000
0100
,
1000
0010
0000
0100
,
0000
0000
0001
1000
,
0100
1000
0000
0001
,
0000
0000
0010
0100
,
0010
1000
0000
0001
,
0000
1000
0000
1010
,
0000
0010
0000
0110
,
0000
0001
0000
1001
,
0000
0100
1000
0010
,
0000
1000
0000
1010
,
0000
0001
0000
0101
,
0000
1000
0000
1100
,
0000
0010
1000
0010
,
0000
1000
0001
1000
,
0000
0010
0100
0010
,
0000
0001
0000
1000
,
0100
1000
0010
0100
,
0000
1001
0000
0101
,
0000
1010
0000
0100
,
0100
0001
0000
0100
,
1000
0010
0000
1000
,
1000
0001
0000
0100
,
0000
1000
0000
0100
,
0010
1000
0000
0010
,
0000
1000
0000
1000
,
0010
1000
0000
0001
,
0000
0100
0000
0001
,
0000
1000
0000
0000
,
0000
0000
0000
0000
,
0000
0000
1000
0100
,
0010
0001
0000
0000
,
0000
0000
0001
0010
,
0100
1000
0000
0000
,
0000
0000
1000
0100
,
0010
0001
0000
0000
,
0000
0000
0001
0010
,
0100
1000
0000
0010
,
0000
1000
0000
0101
,
0000
1000
0000
1100
,
0000
0010
0000
0110
,
0000
0001
0000
1001
,
0000
1000
0000
1100
,
0000
0010
0000
0101
,
0000
1000
0000
0000
,
0000
0000
0000
0001
,
0001
1000
0100
1000
,
0010
0100
0000
0001
,
0000
1000
1000
0100
,
1000
0010
0000
0100
,
0000
0001
0001
1000
,
0100
1000
0000
0001
,
0000
1000
0001
1000
,
0100
1000
0000
0010
,
0000
1000
1000
1010
,
0000
0001
0001
0011
,
0000
1000
1000
1100
,
0000
1000
0010
0100
,
0000
0001
0001
1001
,
0000
1000
1000
1100
,
0000
0010
0010
0110
,
0000
0000
0001
1000
,
0000
0100
0000
1000
,
0000
0100
0010
0001
,
0000
1000
0000
0010
,
0000
1000
0001
0010
,
0000
0100
0000
1000
,
0000
0010
0100
0001
,
0000
1000
0000
0100
,
0000
0010
0001
1000
,
1000
0010
0000
0100
,
0000
0001
1000
0100
,
1000
0010
0000
0100
,
0000
0001
1000
0100
,
1000
0010
0000
0100
,
0000
0001
1000
0001
,
1000
0010
0000
0100
,
0000
0001
1000
0100
,
1000
0000
0000
0000
;

//---------------dance-single - ----------------
#NOTES:
     dance-single:
     :
     Beginner:
     3:
     0.128958,0.202992,0.037225,0.000000,0.000000,97.000000,93.000000,4.000000,0.000000,0.000000,0.000000,0.128958,0.202992,0.037225,0.000000,0.000000,97.000000,93.000000,4.000000,0.000000,0.000000,0.000000:
0000
0000
0000
0000
,
0000
0000
0000
0000
,
0000
0000
0000
0000
,
0000
0000
0000
0000
,
0000
0000
0000
0000
,
0000
0000
0000
0000
,
0000
0000
0000
0000
,
0000
0000
0000
0000
,
0000
1000
0000
0000
,
0000
1000
0000
0000
,
0000
0001
0000
0000
,
0000
0001
0000
0000
,
0000
0100
0000
0000
,
0000
0100
0000
0000
,
0000
0010
0000
0000
,
0000
0010
0000
0000
,
0000
1000
0000
0001
,
0000
1000
0000
0001
,
0000
0100
0000
0010
,
0000
0000
0100
0010
,
0000
1000
0000
0100
,
0000
1000
0000
0100
,
0000
1000
0000
0001
,
0000
0000
1000
0001
,
0000
1000
0000
0000
,
0000
0010
0000
0000
,
0000
1000
0000
0000
,
0000
0001
0000
0000
,
0000
0100
0000
0000
,
0000
0010
0000
0000
,
0000
1000
0000
0000
,
0000
0100
0000
0000
,
0000
1000
0000
0000
,
0000
0001
0000
0100
,
0000
0001
0000
0000
,
0000
1000
0000
0010
,
0000
0100
0000
0000
,
0000
0001
0000
1000
,
0000
0001
0000
0000
,
0000
0000
0000
0000
,
0000
1001
0000
0000
,
0000
0000
0000
0000
,
0000
1001
0000
0000
,
0000
0000
0000
0000
,
0000
0011
0000
0000
,
0000
0000
0000
0000
,
0000
1100
0000
0000
,
0000
0000
0000
0000
,
0000
0000
0000
1000
,
0000
0000
0000
0001
,
0000
0000
0000
1000
,
0000
0000
0000
0010
,
0000
0000
0000
0100
,
0000
0000
0000
0010
,
0000
0000
0000
1000
,
0000
0000
0000
0000
,
0000
0001
0000
0000
,
0000
0001
0000
0000
,
0000
1000
0000
0000
,
0000
0010
0000
0000
,
0000
1000
0000
0000
,
0000
0001
0000
0000
,
0000
0100
0000
0000
,
0000
0001
0000
0000
,
0000
0001
0000
1000
,
0000
0010
0000
0100
,
0000
0001
0000
1000
,
0000
0000
0001
1000
,
0000
0010
0000
0100
,
0000
0001
0000
1000
,
0000
0010
0000
0100
,
0000
0000
0010
0100
,
0000
0010
0000
0000
,
0000
1000
0000
0000
,
0000
0001
0000
0000
,
0000
1000
0000
0000
,
0000
0001
0000
0000
,
0000
1000
0000
0000
,
0000
0010
0000
0000
,
0000
1000
0000
0000
,
0000
0001
0000
0000
,
0000
1000
0000
0000
,
0000
0010
0000
0000
,
0000
1000
0000
0000
,
0000
0100
0000
0000
,
0000
1000
0000
0000
,
0000
0001
0000
0000
,
0000
1000
0000
0000
;
