#VERSION:0.83;
#TITLE:I Wanna Thank Me;
#SUBTITLE:;
#ARTIST:Meghan Trainor ft. Niecy Nash;
#TITLETRANSLIT:;
#SUBTITLETRANSLIT:;
#ARTISTTRANSLIT:;
#GENRE:;
#ORIGIN:;
#CREDIT:;
#BANNER:bn.png;
#BACKGROUND:bg.png;
#PREVIEWVID:;
#JACKET:jacket.png;
#CDIMAGE:;
#DISCIMAGE:;
#LYRICSPATH:;
#CDTITLE:;
#MUSIC:I Wanna Thank Me.mp3;
#OFFSET:-0.136000;
#SAMPLESTART:38.302395;
#SAMPLELENGTH:14.999991;
#SELECTABLE:YES;
#BPMS:0.000=130.986,
85.000=130.000,
117.000=130.986,
181.000=130.000;
#STOPS:;
#DELAYS:;
#WARPS:;
#TIMESIGNATURES:0.000=4=4;
#TICKCOUNTS:0.000=4;
#COMBOS:0.000=1;
#SPEEDS:0.000=1.000=0.000=0;
#SCROLLS:0.000=1.000,
211.000=1.750,
211.250=0.250,
211.500=1.750,
211.750=0.250,
212.000=1.750,
212.250=0.250,
212.500=1.750,
212.750=0.250,
213.000=1.000,
231.000=0.500,
232.000=1.000,
243.000=1.750,
243.250=0.250,
243.500=1.750,
243.750=0.250,
244.000=1.750,
244.250=0.250,
244.500=1.750,
244.750=0.250,
245.000=1.000,
263.000=0.500,
264.000=1.000,
267.000=1.750,
267.250=0.250,
267.500=1.750,
267.750=0.250,
268.000=1.750,
268.250=0.250,
268.500=1.750,
268.750=0.250,
269.000=1.000,
275.000=1.750,
275.250=0.250,
275.500=1.750,
275.750=0.250,
276.000=1.750,
276.250=0.250,
276.500=1.750,
276.750=0.250,
277.000=1.000,
285.000=0.500,
288.000=1.000,
289.000=1.750,
289.500=0.250,
290.000=1.750,
290.500=0.250,
291.000=1.000;
#FAKES:;
#LABELS:0.000=Song Start;
#BGCHANGES:;
#KEYSOUNDS:;
#ATTACKS:
;

//---------------dance-single - ----------------
#NOTEDATA:;
#CHARTNAME:;
#STEPSTYPE:dance-single;
#DESCRIPTION:;
#CHARTSTYLE:;
#DIFFICULTY:Challenge;
#METER:14;
#RADARVALUES:0.610296,0.718556,0.279220,0.062825,0.258279,612.000000,572.000000,40.000000,9.000000,0.000000,0.000000,0.000000,0.000000,0.000000,0.610296,0.718556,0.279220,0.062825,0.258279,612.000000,572.000000,40.000000,9.000000,0.000000,0.000000,0.000000,0.000000,0.000000;
#CREDIT:Rajeious Chart;
#NOTES:
// measure 0
0000
0000
0000
0000
,  // measure 1
0000
0000
0000
0000
,  // measure 2
0000
0000
0000
0000
,  // measure 3
0000
0000
0000
0000
,  // measure 4
0000
0000
0000
0000
,  // measure 5
0000
0000
2000
0000
3001
0001
0010
0100
,  // measure 6
1000
1000
0010
0100
0001
1000
0000
1000
,  // measure 7
0100
0000
0020
0000
0031
1000
0100
1000
,  // measure 8
0010
0100
0100
0001
0010
0100
0000
0100
,  // measure 9
1000
0000
0001
0100
0001
0010
0100
0010
,  // measure 10
0100
1000
0100
1000
0000
0010
0000
1000
,  // measure 11
0010
0100
0001
0000
1000
1000
0100
0010
,  // measure 12
0001
1000
0010
0100
0100
0100
0001
1000
,  // measure 13
0100
0000
0020
0000
0031
1000
0100
0010
,  // measure 14
0100
1000
0010
0100
0001
0010
0000
0010
,  // measure 15
0001
0000
0200
0000
0310
1000
0100
0010
,  // measure 16
0010
0001
1000
0010
0100
0001
0000
0001
,  // measure 17
0010
0000
0100
1000
0100
1000
0010
0100
,  // measure 18
0010
0100
0001
0010
0000
0010
0000
0001
,  // measure 19
1000
0100
1000
0000
0010
0100
0001
0010
,  // measure 20
0100
1000
0001
0001
0010
0010
0100
0100
,  // measure 21
1000
0001
1000
0000
0100
0000
0000
1000
0100
0000
0001
0000
0100
0000
1000
0000
,  // measure 22
0001
1000
0001
0000
0100
0000
0000
0001
0100
0000
1000
0000
0100
0000
0001
0000
,  // measure 23
1000
0100
0010
0000
0100
0000
0000
1000
0001
0000
0100
0000
0001
0010
1000
0000
,  // measure 24
0010
0000
0001
0000
1000
0000
0000
0010
1000
0000
0100
0000
1000
0000
0010
0000
,  // measure 25
1000
0000
0000
0000
1000
0000
0000
0000
1000
0000
0000
0000
1000
0000
0000
0000
0000
0000
0000
0000
0000
0100
0000
0000
1000
0000
0000
0000
0000
0000
0010
0000
0000
0000
0000
0000
1000
0000
0000
0000
0000
0000
0100
0000
0000
0000
0000
0000
,  // measure 26
1000
0000
0001
0000
0100
0000
0000
0001
0100
0000
1000
0000
0100
0000
0001
0000
,  // measure 27
1000
0001
0100
0000
0010
0000
0000
1000
0010
0000
0001
0000
0010
0000
1000
0000
,  // measure 28
0001
0000
0100
0010
0100
0000
0000
0001
0100
0000
0010
0000
0100
0000
0000
0000
,  // measure 29
0000
0000
1000
0100
0001
0100
1000
0001
,  // measure 30
0001
0010
0100
0010
0001
1000
0000
0001
,  // measure 31
0010
0000
0200
0000
1300
0100
0010
0001
,  // measure 32
0001
0010
0100
0010
0001
1000
0000
0001
,  // measure 33
0200
0000
0310
1000
0100
0010
0010
0001
,  // measure 34
0100
0010
0010
0100
0000
0001
0000
0001
,  // measure 35
1000
0100
1000
0000
0010
0100
0001
0010
,  // measure 36
0100
0000
1000
0000
1000
0000
1000
0100
0010
0000
0100
0000
1000
0000
0010
0000
,  // measure 37
0001
0010
1000
0001
0100
0010
1000
0001
,  // measure 38
0001
0010
1000
0010
0001
0100
0010
1000
,  // measure 39
0100
0100
1000
0100
0010
0001
1000
0100
,  // measure 40
0010
0010
0001
0010
0100
1000
0010
0100
,  // measure 41
0001
0010
1000
0001
0100
2000
0000
3001
,  // measure 42
0100
0010
1000
0010
0001
0020
0000
0130
,  // measure 43
0100
0010
1000
0001
0100
0020
0000
0130
,  // measure 44
0010
1000
1100
0000
1010
0000
1001
0100
,  // measure 45
0001
1000
0001
0000
0010
0000
0000
0001
0010
0000
1000
0000
0010
0000
0001
0000
,  // measure 46
1000
0001
1000
0000
0010
0000
0000
1000
0010
0000
0001
0000
0010
0000
1000
0000
,  // measure 47
0001
0010
0100
0000
0010
0000
0000
0001
1000
0000
0010
0000
1000
0100
0001
0000
,  // measure 48
0100
0000
1000
0000
0001
0000
0000
0100
0001
0000
0010
0000
0001
0000
0100
0000
,  // measure 49
0001
0000
0000
0000
0001
0000
0000
0000
0001
0000
0000
0000
0001
0000
0000
0000
0000
0000
0000
0000
0000
0010
0000
0000
0001
0000
0000
0000
0000
0000
0100
0000
0000
0000
0000
0000
0001
0000
0000
0000
0000
0000
0010
0000
0000
0000
0000
0000
,  // measure 50
0001
0000
1000
0000
0010
0000
0000
1000
0010
0000
0001
0000
0010
0000
1000
0000
,  // measure 51
0001
1000
0010
0000
0100
0000
0000
0001
0100
0000
1000
0000
0100
0000
0001
0000
,  // measure 52
1000
0010
0101
0000
0101
0000
1001
0100
,  // measure 53
1001
0000
0100
0000
1001
0000
0010
0100
0010
0100
0001
0000
1000
0000
0001
0100
,  // measure 54
0001
0100
0010
0000
1000
0000
0001
1000
0001
1000
0100
0000
0010
0000
0001
0100
,  // measure 55
0001
0100
0010
0000
0100
0000
0001
1000
0001
0000
0010
0000
0010
0100
1000
0000
,  // measure 56
0001
0000
0010
0000
0001
0000
1000
0100
0010
0000
0001
0000
1000
0000
0001
0000
,  // measure 57
0100
0000
0000
0000
0100
0000
0000
0000
0100
0000
0000
0000
0100
0000
0000
0000
0000
0000
0001
0000
0000
1000
0000
0000
0001
0000
0000
0000
0000
0000
0100
0000
0000
0000
0000
0000
0010
0000
0000
0000
0000
0000
0000
0000
0000
0000
0000
0000
,  // measure 58
0101
0000
0101
0000
0101
0000
1000
0100
0010
0000
0001
0000
0001
0000
1000
0100
,  // measure 59
0010
0100
0010
0000
0010
0000
0001
1000
0001
0000
0100
0000
0010
0000
1000
0000
,  // measure 60
0010
1000
1001
0100
1001
0100
1010
1010
,  // measure 61
0101
0000
0101
0000
0110
0000
0001
1000
0001
0000
0001
0010
0001
0000
1000
0000
,  // measure 62
0001
0000
0001
0000
1001
0000
1000
0001
1000
0000
1000
0100
1000
0000
0100
0000
,  // measure 63
0010
0000
0010
0000
0011
0000
0001
0100
0001
0000
0001
0010
0001
0000
0100
0000
,  // measure 64
0010
0000
0010
0000
0110
0000
0100
0010
0100
0000
0100
0001
0100
0000
0001
0000
,  // measure 65
0010
0000
0000
0000
0010
0000
0000
0000
0010
0000
0000
0000
0010
0000
0000
0000
0000
0000
0001
0000
0000
1000
0000
0000
0001
0000
0000
0000
0000
0000
0100
0000
0000
0000
0000
0000
0010
0000
0000
0000
0000
0000
0000
0000
0000
0000
0000
0000
,  // measure 66
1001
1001
1001
0010
1001
0010
0100
0100
,  // measure 67
0001
0000
0001
0000
1001
0000
0100
0010
0100
0000
0001
0000
1000
0000
1000
0000
,  // measure 68
0100
0010
1001
0100
1001
0010
0110
1001
,  // measure 69
0110
0000
1001
0000
0110
0000
0000
0000
1000
0001
1000
0001
1000
0010
0100
0001
,  // measure 70
0010
0000
0000
0000
0011
0000
1000
0100
0010
0000
0100
0000
0011
0000
0000
0000
,  // measure 71
0000
1001
0000
0000
,  // measure 72
0100
0010
0110
0000
0110
0000
0110
0000
,  // measure 73
1000
0001
1000
0001
1000
0000
0001
0010
0100
0000
0010
0000
0001
0000
0100
0000
,  // measure 74
0010
0000
0010
0000
1010
0000
1000
0100
0010
0000
0001
0000
0001
0000
1000
0010
,  // measure 75
1000
0010
0100
0000
0001
0000
1000
0010
1000
0000
0001
0000
0010
0000
1000
0000
,  // measure 76
0010
0000
0001
0010
0100
0000
0000
0000
0000
0000
0000
0000
0000
0000
0000
0000
;

//---------------dance-single - ----------------
#NOTEDATA:;
#CHARTNAME:;
#STEPSTYPE:dance-single;
#DESCRIPTION:;
#CHARTSTYLE:;
#DIFFICULTY:Hard;
#METER:11;
#RADARVALUES:0.505588,0.532264,0.376948,0.209415,0.125649,507.000000,453.000000,54.000000,30.000000,0.000000,0.000000,0.000000,0.000000,0.000000,0.505588,0.532264,0.376948,0.209415,0.125649,507.000000,453.000000,54.000000,30.000000,0.000000,0.000000,0.000000,0.000000,0.000000;
#CREDIT:Rajeious Chart;
#NOTES:
0000
0000
0000
0000
,
0000
0000
0000
0000
,
0000
0000
0000
0000
,
0000
0000
0000
0000
,
0000
0000
0000
0000
,
0000
0000
0000
0000
0000
1000
0100
0010
,
0001
1000
0010
0000
0100
0010
0000
0010
,
2000
0000
3001
0000
0000
0100
1000
0010
,
0100
0001
0010
0000
0100
1000
0000
1000
,
0020
0000
1030
0001
0010
0200
0000
1300
,
0100
0020
0000
0031
0000
1000
0000
0000
,
0010
0100
0000
0000
0002
0000
1003
0100
,
0010
0001
0000
1000
0020
0000
0130
0010
,
0001
0000
0102
0000
1003
0010
0100
0001
,
0010
0100
1000
0000
1000
0001
0000
0001
,
0010
0000
0200
0000
0300
1000
0010
1000
,
0001
0010
0100
0000
0100
1000
0000
0001
,
1000
0000
0010
1000
0100
2000
0000
3100
,
0010
0002
0000
0103
0000
0010
0000
0010
,
0100
0002
0000
0000
0003
1000
0010
0100
,
0001
0010
0100
0100
0010
0010
0001
0001
,
1000
1000
0100
0000
1100
0000
1100
0000
,
0001
1000
0001
0000
0110
0000
0000
0000
1010
0000
0000
0000
1010
0000
0000
0000
,
0010
1000
0001
0000
0010
0000
0000
0010
0000
0000
0001
0000
1000
0001
1000
0000
,
0100
0010
0011
0000
0011
0000
0101
0000
,
0001
1000
0001
0000
0110
0000
0000
0000
0110
0000
0000
0000
0110
0000
0000
0000
,
1000
0100
1100
0000
1100
0000
1100
0000
,
0001
0010
0100
0000
1000
0000
0000
1000
0000
0000
1000
0000
0000
0000
0001
0000
,
1000
0000
0100
1000
0001
0000
0000
0000
0011
0000
0000
0000
0101
0000
0000
0000
,
0000
0000
2000
0000
3100
0010
0001
1000
,
0010
0100
0001
0000
1000
0001
0000
0001
,
1000
0000
0200
0000
0310
0001
1000
0100
,
0001
0100
1000
0000
1000
0010
0000
0100
,
0002
0000
1003
0100
1000
0200
0000
0310
,
0001
0020
0000
0130
0000
1000
0000
0010
,
0100
0001
0000
0000
2000
0000
3100
0010
,
0001
1000
0000
1000
0010
0001
0010
0100
,
0010
1000
0100
1000
0010
0100
0001
1000
,
1000
0100
0010
0001
1000
0010
0100
0000
,
0001
1000
0100
0010
0100
1000
0010
0000
,
0010
0100
0001
1000
1000
0100
1000
0000
,
0001
0010
0200
0000
1300
0200
0000
1300
,
0010
0200
0000
0000
0300
0010
0100
1000
,
0100
0020
0000
0000
0030
1000
0010
0100
,
0001
1000
1100
0000
1100
0000
0001
1000
,
0010
1000
1010
0000
0110
0000
0011
0000
,
1000
0001
1000
0000
1010
0000
0000
0000
0110
0000
0000
0000
1001
0000
0000
0000
,
0100
0010
0100
0000
0001
0000
0000
0001
0000
0000
0001
0000
1000
0100
1000
0000
,
0001
1000
1010
0000
0110
0000
0101
0000
,
0001
1000
0001
0000
0110
0000
0000
0000
1001
0000
0000
0000
0110
0000
0000
0000
,
0100
0001
1001
0000
0110
0000
1001
0000
,
0001
0010
0100
0000
1000
0000
0000
1000
0000
0000
1000
0000
0001
0000
0100
0000
,
0001
0000
1000
0100
0010
0000
0000
0000
0011
0000
0000
0000
0100
0000
0001
0000
,
0100
0000
0001
0000
1001
0000
0000
0000
0010
0100
0001
0000
0200
0000
0300
0000
,
0001
1000
0001
0000
0020
0000
0030
0000
0001
1000
0001
0000
0200
0000
0300
0000
,
0001
0010
0100
0000
1000
0000
0000
1000
0000
0000
1000
0000
0100
0010
0001
0000
,
0010
0001
1000
0001
0010
0001
1000
0010
,
0100
0001
1000
0000
0010
0000
0100
0000
0020
0000
0000
0000
0130
0000
0000
0000
,
0100
0001
1001
0000
0001
1000
1010
0000
,
0010
1000
0010
0000
0100
0000
0000
0100
0000
0000
0100
0000
0001
0000
0010
0000
,
0100
0000
0010
0001
0010
0000
0000
0000
0011
0000
0000
0000
1000
0000
0001
0000
,
1000
0001
1001
0100
0100
0001
1000
0001
,
0100
0010
1010
0100
0010
0001
0001
0000
,
1000
0010
0110
1000
0001
0010
0100
0000
,
1000
0001
0101
0100
0001
1000
0100
0000
,
0010
1000
1100
0001
2000
0000
3010
0000
,
0010
1000
1100
0000
1100
0000
1000
0010
,
1000
0010
1010
0000
0001
0010
0100
1000
,
1000
0100
0011
0000
0011
0000
1000
0010
,
1000
0000
0010
0000
1010
0000
0000
0000
1000
0001
1000
0000
0200
0000
0300
0000
,
1000
0100
1000
0000
0020
0000
0030
0000
0100
0001
0100
0000
0020
0000
0030
0000
,
1000
0001
1000
0000
0010
0000
0000
0010
0000
0000
0010
0000
1000
0100
1000
0000
,
0100
0010
0001
0000
1001
0000
0110
0000
,
1000
0001
1000
0000
0100
0000
0010
0000
0002
0000
0000
0000
1003
0000
0000
0000
,
0001
0100
0110
0000
1000
0001
0011
0000
,
1000
0001
1000
0000
0001
0000
0000
0001
0000
0000
0001
0000
1000
0000
0100
0000
,
0010
0000
0001
1000
0010
0000
0000
0000
0000
0000
0000
0000
0000
0000
0000
0000
;

//---------------dance-single - ----------------
#NOTEDATA:;
#CHARTNAME:;
#STEPSTYPE:dance-single;
#DESCRIPTION:;
#CHARTSTYLE:;
#DIFFICULTY:Medium;
#METER:8;
#RADARVALUES:0.365978,0.399198,0.125649,0.097727,0.000000,367.000000,349.000000,18.000000,14.000000,0.000000,0.000000,0.000000,0.000000,0.000000,0.365978,0.399198,0.125649,0.097727,0.000000,367.000000,349.000000,18.000000,14.000000,0.000000,0.000000,0.000000,0.000000,0.000000;
#CREDIT:Rajeious Chart;
#NOTES:
0000
0000
0000
0000
,
0000
0000
0000
0000
,
0000
0000
0000
0000
,
0000
0000
0000
0000
,
0000
0000
0000
0000
,
0000
0000
0001
0000
0000
1000
0100
0010
,
0001
0000
1000
0000
0000
0010
0000
1000
,
0001
0000
0100
0000
0000
1000
0100
0010
,
0001
0000
1000
0000
0000
0010
0000
0100
,
0010
0000
1000
0000
0000
0001
0000
0010
,
0100
0000
1000
0000
0000
0001
0000
0100
,
0010
0000
1000
0000
0000
0001
0000
0010
,
0001
0000
1000
0000
0100
0000
0010
0001
,
1000
0000
0010
0000
0000
1000
0000
0100
,
0010
0001
1000
0000
0000
1000
0000
0010
,
1000
0000
0001
0000
0000
1000
0100
0010
,
0100
0000
1000
0000
0000
0001
0000
1000
,
0010
0000
0100
0000
0000
0001
0000
1000
,
0100
0000
0010
0000
0000
0001
0000
1000
,
0010
0000
0100
0000
0000
0001
0000
1000
,
0100
0000
0010
0000
0001
0000
1000
0001
,
1000
0001
0100
0000
0010
0000
1000
0000
,
0001
0010
0100
0000
1000
0000
0010
0000
,
1000
0010
0100
0000
0001
0000
0100
0000
,
0010
1000
0001
0000
1000
0000
0100
0000
,
1000
0001
1000
0000
0001
0000
0010
0000
,
0001
0100
0010
0000
1000
0000
0001
0000
,
0010
0001
0100
0000
0010
0000
1000
0000
,
0001
1000
0001
0000
0100
0000
0010
0000
,
0000
0000
1000
0000
0000
0001
0000
0010
,
0001
0100
0010
0000
0000
1000
0000
0001
,
1000
0000
0010
0000
0000
0001
0000
0010
,
0001
0100
0010
0000
0000
1000
0000
0001
,
1000
0000
0001
0000
0000
0010
0000
0001
,
0100
0000
0010
0000
0000
1000
0000
0001
,
1000
0000
0100
0000
0000
1000
0000
0001
,
0010
0000
0001
0000
0100
0000
0001
1000
,
0010
0000
1000
0001
0010
0000
0001
0100
,
0010
0000
1000
0001
1000
0001
1000
0000
,
0010
0100
0001
0000
0001
0010
0100
0000
,
1000
0001
0100
0000
0001
0010
0100
0000
,
1000
0001
1000
0000
0010
0100
0000
0001
,
1000
0000
0001
0000
1000
0001
0000
0100
,
0010
0000
1000
0000
0100
0010
0000
0001
,
0100
0000
0010
0000
1000
0000
0001
1000
,
0001
1000
0010
0000
0100
0000
0001
0000
,
1000
0100
0010
0000
0001
0000
0100
0000
,
0010
1000
0001
0000
0010
0000
0100
0000
,
1000
0001
1000
0000
0010
0000
0010
0000
,
0100
0010
0100
0000
0001
0000
1000
0000
,
0100
0010
0001
0000
1000
0000
1000
0000
,
0001
0010
0001
0000
0100
0000
0010
0000
,
1000
0000
0001
0000
0100
0000
0001
0100
,
0001
0100
0002
0000
1003
0100
2000
0000
,
3001
0010
0002
0000
0103
0010
0200
0000
,
0301
1000
0001
0000
0010
0100
1000
0000
,
0001
0010
0002
0000
0103
0010
2000
0000
,
3001
0010
0001
0000
0100
0000
0001
0000
,
1000
0001
2000
0000
3001
0010
0002
0000
,
0103
0010
0100
0000
0001
1000
0001
0000
,
1000
0000
0110
0000
0110
0000
0001
1000
,
0001
1000
0001
0000
0100
0001
1000
0000
,
0100
0000
1010
0000
0001
0010
0001
0000
,
0100
0000
0110
0000
1000
0001
1000
0000
,
0100
0000
0011
0000
0001
1000
0001
0000
,
0100
1001
1000
0001
,
1000
0000
1010
0000
1010
0000
0001
0100
,
0001
0100
0001
0000
1000
0100
1000
0000
,
0001
0000
0011
0000
0011
0000
0100
0001
,
0100
0001
0100
0000
0020
0000
2030
0000
,
3001
1001
1001
1001
,
0000
0110
0000
0000
,
0001
1001
0110
0110
,
1000
0001
0020
0000
0130
1000
0002
0000
,
0103
0010
2000
0000
3001
0010
0002
0000
,
0103
0010
1000
0000
0001
0010
0001
0000
,
1000
1001
0000
0000
;

//---------------dance-single - ----------------
#NOTEDATA:;
#CHARTNAME:;
#STEPSTYPE:dance-single;
#DESCRIPTION:;
#CHARTSTYLE:;
#DIFFICULTY:Easy;
#METER:4;
#RADARVALUES:0.240329,0.266132,0.041883,0.048864,0.000000,241.000000,235.000000,6.000000,7.000000,0.000000,0.000000,0.000000,0.000000,0.000000,0.240329,0.266132,0.041883,0.048864,0.000000,241.000000,235.000000,6.000000,7.000000,0.000000,0.000000,0.000000,0.000000,0.000000;
#CREDIT:Rajeious Chart;
#NOTES:
0000
0000
0000
0000
,
0000
0000
0000
0000
,
0000
0000
0000
0000
,
0000
0000
0000
0000
,
0000
0000
0000
0000
,
0000
1000
0100
0010
,
0001
2000
0000
0010
,
0000
3001
0001
0010
,
0100
2000
0000
0001
,
0000
3001
0010
0100
,
0000
0001
0010
0100
,
0000
1000
0001
0100
,
0010
1000
0001
0010
,
0010
0001
1000
0100
,
0010
0002
0000
1000
,
0000
0103
0010
0001
,
0010
0200
0000
0010
,
0000
0310
0100
0010
,
0000
0001
0010
0100
,
0000
1000
0000
0001
,
0000
1000
0001
1000
,
0100
0010
0010
0001
,
0001
1000
1000
0010
,
0010
0100
0001
1000
,
0100
1000
0001
1000
,
0010
0100
0100
0001
,
0001
1000
1000
0010
,
0010
1000
0001
1000
,
0010
0100
0010
1000
,
0000
1000
0100
0010
,
0001
2000
0000
0010
,
0000
3001
0001
0010
,
0001
2000
0000
0001
,
0000
3100
0100
1000
,
0000
0001
1000
0001
,
0000
1000
0000
0010
,
0000
1000
0010
1000
,
0100
1000
0001
0100
,
0010
1000
0001
1000
,
0000
0001
1000
0001
,
0000
1000
0010
0100
,
0000
0001
0000
1000
,
0000
0001
0010
0100
,
1000
0010
0000
1000
,
0000
0001
1000
0001
,
1000
0010
0010
1000
,
1000
0001
0001
0010
,
0010
0100
1000
0100
,
1000
0010
0010
0100
,
0100
0001
0001
1000
,
1000
0010
1000
0010
,
1000
0001
0001
0100
,
0100
0010
0000
0010
,
0000
1000
0001
1000
,
0010
1000
0010
1000
,
0001
0100
0010
1000
,
0100
0010
0001
1000
,
0010
0100
0001
1000
,
0000
0001
0010
0100
,
1000
0010
0100
0001
,
1000
0010
0000
0010
,
0000
0010
1000
0010
,
0100
0001
0010
0001
,
0001
1000
0100
1000
,
0010
0100
0001
1000
,
0001
1000
0010
1000
,
0000
0001
1000
0002
,
0000
1003
0010
1000
,
0000
0001
0000
0001
,
0000
1001
0000
0000
,
0000
1001
0000
0000
,
0000
1010
0000
0000
,
0110
0110
0000
1001
,
0000
0001
0010
0100
,
0100
1000
0100
0010
,
0001
1000
0010
0100
,
0001
0010
0000
0000
;

//---------------dance-single - ----------------
#NOTEDATA:;
#CHARTNAME:;
#STEPSTYPE:dance-single;
#DESCRIPTION:;
#CHARTSTYLE:;
#DIFFICULTY:Beginner;
#METER:2;
#RADARVALUES:0.135621,0.186292,0.006981,0.000000,0.000000,136.000000,135.000000,1.000000,0.000000,0.000000,0.000000,0.000000,0.000000,0.000000,0.135621,0.186292,0.006981,0.000000,0.000000,136.000000,135.000000,1.000000,0.000000,0.000000,0.000000,0.000000,0.000000,0.000000;
#CREDIT:Rajeious Chart;
#NOTES:
0000
0000
0000
0000
,
0000
0000
0000
0000
,
0000
0000
0000
0000
,
0000
0000
0000
0000
,
0000
0000
0000
0000
,
0000
1000
0000
0001
,
0000
1000
0000
0010
,
0000
1000
0000
0001
,
0000
0010
0000
0001
,
0000
1000
0000
0000
,
0000
0001
0000
0000
,
0000
1000
0000
0000
,
0000
0001
0000
0010
,
0000
0001
0000
1000
,
0000
0100
0000
1000
,
0000
0010
0000
0100
,
0000
0001
0000
1000
,
0000
0001
0000
0000
,
0000
0001
0000
0000
,
0000
1000
0000
0000
,
0000
1000
0000
1000
,
0000
0010
0000
0010
,
0000
1000
0000
1000
,
0000
0001
0000
1000
,
0000
0001
0000
1000
,
0000
0010
0000
1000
,
0000
0001
0000
0010
,
0000
0001
0000
1000
,
0000
0010
0000
0100
,
0000
0001
0000
1000
,
0000
0100
0000
1000
,
0000
0001
0000
1000
,
0000
0010
0000
1000
,
0000
0001
0000
0000
,
0000
0001
0000
0000
,
0000
0001
0000
0000
,
0000
0100
0000
0010
,
0000
0100
0000
0001
,
0000
1000
0000
0001
,
0000
0100
0000
0010
,
0000
1000
0000
0001
,
0000
1000
0000
0000
,
0000
1000
0000
0000
,
0000
1000
0000
0001
,
0000
0100
0000
0010
,
0000
1000
0000
0001
,
0000
0010
0010
0001
,
0000
1000
0000
0001
,
0000
0100
0000
0010
,
0000
1000
0000
0001
,
0000
1000
1000
0001
,
0000
0100
0000
0010
,
0000
1000
0000
0000
,
0000
0001
0000
1000
,
0000
0010
0010
1000
,
0000
0001
0000
1000
,
0000
1000
1000
0001
,
0000
0100
0000
0000
,
0000
0010
0000
1000
,
0000
0001
0000
1000
,
0000
0001
0100
0001
,
0000
1000
0000
0010
,
0000
1000
1000
0100
,
0000
1000
0000
0001
,
0000
0001
0001
1000
,
0000
0010
0000
0000
,
0000
0001
0000
0000
,
0000
0001
0000
1000
,
0000
0010
0010
0010
,
0000
1000
0000
0000
,
1000
1000
0000
0000
,
0000
0010
0000
0000
,
0000
0010
0000
0010
,
0000
1000
0000
0001
,
0000
1000
0100
1000
,
0000
0010
0000
1000
,
0000
1001
0000
0000
;
