#VERSION:0.83;
#TITLE:I GOT YOU;
#SUBTITLE:;
#ARTIST:TWICE;
#TITLETRANSLIT:;
#SUBTITLETRANSLIT:;
#ARTISTTRANSLIT:;
#GENRE:;
#ORIGIN:;
#CREDIT:;
#BANNER:AV.avi;
#BACKGROUND:BG.png;
#PREVIEWVID:;
#JACKET:jacket.png;
#CDIMAGE:;
#DISCIMAGE:;
#LYRICSPATH:;
#CDTITLE:;
#MUSIC:audio.ogg;
#OFFSET:-0.026000;
#SAMPLESTART:43.996952;
#SAMPLELENGTH:14.999992;
#SELECTABLE:YES;
#BPMS:0.000=176.000;
#STOPS:;
#DELAYS:;
#WARPS:;
#TIMESIGNATURES:0.000=4=4;
#TICKCOUNTS:0.000=4;
#COMBOS:0.000=1;
#SPEEDS:0.000=1.000=0.000=0;
#SCROLLS:0.000=1.000;
#FAKES:;
#LABELS:0.000=Song Start;
#BGCHANGES:0.000=MV.avi=1.000=1=0=1===CrossFade==,
99999=-nosongbg-=1.000=0=0=0 // don't automatically add -songbackground-
;
#KEYSOUNDS:;
#ATTACKS:
;

//---------------dance-single - ----------------
#NOTEDATA:;
#CHARTNAME:;
#STEPSTYPE:dance-single;
#DESCRIPTION:;
#CHARTSTYLE:;
#DIFFICULTY:Challenge;
#METER:13;
#RADARVALUES:0.544794,0.603096,0.088277,0.370763,0.000000,432.000000,422.000000,10.000000,42.000000,0.000000,0.000000,0.000000,0.000000,0.000000,0.544794,0.603096,0.088277,0.370763,0.000000,432.000000,422.000000,10.000000,42.000000,0.000000,0.000000,0.000000,0.000000,0.000000;
#CREDIT:Rajeious's Chart;
#NOTES:
0000
0000
0000
0000
,
0000
0000
0000
0000
,
0000
0000
0000
0000
,
0000
0000
0000
0000
,
0000
0000
0000
0000
,
0000
0000
0000
0000
,
0000
0000
0000
0000
,
0000
0000
0000
0000
0000
0000
0000
1000
,
0010
1000
0100
0010
0001
0000
1000
0010
,
0001
0010
0100
0010
1000
0000
0001
0000
,
1000
0100
0020
0000
0032
0000
1003
0100
,
1000
0001
0200
0000
0320
0000
2030
0000
,
3001
0010
0100
1000
0001
0010
0100
1000
,
0001
0100
0001
1000
0100
0020
0000
0000
,
0031
1000
0001
1000
0100
0000
1000
0010
,
0100
0000
0001
0000
1000
0001
1000
0001
,
0100
0010
0001
0010
0100
0001
0000
1000
,
0100
1000
0010
0100
0001
0010
0000
0010
,
0001
1000
0200
0000
1300
0001
2000
0000
,
3100
0010
0002
0000
1003
0010
0200
0000
,
0301
0010
0100
1000
0001
1000
0000
0010
,
0100
0001
0010
0001
1000
0020
0100
0000
,
1030
0001
1000
0001
0100
0010
0000
1000
,
0010
0000
1000
0001
1000
0010
0000
0010
,
1000
0000
0002
0000
1003
0000
0000
0100
,
0010
0000
2000
0000
3001
0000
0000
0010
,
0100
0000
0002
0000
0013
0000
0000
1000
,
0100
0000
0020
0000
0031
0000
0000
0100
,
0010
0000
2000
0000
3001
0000
0000
0001
,
0010
0000
0200
0000
1300
0000
0000
0001
,
1000
0000
0020
0000
0130
0000
0000
0001
,
0100
0001
0000
0000
,
0000
0000
1000
0000
0101
0000
0010
0100
,
0010
0100
0001
0000
1001
0000
1000
0100
,
0001
0100
1000
0002
0000
1000
0000
0103
,
0010
0001
0010
0200
0000
0001
0000
0310
,
1000
0000
1002
0000
0100
0000
1003
0010
,
1000
0010
0100
0000
0101
0000
1000
0001
,
1000
0020
0000
0130
0001
2000
0000
3001
,
0010
0200
0000
1300
0100
0020
0000
0031
,
0000
0001
2000
0000
0001
0000
3001
0100
,
0001
0100
0020
0000
1000
0000
1030
0100
,
0010
0100
1000
0002
0000
0010
0000
1003
,
0010
0100
0001
0020
0000
1000
0000
0031
,
1000
0001
0200
0000
0320
0000
1030
0100
,
2000
0000
0001
0000
3010
0100
0001
1000
,
0100
0000
2000
0000
3200
0000
0310
0001
,
0020
0000
0031
1000
0100
1000
0100
0010
,
0001
0100
0010
0000
1000
0100
0010
0100
,
1000
0000
0010
0100
0001
0010
0000
0010
,
0100
1000
0001
0000
1000
0100
0010
0100
,
1000
0000
0010
1000
0100
0010
0000
0010
,
0001
0100
0010
0000
1000
0100
0001
0100
,
1000
0000
0001
1000
0100
0010
0000
0010
,
0001
0100
0001
0000
0010
0001
0100
0010
,
1000
0000
1001
0000
0100
0010
0100
0001
,
1000
0000
0001
0010
1000
0010
0000
0001
,
0010
1000
0010
0001
0000
1000
0001
0000
,
0001
0000
1000
0100
0001
0100
0000
1000
,
0100
0001
0100
1000
0000
0001
0100
0000
,
0100
0000
0010
1000
0100
1000
0000
0010
,
1000
0100
1000
0010
0000
0010
1000
0000
,
0001
0200
0000
0000
,
0000
0000
0000
0000
,
0300
0000
0000
0000
1001
0000
0000
0010
,
1000
0010
0100
0000
0101
0000
0010
0001
,
0100
0010
1000
0200
0000
0001
0000
1300
,
0010
1000
0100
0020
0000
0100
0000
0031
,
1000
0000
1000
0100
0001
0100
0010
0000
,
0011
0000
1000
0001
0100
0001
0010
0100
,
1000
0000
0001
0100
1000
0100
0010
0000
,
0110
0000
1000
0100
1000
0010
0100
0001
,
0001
0010
0011
0000
0100
0010
1000
0100
,
0010
0001
0010
0100
0010
0100
1000
0001
,
1000
0001
0100
0000
0001
1000
0010
0100
,
0010
0001
0010
1000
0100
0010
0001
1000
,
0001
1000
0010
0000
0010
0100
0001
0010
,
1000
0010
0100
1000
0010
1000
0001
0100
,
0001
0100
0020
0000
2030
0000
3001
0100
,
0002
0000
1003
0010
1000
0010
0100
0001
,
0020
0000
0000
0030
0000
0000
0000
0000
;

//---------------dance-single - ----------------
#NOTEDATA:;
#CHARTNAME:;
#STEPSTYPE:dance-single;
#DESCRIPTION:;
#CHARTSTYLE:;
#DIFFICULTY:Hard;
#METER:11;
#RADARVALUES:0.437601,0.532144,0.061794,0.697387,0.000000,347.000000,340.000000,7.000000,79.000000,0.000000,0.000000,0.000000,0.000000,0.000000,0.437601,0.532144,0.061794,0.697387,0.000000,347.000000,340.000000,7.000000,79.000000,0.000000,0.000000,0.000000,0.000000,0.000000;
#CREDIT:Rajeious's Chart;
#NOTES:
// measure 0
0000
0000
0000
0000
,  // measure 1
0000
0000
0000
0000
,  // measure 2
0000
0000
0000
0000
,  // measure 3
0000
0000
0000
0000
,  // measure 4
0000
0000
0000
0000
,  // measure 5
0000
0000
0000
0000
,  // measure 6
0000
0000
0000
0000
,  // measure 7
0000
0000
0000
0000
0000
0000
0000
1000
,  // measure 8
0100
0010
0001
1000
0000
0000
0000
0010
,  // measure 9
0100
0001
1000
0100
0000
0000
0000
0000
,  // measure 10
0010
1000
0002
0000
0203
0000
0302
0000
,  // measure 11
1003
0100
0020
0000
0032
0000
0023
0000
,  // measure 12
0031
1000
0100
0010
0001
0000
0001
0000
,  // measure 13
1000
0100
1000
0001
0010
0002
0000
0000
,  // measure 14
1003
0001
0010
0001
0010
0000
0001
0000
,  // measure 15
0100
0010
1000
0001
,  // measure 16
1000
0100
0001
0100
1000
0000
0001
0000
,  // measure 17
0001
0010
1000
0010
0001
0000
1000
0000
,  // measure 18
0010
1000
0002
0000
0203
0000
0320
0000
,  // measure 19
0130
0001
2000
0000
3020
0000
2030
0000
,  // measure 20
3010
0100
0010
0000
0100
0000
0001
0000
,  // measure 21
0100
0010
0100
0100
0001
1000
0000
0000
,  // measure 22
0001
0100
0001
0100
0010
0000
0001
0000
,  // measure 23
1000
0000
0001
0000
0100
0010
0100
0000
,  // measure 24
0001
0000
1000
0000
0100
0020
0000
2030
,  // measure 25
0000
3002
0000
0000
0000
0003
0000
0000
,  // measure 26
1000
0100
1000
0000
0010
0200
0000
0302
,  // measure 27
0000
2003
0000
0000
0000
3000
0000
0000
,  // measure 28
0001
1000
0001
0000
0100
0020
0000
2030
,  // measure 29
0000
3200
0000
0000
0000
0300
0000
0000
,  // measure 30
0001
1000
0000
0000
0020
0000
0030
2000
,  // measure 31
0000
3000
0001
0100
0010
1000
0000
0100
,  // measure 32
0000
0000
0001
0000
1001
0000
0000
0010
,  // measure 33
0100
0010
1000
0000
1001
0000
0000
1000
,  // measure 34
0010
0200
0000
0320
0000
2030
0000
3001
,  // measure 35
0010
0002
0000
2003
0000
3020
0000
0130
,  // measure 36
0001
0000
1000
0000
1100
0000
0000
1000
,  // measure 37
0010
0100
0001
0000
1001
0000
0000
0010
,  // measure 38
0100
0002
0000
1003
0100
0020
0000
0032
,  // measure 39
0000
2003
0000
3020
0000
0230
0000
0301
,  // measure 40
1000
0000
0010
0000
0110
0000
0000
0001
,  // measure 41
1000
0001
1000
0000
1010
0000
0000
0001
,  // measure 42
0010
0200
0000
2300
0000
3020
0000
1030
,  // measure 43
0100
0020
0000
0032
0000
0203
0000
0301
,  // measure 44
1000
2000
3020
0230
,  // measure 45
0302
0000
1000
0000
0103
0000
0010
1000
,  // measure 46
0010
0200
0302
0023
,  // measure 47
0230
0000
1300
0010
0100
0010
1000
0010
,  // measure 48
0100
0000
0001
0000
0100
1000
0010
0000
,  // measure 49
0100
0000
0001
1000
0001
0200
0300
0020
,  // measure 50
0030
2000
0000
3000
0001
0100
0001
0000
,  // measure 51
1000
0000
0010
0100
0010
2000
3000
0200
,  // measure 52
0300
0020
0000
0030
0001
1000
0010
0000
,  // measure 53
0100
0000
0001
1000
0010
0200
0300
0002
,  // measure 54
0003
2000
0000
3000
0010
0000
0100
0001
,  // measure 55
1000
0000
0010
0000
0100
0000
0001
1000
,  // measure 56
0001
0000
0100
0000
0000
0100
0000
0000
,  // measure 57
0010
0000
0000
0010
0000
0000
1000
0001
,  // measure 58
1000
0000
0001
0000
0000
0001
0000
0000
,  // measure 59
0100
0000
0000
0100
0000
0000
0010
0100
,  // measure 60
0010
0000
1000
0000
0000
1000
0000
0000
,  // measure 61
0001
0000
0000
0001
0000
0000
0100
0010
,  // measure 62
0100
0020
0000
0000
,  // measure 63
0000
0000
0000
0000
,  // measure 64
0030
0000
0000
0000
1001
0000
0100
0010
,  // measure 65
0001
0000
0100
0000
0010
0000
0001
1000
,  // measure 66
0001
0100
0010
0000
1000
0000
0100
1000
,  // measure 67
0010
1000
0100
0000
1000
0000
0010
0100
,  // measure 68
0010
0000
0200
0000
0302
0000
1003
0100
,  // measure 69
2000
0000
3001
0000
0001
0000
1000
0100
,  // measure 70
1000
0000
0002
0000
0023
0000
0130
1000
,  // measure 71
0002
0000
0103
0010
0100
0010
0100
0001
,  // measure 72
1000
0100
0010
0000
0100
0001
1000
0000
,  // measure 73
0100
0000
0010
1000
0001
2000
3000
0020
,  // measure 74
0030
0200
0000
0300
1000
0001
0100
0000
,  // measure 75
0010
0000
1000
0001
0010
0200
0300
2000
,  // measure 76
3000
0002
0000
0003
0100
0010
0100
0000
,  // measure 77
0001
0000
0010
0100
1000
0002
0003
0200
,  // measure 78
0300
0010
2000
0000
3002
0000
0203
0000
,  // measure 79
0320
0000
0130
0001
0100
0010
0100
0001
,  // measure 80
2000
0000
0000
3000
0000
0000
0000
0000
;

//---------------dance-single - ----------------
#NOTEDATA:;
#CHARTNAME:;
#STEPSTYPE:dance-single;
#DESCRIPTION:;
#CHARTSTYLE:;
#DIFFICULTY:Medium;
#METER:8;
#RADARVALUES:0.356891,0.425715,0.114760,0.229520,0.000000,283.000000,270.000000,13.000000,26.000000,0.000000,0.000000,0.000000,0.000000,0.000000,0.356891,0.425715,0.114760,0.229520,0.000000,283.000000,270.000000,13.000000,26.000000,0.000000,0.000000,0.000000,0.000000,0.000000;
#CREDIT:Rajeious's Chart;
#NOTES:
0000
0000
0000
0000
,
0000
0000
0000
0000
,
0000
0000
0000
0000
,
0000
0000
0000
0000
,
0000
0000
0000
0000
,
0000
0000
0000
0000
,
0000
0000
0000
0000
,
0000
0000
0000
0000
,
0000
0000
0001
0000
0001
1000
0001
0000
,
0000
0000
0010
0000
0010
1000
0001
0000
,
0000
0100
0100
0001
,
0010
1000
1000
0010
,
0001
0000
0100
0000
0100
0001
1000
0000
,
0000
0000
0100
0000
0100
0001
1000
0000
,
0000
0100
0100
0010
,
0001
1000
1000
0010
,
0100
0001
1000
0100
,
1001
0010
0010
1000
,
1100
0002
2003
3200
,
1300
0001
2000
0000
3020
0000
0230
0000
,
0301
0001
0100
0010
,
1001
1000
0010
0100
,
0101
0001
1000
0100
,
0011
0000
0001
0000
1000
0100
0000
0100
,
1000
0010
1000
0000
,
0001
1000
0010
0000
,
1000
0001
0100
0000
,
0010
1000
0001
0000
,
1000
0100
1000
0000
,
0010
0100
0010
0000
,
1000
0001
1000
0000
,
0010
1000
0000
0000
,
0000
1000
0001
0100
,
1010
1000
1000
0001
,
0101
0000
0010
0000
0100
0000
0001
1000
,
0001
0000
0100
0000
0100
0000
0010
1000
,
0001
0100
0010
0100
,
1001
0010
0100
0001
,
1100
0000
0100
0000
0010
0000
0001
0100
,
0001
0000
0100
0000
0100
0000
0001
1000
,
0000
1000
0001
0000
0100
0000
0001
0000
,
1001
0100
0010
0001
,
1100
0000
0010
0000
0100
0000
0001
1000
,
0001
0000
0100
0000
0010
0000
1000
0001
,
1000
0010
0200
0302
,
2003
0010
3010
0001
,
1000
0200
0320
0032
,
2003
0000
0100
0000
3010
0000
1000
0001
,
0100
0001
0100
0000
0010
0000
1000
0000
,
0000
0100
0010
0001
,
0010
0100
1000
0010
,
0000
0100
0001
1000
,
0100
0010
0001
1000
,
0000
0010
0100
0001
,
1000
0100
1000
0010
,
0100
0001
0001
1000
,
1000
0010
0000
0000
,
0000
0000
0000
0010
,
0010
1000
0000
0000
,
0000
0000
0000
0100
,
0100
0001
0000
0000
,
0000
0000
0000
1000
,
1000
0010
0000
0000
,
0000
0000
0000
0000
,
0000
0000
1001
0000
,
1001
0000
0010
0000
0100
0000
0001
1000
,
0001
0000
0100
0000
0010
0000
1000
0001
,
1000
0000
0010
0000
0100
0000
0001
0010
,
0100
2000
3200
2300
,
3002
0000
0100
0000
1003
0000
0010
1000
,
0100
2000
3200
0320
,
0032
0000
1000
0000
0103
0000
0000
0001
,
1000
0001
1000
0000
0010
0000
1000
0000
,
0100
0000
0010
0001
0010
0000
0001
0000
,
0100
1000
0100
0001
,
0100
0000
0100
0010
1000
0000
0010
0000
,
0100
0001
0001
0010
,
0100
0000
1000
0000
1000
0001
0010
0000
,
0001
2000
3020
0230
,
0320
0000
1000
0000
1030
0000
0001
0100
,
0002
0000
0000
0003
0000
0000
0000
0000
;

//---------------dance-single - ----------------
#NOTEDATA:;
#CHARTNAME:;
#STEPSTYPE:dance-single;
#DESCRIPTION:;
#CHARTSTYLE:;
#DIFFICULTY:Easy;
#METER:4;
#RADARVALUES:0.250958,0.318790,0.008828,0.035311,0.000000,199.000000,198.000000,1.000000,4.000000,0.000000,0.000000,0.000000,0.000000,0.000000,0.250958,0.318790,0.008828,0.035311,0.000000,199.000000,198.000000,1.000000,4.000000,0.000000,0.000000,0.000000,0.000000,0.000000;
#CREDIT:Rajeious's Chart;
#NOTES:
0000
0000
0000
0000
,
0000
0000
0000
0000
,
0000
0000
0000
0000
,
0000
0000
0000
0000
,
0000
0000
0000
0000
,
0000
0000
0000
0000
,
0000
0000
0000
0000
,
0000
0000
0000
0000
,
0000
1000
0010
0000
,
0100
0001
1000
0000
,
0010
0100
0001
0000
,
1000
0100
0010
0000
,
0001
1000
0010
0000
,
1000
0100
1000
0000
,
0001
0100
0001
0000
,
0010
1000
0010
0000
,
0100
0001
0010
0100
,
1000
1000
0010
0100
,
0000
0001
0010
0001
,
0000
1000
0100
1000
,
0000
0100
0001
0100
,
0000
0100
0010
1000
,
0000
1000
0010
0100
,
0000
1000
0100
0010
,
0000
1000
0001
0000
,
0000
1000
0010
0000
,
0000
0100
0001
0000
,
0000
0010
0010
0000
,
0000
1000
1000
0000
,
0000
0001
0001
0000
,
0000
0100
0100
0000
,
0010
0010
0000
0000
,
0000
0001
1000
0000
,
0010
0100
0001
0000
,
1000
0100
0010
0001
,
1000
0010
0100
0001
,
1000
0100
0010
0000
,
0001
1000
0001
0000
,
1000
0100
1000
0010
,
0100
0001
0010
0001
,
1000
0010
0100
0000
,
0001
1000
0001
0000
,
1000
0100
1000
0010
,
1000
0001
0100
0001
,
1000
0001
0010
0100
,
1000
0000
0000
0000
,
0000
0010
1000
0100
,
0010
0000
0001
1000
,
0010
0100
0001
1000
,
0000
0010
0000
1000
,
0000
0001
0100
0010
,
0000
1000
0000
0001
,
0000
1000
0010
0100
,
0000
0001
0000
0010
,
0000
0001
1000
0001
,
0000
1000
0100
1000
,
0000
0020
0000
0000
,
0000
0000
0000
0000
,
0000
2030
0000
0000
,
0000
0000
0000
0000
,
0000
3002
0000
0000
,
0000
0000
0000
0000
,
0000
2003
0000
0000
,
0000
0000
0000
0000
,
3000
0000
1001
0000
,
0010
1000
0001
0000
,
1000
0100
1000
0001
,
0010
0100
1000
0001
,
1000
0100
0010
0001
,
1000
0000
0000
0001
,
0100
0010
1000
0100
,
1000
0000
0001
0001
,
1000
0010
1000
0001
,
0000
1000
0100
1000
,
0010
0100
0001
0001
,
0000
1000
0100
1000
,
0010
0100
0001
0001
,
0000
1000
0001
0010
,
0100
1000
0001
0100
,
0010
0000
1000
0001
,
1000
0010
0000
0000
;

//---------------dance-single - ----------------
#NOTEDATA:;
#CHARTNAME:;
#STEPSTYPE:dance-single;
#DESCRIPTION:;
#CHARTSTYLE:;
#DIFFICULTY:Beginner;
#METER:2;
#RADARVALUES:0.142504,0.247175,0.008828,0.000000,0.000000,113.000000,112.000000,1.000000,0.000000,0.000000,0.000000,0.000000,0.000000,0.000000,0.142504,0.247175,0.008828,0.000000,0.000000,113.000000,112.000000,1.000000,0.000000,0.000000,0.000000,0.000000,0.000000,0.000000;
#CREDIT:Rajeious's Chart;
#NOTES:
0000
0000
0000
0000
,
0000
0000
0000
0000
,
0000
0000
0000
0000
,
0000
0000
0000
0000
,
0000
0000
0000
0000
,
0000
0000
0000
0000
,
0000
0000
0000
0000
,
0000
0000
0000
0000
,
0000
0000
1000
0000
,
0000
0000
0001
0000
,
0000
0000
1000
0000
,
1000
0000
0010
0000
,
0010
0000
1000
0000
,
0000
0000
0001
0000
,
0000
0000
1000
0000
,
1000
0000
0010
0000
,
0010
0000
1000
0000
,
1000
0000
0001
0000
,
0001
0000
1000
0000
,
1000
0000
0010
0000
,
0010
0000
1000
0000
,
0100
0000
0010
0000
,
0001
0000
1000
0000
,
0001
0000
0100
0000
,
0010
0000
1000
0000
,
0000
0000
1000
0000
,
0000
0000
0001
0000
,
0000
0000
0001
0000
,
0000
0000
0100
0000
,
0000
0000
0100
0000
,
0000
0000
0010
0000
,
0000
0000
0000
0000
,
0000
0000
1000
0000
,
0000
0000
1000
0000
,
0000
0000
0001
0000
,
0001
0000
0010
0000
,
0100
0000
1000
0000
,
0000
0000
1000
0000
,
0000
0000
0001
0000
,
1000
0000
0001
0000
,
0100
0000
0010
0000
,
0000
0000
0010
0000
,
0000
0000
1000
0000
,
0001
0000
1000
0000
,
0100
0000
1000
0000
,
0010
0000
1000
0000
,
0001
0000
1000
0000
,
0001
0000
1000
0000
,
0010
0000
1000
0000
,
0000
0000
0001
0000
,
0010
0000
0001
0000
,
0000
0000
1000
0000
,
0100
0000
1000
0000
,
0000
0000
0010
0000
,
0100
0000
0010
0000
,
1000
0000
0001
0000
,
1000
0000
0000
0000
,
0000
0000
0000
0000
,
0000
0001
0000
0000
,
0000
0000
0000
0000
,
0000
1000
0000
0000
,
0000
0000
0000
0000
,
0000
1000
0000
0000
,
0000
0000
0000
0000
,
0000
0000
1001
0000
,
0001
0000
1000
0000
,
0010
0000
1000
0000
,
0001
0000
0010
0000
,
0001
0000
1000
0000
,
0001
0000
0010
0000
,
0100
0000
1000
0000
,
0001
0000
0001
1000
,
0001
1000
0010
0000
,
0100
0000
0010
0000
,
0001
0000
1000
0000
,
0001
0000
1000
0000
,
0010
0000
0100
0000
,
0001
0000
1000
0000
,
0100
0000
1000
0000
,
0010
0000
1000
0001
,
1000
0000
0000
0000
;
