#VERSION:0.83;
#TITLE:+Highlander;
#SUBTITLE:;
#ARTIST:Marcus Warner, Kaitlin Ross;
#TITLETRANSLIT:;
#SUBTITLETRANSLIT:;
#ARTISTTRANSLIT:;
#GENRE:;
#ORIGIN:;
#CREDIT:;
#BANNER:bn.png;
#BACKGROUND:bg.png;
#PREVIEWVID:;
#JACKET:jacket.png;
#CDIMAGE:;
#DISCIMAGE:;
#LYRICSPATH:;
#CDTITLE:;
#MUSIC:Highlander.mp3;
#OFFSET:-0.242000;
#SAMPLESTART:48.628017;
#SAMPLELENGTH:15.000000;
#SELECTABLE:YES;
#BPMS:0.000=99.000;
#STOPS:;
#DELAYS:;
#WARPS:;
#TIMESIGNATURES:0.000=4=4;
#TICKCOUNTS:0.000=4;
#COMBOS:0.000=1;
#SPEEDS:0.000=1.000=0.000=0;
#SCROLLS:0.000=1.000;
#FAKES:;
#LABELS:0.000=Song Start;
#BGCHANGES:;
#KEYSOUNDS:;
#ATTACKS:
;

//---------------dance-single - ----------------
#NOTEDATA:;
#CHARTNAME:;
#STEPSTYPE:dance-single;
#DESCRIPTION:;
#CHARTSTYLE:Rajes;
#DIFFICULTY:Challenge;
#METER:12;
#RADARVALUES:0.529843,0.650869,0.158106,0.316212,0.586309,563.000000,539.000000,24.000000,48.000000,6.000000,0.000000,0.000000,0.000000,0.000000,0.529843,0.650869,0.158106,0.316212,0.586309,563.000000,539.000000,24.000000,48.000000,6.000000,0.000000,0.000000,0.000000,0.000000;
#CREDIT:Rajes;
#NOTES:
// measure 0
0000
0000
0000
0000
,  // measure 1
0000
0000
0000
0000
,  // measure 2
0000
0000
0000
0000
,  // measure 3
0000
0000
0000
0000
,  // measure 4
2000
0000
3000
0001
1000
0000
0000
0000
2000
0000
3000
0010
0100
0000
0000
0010
,  // measure 5
1000
0000
0000
0001
0010
0000
0000
1000
0100
0000
0000
1000
0100
0000
0000
0000
,  // measure 6
0020
0000
0030
0001
1000
0000
0000
0000
2000
0000
3000
0010
0100
0000
0000
1000
,  // measure 7
0010
0000
0000
0001
1000
0000
0000
1000
0100
0000
0010
0000
0001
0000
0000
0000
,  // measure 8
0102
0000
0003
1000
0100
0000
1000
0000
0020
0000
0030
0100
0001
0000
0010
0000
,  // measure 9
0200
0000
0300
1000
0010
0000
1000
0000
0200
0000
0300
0000
1100
0000
0000
0000
,  // measure 10
0002
0000
0003
0010
0001
0000
1000
0000
0200
0000
0300
1000
0010
0000
1000
0000
,  // measure 11
0002
0000
0003
0010
0200
0000
0300
1000
0001
0000
0100
0000
0001
0000
0000
0000
,  // measure 12
1010
0000
0000
0100
1000
0000
1000
0000
0010
0000
1000
0100
0010
0000
0001
1000
,  // measure 13
0020
0000
0000
0000
1030
0000
0000
0100
2000
0000
3000
0001
0020
0000
0030
0000
,  // measure 14
0002
0000
0003
1000
0100
0000
1000
0000
0010
0000
0100
0001
1000
0000
0001
1000
,  // measure 15
0002
0000
0003
0010
0002
0000
0003
0100
0010
0000
1000
0000
0010
0000
0100
0000
,  // measure 16
1001
0000
0001
0010
0001
0000
0100
0000
0001
0000
1000
0100
0010
0000
0001
1000
,  // measure 17
0001
0000
1000
0100
0010
0000
0001
0000
1000
0000
0010
0000
1000
0000
0100
0000
,  // measure 18
0001
0000
0100
0010
0100
0000
1000
0000
0001
0000
1000
0010
0100
0000
0001
1000
,  // measure 19
0010
0000
1000
0001
0100
0000
0010
1000
0100
1000
0001
0000
0010
0000
0100
0000
,  // measure 20
1001
0000
0010
0100
1000
0100
0010
0000
1000
0000
0001
0010
0100
0000
1000
0001
,  // measure 21
0010
0000
0001
1000
0010
0000
0100
0001
1000
0001
0100
0000
0010
0000
1000
0000
,  // measure 22
1001
0000
0001
1000
0100
0010
0100
0000
1000
0000
0100
0010
0001
1000
0010
0000
,  // measure 23
1000
0000
0001
0100
0001
0000
0010
0100
1000
0100
1000
0000
0010
0000
0100
0000
,  // measure 24
0110
0000
0001
0010
0001
1000
0100
0000
1000
0001
0010
0001
0010
0000
0001
1000
,  // measure 25
0100
0000
1000
0001
0100
1000
0100
0000
0001
1000
0001
0010
0100
0010
0001
0100
,  // measure 26
0001
0000
1000
0100
0010
0001
1000
0000
1000
0000
0001
0010
1000
0010
0100
1000
,  // measure 27
0001
0000
1000
0100
0010
0000
0001
0010
0001
0000
1100
0000
1001
0000
0000
0000
,  // measure 28
0000
0000
0000
0000
,  // measure 29
0000
0000
0000
2000
,  // measure 30
3001
0010
0100
1000
0001
0000
0001
1000
0001
0010
0100
1000
0001
0000
0001
0100
,  // measure 31
0001
0000
1000
0000
0010
0M00
0010
0000
0001
0000
1000
0000
0010
0M00
0010
0000
0001
0000
1000
0000
0010
0M00
0010
0000
0001
0000
1000
0000
0001
0000
0000
0000
,  // measure 32
0010
0001
0100
0010
0002
0000
0013
0000
0100
0010
1000
0100
0020
0000
0130
0000
,  // measure 33
1000
0100
0001
0100
1000
0100
0001
0000
0100
0000
0010
0100
1000
0000
0100
0000
,  // measure 34
0010
0000
1001
0000
1001
0000
1000
0100
1000
0010
0100
0001
0010
0000
0001
1000
,  // measure 35
0100
0000
1000
0000
0001
00M0
0001
0000
0100
0000
1000
0000
0001
00M0
0001
0000
0100
0000
1000
0000
0001
00M0
0001
0000
0100
0000
1000
0000
0010
0000
1000
0000
,  // measure 36
0001
0010
0100
0001
2000
0000
3010
0000
0100
1000
0010
1000
0002
0000
0103
0000
,  // measure 37
0001
1000
0010
1000
0001
1000
0100
0010
0000
0001
1000
0100
0010
0000
0001
0000
,  // measure 38
1000
0000
0000
0000
0000
0000
0000
0000
0000
0000
0000
0000
0000
0000
0000
0000
0000
0000
0000
0000
0000
0000
0000
0000
1100
0000
0000
0000
0000
0000
0000
0000
0000
0000
0000
0000
0000
0000
0000
0000
0000
0000
0000
0000
0000
0000
0000
0000
0101
0000
0000
0000
0000
0000
0000
0000
0000
0000
0000
0000
0000
0000
0000
0000
0000
0000
0000
0000
0000
0000
0000
0000
1000
0000
0000
0000
0000
0000
0000
0000
0000
0000
0000
0000
0001
0000
0000
0000
0000
0000
0000
0000
0000
0000
0000
0000
0010
0000
0000
0000
0000
0000
0000
0000
0000
0000
0000
0000
0100
0000
0000
0000
0000
0000
0000
0000
0000
0000
0000
0000
2000
0000
0000
0000
0000
0000
0000
0000
0000
0000
0000
0000
0000
0000
0000
0000
0000
0000
0000
0000
0000
0000
0000
3000
1100
0000
0000
0000
0000
0000
0000
0000
0000
0000
0000
0000
0000
0000
0000
0000
0000
0000
0000
0000
0000
0000
0000
0000
1000
0000
0000
0000
0000
0000
0000
0000
0000
0000
0000
0000
0001
0000
0000
0000
0000
0000
0000
0000
0000
0000
0000
0000
,  // measure 39
0010
0000
0000
0000
0000
0000
0000
0000
0000
0000
0000
0000
0100
0000
0000
0000
0000
0000
0000
0000
0000
0000
0000
0000
2000
0000
0000
0000
0000
0000
0000
0000
0000
0000
0000
0000
0000
0000
0000
0000
0000
0000
0000
0000
0000
0000
0000
3000
1100
0000
0000
0000
0000
0000
0000
0000
0000
0000
0000
0000
0000
0000
0000
0000
0000
0000
0000
0000
0000
0000
0000
0000
1000
0000
0000
0000
0000
0000
0000
0000
0000
0000
0000
0000
0001
0000
0000
0000
0000
0000
0000
0000
0000
0000
0000
0000
0010
0000
0000
0000
0000
0000
0000
0000
0000
0000
0000
0000
0100
0000
0000
0000
0000
0000
0000
0000
0000
0000
0000
0000
2000
0000
0000
0000
0000
0000
0000
0000
0000
0000
0000
0000
0000
0000
0000
0000
0000
0000
0000
0000
0000
0000
0000
3000
1100
0000
0000
0000
0000
0000
0000
0000
0000
0000
0000
0000
0000
0000
0000
0000
0000
0000
0000
0000
0000
0000
0000
0000
1000
0000
0000
0000
0000
0000
0000
0000
0000
0000
0000
0000
0100
0000
0000
0000
0000
0000
0000
0000
0000
0000
0000
0000
,  // measure 40
0010
0001
1000
0010
1000
0000
0101
0000
0010
0100
0001
1000
0010
0000
1000
0100
,  // measure 41
0010
0100
1000
0100
0010
0000
0001
0100
0010
0000
1000
0000
1000
0100
1000
0000
,  // measure 42
0010
0000
0000
0000
0000
0000
0000
0000
0000
0000
0000
0000
0000
0000
0000
0000
0000
0000
0000
0000
0000
0000
0000
0000
0100
0000
0000
0000
0000
0000
0000
0000
0000
0000
0000
0000
0000
0000
0000
0000
0000
0000
0000
0000
0000
0000
0000
0000
1010
0000
0000
0000
0000
0000
0000
0000
0000
0000
0000
0000
0000
0000
0000
0000
0000
0000
0000
0000
0000
0000
0000
0000
0001
0000
0000
0000
0000
0000
0000
0000
0000
0000
0000
0000
0010
0000
0000
0000
0000
0000
0000
0000
0000
0000
0000
0000
1000
0000
0000
0000
0000
0000
0000
0000
0000
0000
0000
0000
0001
0000
0000
0000
0000
0000
0000
0000
0000
0000
0000
0000
0200
0000
0000
0000
0000
0000
0000
0000
0000
0000
0000
0000
0000
0000
0000
0000
0000
0000
0000
0000
0000
0000
0000
0300
0110
0000
0000
0000
0000
0000
0000
0000
0000
0000
0000
0000
0000
0000
0000
0000
0000
0000
0000
0000
0000
0000
0000
0000
1000
0000
0000
0000
0000
0000
0000
0000
0000
0000
0000
0000
0010
0000
0000
0000
0000
0000
0000
0000
0000
0000
0000
0000
,  // measure 43
0001
0000
0000
0000
0000
0000
0000
0000
0000
0000
0000
0000
1000
0000
0000
0000
0000
0000
0000
0000
0000
0000
0000
0000
0200
0000
0000
0000
0000
0000
0000
0000
0000
0000
0000
0000
0000
0000
0000
0000
0000
0000
0000
0000
0000
0000
0000
0300
0110
0000
0000
0000
0000
0000
0000
0000
0000
0000
0000
0000
0000
0000
0000
0000
0000
0000
0000
0000
0000
0000
0000
0000
0001
0000
0000
0000
0000
0000
0000
0000
0000
0000
0000
0000
0010
0000
0000
0000
0000
0000
0000
0000
0000
0000
0000
0000
0100
0000
0000
0000
0000
0000
0000
0000
0000
0000
0000
0000
0010
0000
0000
0000
0000
0000
0000
0000
0000
0000
0000
0000
0002
0000
0000
0000
0000
0000
0000
0000
0000
0000
0000
0000
0000
0000
0000
0000
0000
0000
0000
0000
0000
0000
0000
0003
1001
0000
0000
0000
0000
0000
0000
0000
0000
0000
0000
0000
0000
0000
0000
0000
0000
0000
0000
0000
0000
0000
0000
0000
1000
0000
0000
0000
0000
0000
0000
0000
0000
0000
0000
0000
0010
0000
0000
0000
0000
0000
0000
0000
0000
0000
0000
0000
,  // measure 44
0100
0001
0010
0100
1000
0000
0010
0000
1000
0100
0010
0001
0010
0000
0001
1000
,  // measure 45
0010
1000
0001
0010
0100
0000
1000
0000
0001
1000
0001
1000
0010
0000
0100
0000
,  // measure 46
1001
0000
0010
0100
0010
0000
0100
0000
0001
0000
1000
0001
0010
0000
0001
0100
,  // measure 47
1000
0000
0100
0010
0100
0000
0000
0001
0010
0000
0001
0000
0101
0000
0000
0000
,  // measure 48
1000
0000
0001
0100
0010
0000
1000
0000
0010
0000
1000
0001
0010
0000
0001
0100
,  // measure 49
1000
0000
0100
0010
0100
0000
0000
0001
0100
0000
0001
0000
1001
0000
0000
0000
,  // measure 50
0010
0000
0000
1000
0001
0000
0100
0000
0010
0000
0000
1000
0100
0000
0000
0100
,  // measure 51
0010
0000
0000
0010
0001
0000
0100
0000
0002
0000
0000
0000
1003
0000
0000
0000
,  // measure 52
0001
0000
0000
0001
0010
0000
0100
0000
1000
0000
0000
1000
0001
0000
0100
0000
,  // measure 53
0001
0000
0000
0001
0010
0000
0000
0100
1000
0000
0001
0000
0100
0000
0000
0000
,  // measure 54
0002
0000
0003
1000
0100
0000
0000
0000
2000
0000
3000
0001
0010
0000
0000
0000
,  // measure 55
0200
0000
0300
0010
1000
0000
0000
0000
0002
0000
0003
0100
0010
0000
0000
0000
,  // measure 56
2000
0000
3000
0010
0100
0000
0000
0000
0002
0000
0003
0010
0001
0000
0000
0000
,  // measure 57
0200
0000
0300
0001
1000
0000
0000
0100
0010
0000
0000
0001
0100
0000
0000
0000
,  // measure 58
0002
0000
1003
0100
0020
0000
0031
1000
,  // measure 59
0002
0203
0320
2030
,  // measure 60
3002
0000
0023
0000
,  // measure 61
0032
2003
3002
0103
;

//---------------dance-single - ----------------
#NOTEDATA:;
#CHARTNAME:;
#STEPSTYPE:dance-single;
#DESCRIPTION:;
#CHARTSTYLE:Rajes;
#DIFFICULTY:Hard;
#METER:10;
#RADARVALUES:0.436673,0.549171,0.105404,0.223983,0.329387,464.000000,448.000000,16.000000,34.000000,0.000000,0.000000,0.000000,0.000000,0.000000,0.436673,0.549171,0.105404,0.223983,0.329387,464.000000,448.000000,16.000000,34.000000,0.000000,0.000000,0.000000,0.000000,0.000000;
#CREDIT:Rajes;
#NOTES:
0000
0000
0000
0000
,
0000
0000
0000
0000
,
0000
0000
0000
0000
,
0000
0000
0000
0000
,
2000
3000
0100
1000
0020
0030
1000
0001
,
0020
0000
0000
0000
0130
0000
0000
1000
0100
0000
0000
1000
0001
0000
0000
0000
,
0020
0030
0001
1000
0200
0300
1000
0001
,
2000
0000
0000
0000
3001
0000
0000
0001
0010
0000
0001
0000
0100
0000
0000
0000
,
0002
0003
0010
0100
2000
3000
0001
0010
,
0001
0000
0000
0100
0001
0000
0000
1000
0200
0000
0000
0000
0310
0000
0000
0000
,
0002
0003
1000
0001
0020
0030
0001
0100
,
0001
0000
0000
1000
0001
0000
0000
0010
0001
0000
1000
0000
0100
0000
0000
0000
,
0011
0000
0000
0000
0001
0000
1000
0000
0001
0000
0100
0010
0200
0000
0300
0000
,
0020
0000
0000
0000
1030
0000
0000
0001
0010
0000
0000
1000
0100
0000
0000
0000
,
2000
0000
3000
0000
0001
0000
1000
0000
0010
0000
1000
0010
1000
0000
0100
0000
,
0010
0000
0000
0001
0100
0000
0000
0010
1000
0000
0100
0000
1000
0000
0001
0000
,
0011
0000
0000
0000
1000
0000
0100
0000
1000
0010
1000
0000
0001
0000
0010
0000
,
0100
0000
1000
0001
1000
0000
0100
0000
2000
0000
0000
0000
3010
0000
0000
0000
,
1000
0000
0001
0010
0100
0000
1000
0000
0001
0000
0001
1000
0001
0000
0100
0000
,
0010
0000
0000
0010
1000
0000
0000
0001
0010
0000
0100
0000
1000
0000
0000
0000
,
0001
0000
1000
0100
1000
0000
0010
0000
1000
0000
0001
0010
0001
0000
1000
0100
,
2000
0000
0000
0000
3010
0000
0000
1000
0001
0000
0000
1000
0100
0000
0010
0000
,
0001
0000
1000
0100
1000
0000
0010
0000
0100
0000
0001
0010
0001
0000
1000
0000
,
0100
0000
0000
1000
0100
0000
0000
1000
0010
0000
0100
0000
1001
0000
0000
0000
,
1001
0000
0000
0001
0100
0000
0010
0000
0100
0000
0010
0100
0001
0000
1000
0100
,
1000
0000
0001
0010
0100
0000
0010
0000
0001
1000
0001
0000
0100
0000
0010
0000
,
1000
0000
0001
0010
0100
0000
1000
0000
0001
0010
0001
0000
0100
0000
0001
0000
,
1001
0000
0011
0000
1010
0100
1001
0000
,
0000
0000
0000
0000
,
0000
0000
0000
0000
,
1000
0000
0010
0100
0001
0000
0100
0000
0001
0000
0100
0010
1000
0000
0001
0000
,
0010
0001
2000
0000
3100
1000
0002
0000
0013
0001
2000
0000
3010
0000
0100
0000
,
0010
0000
1000
0100
0001
0000
0100
0000
1000
0000
0100
0010
0001
0000
1000
0000
,
0010
0100
0001
0100
0010
0000
1000
0000
0001
0000
0010
0100
1000
0000
0010
0000
,
0100
0000
0101
0000
0101
0000
1000
0000
0010
0000
1000
0001
1000
0000
0100
0000
,
1000
0100
0020
0000
0031
0010
0200
0000
1300
0100
0020
0000
0130
0000
0010
0000
,
0001
1000
0100
0000
1000
0000
0001
0000
0010
0100
1000
0001
0100
0000
0010
0000
,
1000
0001
0010
0000
0100
1000
0001
0000
0100
0000
0010
1000
0010
0000
0100
0000
,
0001
0000
0011
0000
0011
0000
1000
0100
0010
0000
0001
0000
0101
0000
1000
0100
,
0010
0000
0001
0000
0101
0000
1000
0100
0010
0000
0001
0000
0101
0000
0100
0001
,
1000
0100
1000
0000
0001
0000
0100
0000
0001
0010
0001
0010
0100
0000
1000
0010
,
0001
0000
1000
0100
0001
0000
0100
0000
0001
0000
1000
0000
0100
0010
0001
0000
,
1000
0000
0001
0000
0001
0000
0100
0010
1000
0000
0100
0000
0010
0000
0100
0010
,
0001
0000
1000
0000
0100
0000
1000
0010
0100
0000
0010
0000
1000
0000
0001
0000
,
0100
0010
0001
0010
1000
0000
0001
0000
0010
0100
1000
0001
0100
0000
0001
0000
,
1000
0010
0001
0010
1000
0000
0001
0000
1000
0100
0001
0100
1000
0000
0001
0000
,
0011
0000
1000
0010
1000
0000
0001
0000
0010
0000
0001
0100
0001
0000
1000
0000
,
0100
0000
0010
0001
1000
0000
0000
0100
1000
0000
0000
0001
0010
0000
0000
0000
,
0001
0000
0001
1000
0100
0000
0001
0000
0100
0000
1000
0010
0001
0000
0010
0000
,
0100
0000
0000
0010
1000
0000
0000
0001
0010
0000
0001
0000
0100
0000
0000
0000
,
1000
0000
0001
0010
0001
0000
0000
0000
0100
0000
0001
1000
0001
0000
0000
0000
,
0001
0000
0000
0010
0001
0000
0000
0100
0010
0000
0000
1000
0100
0000
0000
0000
,
0010
0000
1000
0001
0010
0000
0000
0000
0010
0000
1000
0001
1000
0000
0000
0000
,
0100
0000
0000
1000
0100
0000
0000
0100
0010
0000
0000
0100
0001
0000
0000
0000
,
2000
3000
0100
0010
0002
0003
1000
0001
,
1000
0000
0000
0010
0001
0000
0000
0010
0100
0000
0000
0100
1000
0000
0000
0000
,
2000
3000
0001
0100
0020
0030
1000
0100
,
0010
0000
0000
0001
1000
0000
0000
0100
1000
0000
0010
0000
1000
0000
0000
0000
,
0200
0300
2000
3000
,
0002
0003
2000
3000
,
0200
0000
2300
0000
,
3002
0000
0203
0300
;

//---------------dance-single - ----------------
#NOTEDATA:;
#CHARTNAME:;
#STEPSTYPE:dance-single;
#DESCRIPTION:;
#CHARTSTYLE:Rajes;
#DIFFICULTY:Medium;
#METER:7;
#RADARVALUES:0.298331,0.345774,0.171281,0.013175,0.000000,317.000000,291.000000,26.000000,2.000000,0.000000,0.000000,0.000000,0.000000,0.000000,0.298331,0.345774,0.171281,0.013175,0.000000,317.000000,291.000000,26.000000,2.000000,0.000000,0.000000,0.000000,0.000000,0.000000;
#CREDIT:Rajes;
#NOTES:
0000
0000
0000
0000
,
0000
0000
0000
0000
,
0000
0000
0000
0000
,
0000
0000
0000
0000
,
0001
1000
0100
1000
,
0010
1000
0001
0010
,
0001
0100
1000
0100
,
0100
0000
0010
0000
1000
0001
1000
0000
,
0001
0010
0100
1000
,
0001
0100
0010
0010
,
1000
0100
1000
0010
,
0100
0000
0001
0000
1000
0100
1000
0000
,
0001
0000
1000
0100
1000
0000
0001
0010
,
0001
1000
0100
1000
,
0010
0000
1000
0100
1000
0000
0001
0010
,
0001
1000
0100
1100
,
0101
0000
1000
0100
1000
0000
0001
0010
,
0001
1000
0100
1000
,
0010
0000
1000
0100
1000
0000
0001
0010
,
0001
1000
1100
0101
,
1010
0000
1000
0100
0010
0000
0001
1000
,
0100
0000
1000
0010
1000
0100
0010
0000
,
1001
0000
1000
0100
1000
0000
0010
1000
,
0001
0000
1100
0000
0001
1000
0001
0000
,
1010
0000
0100
1000
0010
1000
0001
0000
,
1010
0000
0100
0010
0001
1000
0010
0000
,
1100
0000
0001
0010
0100
1000
0100
0010
,
0001
1100
1001
1100
,
0000
0000
0000
0000
,
0000
0000
0000
0000
,
1000
0100
0010
0000
0001
1000
0100
0000
,
1000
0100
1000
0100
1000
0100
0010
0000
,
0001
1000
0001
0000
1000
0100
1000
0000
,
0010
1000
0001
1000
0010
1000
0100
0010
,
0001
0000
1100
0000
0001
1000
0100
0000
,
1000
0010
0001
0010
1000
0001
0010
0000
,
0001
1000
0001
0000
0001
0010
0100
0000
,
1000
0001
0010
0100
1000
0001
0100
0000
,
0101
0000
1010
0000
0001
0010
0100
1000
,
1001
0000
0011
0000
0100
0001
1000
0100
,
0010
0001
0010
0000
0001
1000
0001
0000
,
1000
0100
1000
0100
0010
0001
1000
0010
,
1000
0000
1100
0000
0001
0010
0100
1000
,
1010
0000
0110
0000
1000
0001
0010
0100
,
1000
0001
0010
0000
0001
1000
0010
0000
,
1000
0100
0010
0001
1000
0100
1000
0010
,
1010
0000
0001
1000
0100
0000
1000
0010
,
1000
0000
0001
0000
0010
0100
1000
0000
,
0001
0000
1000
0100
1000
0000
0001
0100
,
0001
1000
1010
0101
,
1000
0000
0100
0010
0001
0000
1000
0010
,
1000
0001
0010
0100
,
1000
0000
0001
1000
0001
0000
0100
0010
,
0100
0001
0101
1010
,
0001
0000
0010
0000
0001
0100
0001
0000
,
1000
0000
0100
0000
1000
0001
1000
0000
,
0001
0000
0010
0000
0001
0100
0001
0000
,
1000
0000
0010
0000
0100
0001
0100
0000
,
0001
0000
1000
0000
,
0001
0000
0010
0000
,
0002
0000
0000
0000
,
2000
0000
0000
3003
;

//---------------dance-single - ----------------
#NOTEDATA:;
#CHARTNAME:;
#STEPSTYPE:dance-single;
#DESCRIPTION:;
#CHARTSTYLE:;
#DIFFICULTY:Easy;
#METER:4;
#RADARVALUES:0.189162,0.264416,0.125167,0.131755,0.000000,201.000000,182.000000,19.000000,20.000000,0.000000,0.000000,0.000000,0.000000,0.000000,0.189162,0.264416,0.125167,0.131755,0.000000,201.000000,182.000000,19.000000,20.000000,0.000000,0.000000,0.000000,0.000000,0.000000;
#CREDIT:;
#NOTES:
0000
0000
0000
0000
,
0000
0000
0000
0000
,
0000
0000
0000
0000
,
0000
0000
0000
0000
,
1000
0000
1000
0000
,
0001
0000
1000
0100
,
1000
0000
0010
0000
,
1000
0000
0001
0010
,
0001
0000
1000
0000
,
0100
0000
1000
0100
,
1000
0000
0010
0000
,
0100
0000
0001
1000
,
0100
0000
1000
0100
,
1000
0000
0001
0010
,
0001
0000
1000
0100
,
1000
0000
0010
0100
,
0010
0000
1000
0100
,
1000
0000
0001
0010
,
0001
0000
1000
0100
,
1000
0000
0001
1000
,
0001
0001
0010
0100
,
1000
1000
0010
0100
,
0001
0001
1000
0100
,
1000
0010
1000
0100
,
1001
0001
0010
0001
,
1001
0100
1000
0010
,
0110
1000
0100
0010
,
1001
0010
1100
1001
,
0000
0000
0000
0000
,
0000
0000
0000
0000
,
2000
0100
0010
3001
,
1000
1100
0001
0101
,
2000
3020
2030
3200
,
0310
1001
0010
1010
,
0002
1000
0100
0013
,
0001
1100
1000
1010
,
2000
3002
0023
0230
,
1300
0101
0010
0101
,
1000
2000
0001
0010
,
3100
0002
0010
0100
,
2003
3100
0002
0013
,
0001
1100
0010
1100
,
0001
0002
1000
0100
,
0013
2000
0010
0100
,
3002
0103
0002
1003
,
0001
0011
1000
1100
,
1001
0100
1000
0001
,
1000
0100
0010
0001
,
1000
0010
1000
0100
,
1000
0010
0100
0001
,
1000
1000
0010
0000
,
1000
1000
0001
0000
,
0010
0010
1000
0000
,
0001
0001
1000
0000
,
0010
0000
1000
0000
,
0001
1000
0010
0000
,
1000
0000
0001
0000
,
0100
0010
1000
0000
,
0001
0000
0000
0000
,
1000
0000
0000
0000
,
0020
0000
0000
0000
,
2000
0000
0000
3030
;
