#VERSION:0.83;
#TITLE:Hide and Seek;
#SUBTITLE:;
#ARTIST:PLAVE;
#TITLETRANSLIT:;
#SUBTITLETRANSLIT:;
#ARTISTTRANSLIT:;
#GENRE:;
#ORIGIN:;
#CREDIT:Musey;
#BANNER:AV.avi;
#BACKGROUND:bg.png;
#PREVIEWVID:;
#JACKET:jacket.png;
#CDIMAGE:;
#DISCIMAGE:;
#LYRICSPATH:;
#CDTITLE:;
#MUSIC:audio.ogg;
#OFFSET:-0.018000;
#SAMPLESTART:71.822121;
#SAMPLELENGTH:15.000000;
#SELECTABLE:YES;
#BPMS:0.000=92.009;
#STOPS:;
#DELAYS:;
#WARPS:;
#TIMESIGNATURES:0.000=4=4;
#TICKCOUNTS:0.000=4;
#COMBOS:0.000=1;
#SPEEDS:0.000=1.000=0.000=0;
#SCROLLS:0.000=1.000;
#FAKES:;
#LABELS:0.000=Song Start;
#BGCHANGES:0.000=MV.avi=1.200=1=0=1===CrossFade==,
2.000=MV.avi=1.000=0=0=1=====,
99999=-nosongbg-=1.000=0=0=0 // don't automatically add -songbackground-
;
#KEYSOUNDS:;
#ATTACKS:
;

//---------------dance-single - ----------------
#NOTEDATA:;
#CHARTNAME:;
#STEPSTYPE:dance-single;
#DESCRIPTION:;
#CHARTSTYLE:;
#DIFFICULTY:Challenge;
#METER:12;
#RADARVALUES:0.471857,0.514902,0.152563,0.526344,0.579741,433.000000,413.000000,20.000000,69.000000,0.000000,0.000000,0.000000,0.000000,0.000000,0.471857,0.514902,0.152563,0.526344,0.579741,433.000000,413.000000,20.000000,69.000000,0.000000,0.000000,0.000000,0.000000,0.000000;
#CREDIT:Musey;
#NOTES:
// measure 0
0000
0000
0000
0000
,  // measure 1
0000
0000
0000
0000
,  // measure 2
0000
0000
0000
0000
,  // measure 3
0000
0000
0000
0012
,  // measure 4
1003
0000
1000
0000
0010
0000
0100
0001
1000
0010
0000
0010
1000
0200
0000
0000
,  // measure 5
1300
0000
1000
0001
0000
0001
0010
0100
0000
0100
0010
0001
0100
0010
1000
0000
,  // measure 6
0010
0100
1000
0100
0010
1000
0001
0010
0000
0010
0001
2000
0000
0000
3001
0100
,  // measure 7
0010
0100
0010
1000
0100
0010
0001
2000
0000
3001
1000
0001
0010
0200
0000
0000
,  // measure 8
0310
0001
0010
0001
1000
0020
0000
0000
0130
1000
0100
0002
0000
2003
0000
3001
,  // measure 9
0010
0000
0010
0002
0000
1003
0100
2000
0000
3001
0010
0001
0200
0000
0301
0000
,  // measure 10
1000
0100
1000
0001
0100
0001
0010
0200
0000
1300
0010
2000
0000
0000
3001
0000
,  // measure 11
0100
0001
0100
0001
0010
0100
1000
0020
0000
1030
0001
0020
0000
0130
1000
0010
,  // measure 12
0100
0000
0001
0010
0001
2000
0000
3200
0000
0300
1000
0010
0100
0020
0000
0000
,  // measure 13
0130
0000
0000
0000
0001
1000
0010
0200
0000
0310
0000
2000
0000
0000
0000
0000
,  // measure 14
3100
0000
0000
0000
1000
0100
0010
0002
0000
0103
0001
0010
0001
2000
0000
0000
,  // measure 15
3020
0000
0000
0000
0100
0000
0000
0000
1030
0000
0000
0000
0100
0001
0100
1000
,  // measure 16
0000
0010
0000
0100
0000
0001
0000
0001
0100
0000
0010
0000
2000
0000
3000
0000
,  // measure 17
0001
0000
0010
0001
0000
1000
0000
0010
0000
0100
0002
0000
0103
0000
0100
0001
,  // measure 18
2000
0000
0000
0000
3010
0000
1000
0100
1000
0000
0001
0000
0100
0000
0010
0000
,  // measure 19
2000
0000
0000
0000
3100
0000
1000
0001
0100
0000
0000
0000
1001
0000
0000
0000
,  // measure 20
1100
0000
1000
0100
1000
0010
0100
0001
0010
0000
0001
0010
0001
0100
0010
0000
,  // measure 21
1001
0000
0100
0010
0100
0001
0010
0001
1000
0000
0010
1000
0010
0100
0001
0000
,  // measure 22
1001
0000
1000
0100
0020
0000
0031
0000
0011
0000
0010
0100
2000
0000
3001
0000
,  // measure 23
1001
0000
0010
0100
1000
0000
0100
0000
0100
0010
1000
0000
0010
1000
0001
0000
,  // measure 24
0110
0020
0230
2300
3002
0023
0032
0203
,  // measure 25
0320
0000
0000
0000
1030
0010
1000
0001
1000
0010
0100
0001
0100
0010
1000
0100
,  // measure 26
0010
0001
2000
0000
3001
0100
0001
0020
0000
0000
0031
0000
1000
0000
0010
1000
,  // measure 27
0200
0000
0000
0000
1000
0000
0000
0000
1300
0000
0010
1000
0100
0000
0010
0000
,  // measure 28
0021
0000
0031
0010
0200
0000
0310
0100
2000
0000
3001
0100
0020
0000
1030
0000
,  // measure 29
0200
0000
1300
0100
0020
0000
0031
0100
2000
0000
3100
0000
0001
0000
0010
0000
,  // measure 30
0100
0000
1000
0001
0000
0100
0000
0001
0000
1000
0100
0010
0001
0100
0010
0000
,  // measure 31
1002
0000
0000
0000
1003
0010
0100
0020
0000
0030
1000
0000
0010
0000
0100
0000
,  // measure 32
0001
0010
0002
0003
1001
0000
0010
0100
0010
0001
2000
3000
0110
0000
0001
0010
,  // measure 33
0001
1000
0100
1000
0010
0001
0010
1000
0100
1000
0002
0000
0000
0000
0003
0000
,  // measure 34
1200
0000
0000
0310
0000
0000
0201
0000
0000
1300
0000
0000
1010
0000
0100
0000
,  // measure 35
1001
0000
1000
0000
0011
0000
0100
0000
0001
1000
0001
0010
0001
1000
0010
0100
,  // measure 36
0001
0000
1000
0010
0200
0000
0001
0000
0320
0000
1000
0000
1030
0010
0100
0001
,  // measure 37
0010
0000
0001
0000
2000
0000
0010
0000
3002
0000
0010
0000
1003
0010
0100
0001
,  // measure 38
0100
0001
0200
0010
0302
0010
2003
3200
,  // measure 39
0320
0032
2003
3020
0230
0310
1000
0001
,  // measure 40
1000
0100
1000
0000
1001
0000
0001
0100
0010
1000
0100
0000
1100
0000
1000
0100
,  // measure 41
1000
0000
0000
0010
0000
0000
0100
0000
0000
0001
0000
0000
0010
0000
0000
0000
0001
0000
0000
0000
0000
1000
0000
0000
1000
0000
0000
0010
0000
0000
0100
0000
0000
0000
0000
0000
1001
0000
0000
0000
0000
0000
0001
0000
0000
0000
0000
0000
,  // measure 42
1000
0000
1000
0010
1000
0010
0100
0000
0100
0001
1000
0001
2000
0000
0000
0000
,  // measure 43
3010
0000
0100
0000
0010
1000
0000
0001
0100
0001
1000
0000
1000
0000
0010
0000
,  // measure 44
2000
0000
0000
0000
,  // measure 45
3000
0000
0000
0000
;

//---------------dance-single - ----------------
#NOTEDATA:;
#CHARTNAME:;
#STEPSTYPE:dance-single;
#DESCRIPTION:;
#CHARTSTYLE:;
#DIFFICULTY:Hard;
#METER:9;
#RADARVALUES:0.369421,0.411921,0.030513,0.320383,0.255544,339.000000,335.000000,4.000000,42.000000,0.000000,0.000000,0.000000,0.000000,0.000000,0.369421,0.411921,0.030513,0.320383,0.255544,339.000000,335.000000,4.000000,42.000000,0.000000,0.000000,0.000000,0.000000,0.000000;
#CREDIT:Musey;
#NOTES:
0000
0000
0000
0000
,
0000
0000
0000
0000
,
0000
0000
0000
0000
,
0000
0000
0000
0000
,
2000
0000
0000
0000
3001
0000
0100
0001
0000
0001
0000
0010
0000
0020
0000
0000
,
0031
0000
1000
0100
0000
0100
1000
0010
0000
0010
0100
0002
0000
0000
0003
0000
,
1000
0001
1000
0000
0010
0000
0100
0000
0001
0010
0001
0000
1000
0000
0100
1000
,
0001
0000
0100
0010
1000
0000
0001
0010
0100
0000
0010
0000
0002
0000
1003
0000
,
1000
0100
1000
0001
0200
0000
0310
0000
0001
0010
0001
1000
0020
0000
1030
0000
,
0100
0000
0100
1000
0000
1000
0001
0000
0100
0000
0010
0000
2000
0000
0000
0000
,
3001
0010
0001
0000
1000
0100
1000
0000
0010
0000
0100
0000
0002
0000
0000
0000
,
1003
0100
1000
0000
0001
0100
0001
0000
0010
0000
0001
0000
1000
0000
0010
1000
,
0001
0100
0020
0000
1030
0001
0200
0000
,
0301
0000
0000
0000
1000
0100
1000
0000
0001
0000
0100
0000
0020
0000
0000
0000
,
0130
0000
0000
0000
0001
0010
0001
0000
1000
0000
0010
0000
0100
0000
0100
0000
,
0020
0000
0000
0000
1000
0000
0000
0000
1030
0000
0000
0000
0001
0010
0100
0000
,
0010
0000
0001
0000
1000
0000
0010
1000
0010
0000
0100
0000
0002
0000
0000
0000
,
0103
0000
0010
0000
1000
0000
0100
1000
0001
0000
0100
0000
0010
0000
0100
0001
,
0020
0000
0000
0000
0031
0000
0010
0001
1000
0000
0010
0000
1000
0000
0100
0010
,
0002
0000
0000
0000
0103
0000
0010
0100
0001
0000
0000
0000
1001
0000
0000
0000
,
0010
0000
1000
0100
1000
0000
0001
0100
0001
0000
0010
0100
0020
0000
0100
0000
,
0130
0000
1000
0100
1000
0000
0010
1000
0001
0000
0100
0010
0200
0000
0010
0000
,
0310
1000
1100
0001
0100
0010
1010
0001
,
0020
0001
0031
1000
0001
0100
0020
0000
,
0130
0000
0001
0010
0001
0000
1000
0000
0100
0000
1000
0000
0001
0000
0100
0001
,
2000
0010
0010
3010
,
0100
0001
0200
0000
0310
0000
1000
0001
2000
0000
3001
0010
0002
0000
0103
0000
,
0020
0000
1000
0000
1030
0100
2000
3001
,
0101
0000
0001
0010
0001
0000
0100
0010
0100
0000
0001
1000
0001
0000
1000
0000
,
0200
0000
1300
0010
1000
0000
0001
0100
0001
0000
0010
0100
0010
0000
0001
0000
,
1000
0000
0001
0000
1000
0000
0010
0000
0100
0000
0001
0100
0001
0000
1000
0000
,
0020
0000
0000
0000
1030
0000
0100
1000
0010
0000
0100
0000
0001
0000
0010
0000
,
0001
0100
1000
0000
0100
0000
0010
0000
1000
0100
0001
0000
0100
0000
1000
0000
,
0010
1000
0001
0000
0100
0000
0010
0000
0100
0000
0001
0000
2000
0000
0000
0000
,
3100
0000
1000
0100
1000
0000
0001
0000
1000
0001
0100
0000
0001
0000
1000
0000
,
0020
0000
0000
0000
0100
0000
0000
0000
1030
0000
0010
0000
0100
0010
0100
0000
,
0001
0000
1000
0000
0020
0000
0000
0000
0230
0000
0000
0000
0301
0010
0001
0000
,
1000
0000
0010
0000
2000
0000
0000
0000
3200
0000
0000
0000
1300
0100
1000
0000
,
0010
0100
0002
0000
2003
0000
3010
1000
,
0100
0010
0001
0010
0100
1000
0001
0100
,
0010
0100
0002
0000
0013
0000
0001
0000
0010
0100
0020
0000
0130
0000
1000
0010
,
1000
0000
0001
0100
0010
0000
0100
0000
0002
0000
0000
0000
1003
0000
0000
0000
,
0020
0000
0000
1030
0000
0000
2000
0000
0000
3010
0000
0000
0020
0000
0000
0000
,
0100
0100
0100
1000
,
2030
0000
0000
0000
,
3000
0000
0000
0000
;

//---------------dance-single - ----------------
#NOTEDATA:;
#CHARTNAME:;
#STEPSTYPE:dance-single;
#DESCRIPTION:;
#CHARTSTYLE:;
#DIFFICULTY:Medium;
#METER:6;
#RADARVALUES:0.252819,0.274614,0.022885,0.358524,0.000000,232.000000,229.000000,3.000000,47.000000,0.000000,0.000000,0.000000,0.000000,0.000000,0.252819,0.274614,0.022885,0.358524,0.000000,232.000000,229.000000,3.000000,47.000000,0.000000,0.000000,0.000000,0.000000,0.000000;
#CREDIT:Musey;
#NOTES:
0000
0000
0000
0000
,
0000
0000
0000
0000
,
0000
0000
0000
0000
,
0000
0000
0000
0000
,
2000
0000
3100
1000
0010
0010
0200
0000
,
0310
0100
0001
0010
0100
1000
0002
0000
,
0103
0010
0100
0100
0010
1000
0001
1000
,
0100
0010
0001
0010
0001
0100
0020
0000
,
1030
0100
2000
0000
3001
0100
0002
0000
,
0103
0010
0100
0010
1000
0001
0020
0000
,
0031
0100
0010
0100
0001
0010
0200
0000
,
1300
0100
0010
0100
1000
0001
0200
0000
,
0301
0000
0001
0000
0100
0001
0200
0000
,
0310
0000
0010
0000
1000
0100
2000
0000
,
3001
0000
0001
0000
0100
0001
1000
0100
,
0020
0000
0100
0000
0130
0000
1000
0100
,
2000
0000
3001
0000
0100
0100
0001
0000
,
0002
0000
0103
0000
0010
0010
1000
0000
,
0200
1300
2000
3001
,
0200
0000
0301
0100
0010
0000
0200
0000
,
0310
1000
0100
1000
0001
0100
0002
0000
,
0013
0001
0100
0010
0100
0001
2000
0000
,
3100
1000
0100
1000
0001
0100
0001
0100
,
0020
1030
2000
3100
,
1000
0001
1000
0010
0100
0001
0010
0001
,
0200
0010
0010
0310
,
1000
0100
1000
0010
0100
0010
1000
0100
,
0020
0000
0001
0000
0031
0100
0020
0000
,
1030
0001
1000
0100
0020
0000
0031
0100
,
0010
0100
0001
1000
0200
0000
1300
0000
,
1000
0100
2000
0000
3001
0100
0002
0000
,
0023
0000
0001
0000
0031
0100
0010
1000
,
0002
0000
1003
0100
2000
0000
3010
0100
,
0010
1000
0001
0010
0100
1000
0002
0000
,
0103
0200
0310
0020
,
1030
1010
0101
1001
,
1000
0100
2000
0000
0010
0000
3010
0000
,
0100
0001
0020
0000
0001
0000
0031
0000
,
0100
0001
2000
0000
0001
0000
3001
0010
,
0001
0100
0010
1000
0100
0000
1000
0000
,
0001
0100
0002
0000
1003
0100
2000
0000
,
3020
0230
0302
1003
,
0020
0130
0200
0302
,
0000
0000
0000
0000
,
2003
0000
0000
0000
,
3000
0000
0000
0000
;

//---------------dance-single - ----------------
#NOTEDATA:;
#CHARTNAME:;
#STEPSTYPE:dance-single;
#DESCRIPTION:;
#CHARTSTYLE:;
#DIFFICULTY:Easy;
#METER:3;
#RADARVALUES:0.149294,0.171634,0.000000,0.213589,0.000000,137.000000,137.000000,0.000000,28.000000,0.000000,0.000000,0.000000,0.000000,0.000000,0.149294,0.171634,0.000000,0.213589,0.000000,137.000000,137.000000,0.000000,28.000000,0.000000,0.000000,0.000000,0.000000,0.000000;
#CREDIT:Musey;
#NOTES:
0000
0000
0000
0000
,
0000
0000
0000
0000
,
0000
0000
0000
0000
,
0000
0000
0000
0000
,
2000
3001
0001
0010
,
0010
0000
0001
0000
1000
0001
1000
0000
,
0010
0010
0100
0100
,
0001
0000
0001
0000
1000
0100
1000
0000
,
0001
0002
0103
0200
,
0310
0000
1000
0000
0100
1000
0100
0000
,
1000
2000
3001
0002
,
0103
0000
0010
0000
1000
0100
1000
0000
,
0001
0100
0002
0000
,
1003
0100
2000
0000
,
3010
0100
0010
1000
,
0002
0000
0103
0000
,
0100
0010
2000
0000
,
3010
1000
0002
0000
,
0203
0000
0320
0000
,
2030
0000
3001
0000
,
1000
0100
1000
1000
,
0001
0100
0001
0001
,
0100
0010
1000
0100
,
1000
0001
0200
0000
,
0301
0001
1000
1000
,
0200
0000
0000
0000
,
1300
1000
0001
0001
,
0020
0000
0000
0000
,
0031
0001
0100
0100
,
0010
0010
1000
1000
,
0001
0100
0010
0100
,
0002
0000
1003
1000
,
0100
0100
1000
1000
,
0001
0100
0020
0130
,
0100
0010
1000
0001
,
2000
0000
0000
3001
,
0001
0200
0320
0000
,
1030
0002
0203
0000
,
0301
0020
0032
0000
,
0103
0100
0100
0010
,
1000
1000
0001
0001
,
0100
0001
0200
0000
,
0310
0010
0010
2000
,
0000
0000
0000
0000
,
3002
0000
0000
0000
,
0003
0000
0000
0000
;

//---------------dance-single - ----------------
#NOTEDATA:;
#CHARTNAME:;
#STEPSTYPE:dance-single;
#DESCRIPTION:;
#CHARTSTYLE:;
#DIFFICULTY:Beginner;
#METER:1;
#RADARVALUES:0.070833,0.085817,0.000000,0.045769,0.000000,65.000000,65.000000,0.000000,6.000000,0.000000,0.000000,0.000000,0.000000,0.000000,0.070833,0.085817,0.000000,0.045769,0.000000,65.000000,65.000000,0.000000,6.000000,0.000000,0.000000,0.000000,0.000000,0.000000;
#CREDIT:Musey;
#NOTES:
0000
0000
0000
0000
,
0000
0000
0000
0000
,
0000
0000
0000
0000
,
0000
0000
0000
0000
,
1000
0000
1000
0000
,
0001
0000
0001
0000
,
0010
0000
0010
0000
,
0001
0000
0001
0000
,
1000
0000
1000
0000
,
0010
0000
0010
0000
,
1000
0000
1000
0000
,
0001
0000
0001
0000
,
1000
0000
0000
0000
,
0001
0000
0000
0000
,
0010
0000
0000
0000
,
0001
0000
0000
0000
,
1000
0000
0000
0000
,
0001
0000
0000
0000
,
0001
0000
0000
0000
,
1000
0000
0000
0000
,
0001
0000
0000
0000
,
1000
0000
0000
0000
,
0001
0000
0001
0000
,
0001
0000
0000
0000
,
1000
0000
1000
0000
,
0020
0000
0000
0000
,
1030
0000
1000
0000
,
0002
0000
0000
0000
,
1003
0000
1000
0000
,
0001
0000
0001
0000
,
1000
0000
0010
0000
,
2000
0000
3001
0000
,
1000
0000
1000
0000
,
0001
0000
0001
0000
,
1000
0000
0010
0000
,
2000
0000
0000
0000
,
3001
0000
0001
0000
,
1000
0000
1000
0000
,
0010
0000
0010
0000
,
1000
0000
0100
0000
,
1000
0000
1000
0000
,
0001
0000
0010
0000
,
0001
0000
2000
0000
,
0000
0000
0000
0000
,
3002
0000
0000
0000
,
0003
0000
0000
0000
;
