#VERSION:0.83;
#TITLE:Golden;
#SUBTITLE:;
#ARTIST:Huntrix;
#TITLETRANSLIT:;
#SUBTITLETRANSLIT:;
#ARTISTTRANSLIT:;
#GENRE:;
#ORIGIN:;
#CREDIT:Musey;
#BANNER:AV.avi;
#BACKGROUND:bg.png;
#PREVIEWVID:;
#JACKET:jacket.png;
#CDIMAGE:;
#DISCIMAGE:;
#LYRICSPATH:;
#CDTITLE:;
#MUSIC:audio.ogg;
#OFFSET:-0.132000;
#SAMPLESTART:61.528080;
#SAMPLELENGTH:14.999997;
#SELECTABLE:YES;
#BPMS:0.000=123.000;
#STOPS:;
#DELAYS:;
#WARPS:28.000=20.000;
#TIMESIGNATURES:0.000=4=4;
#TICKCOUNTS:0.000=4;
#COMBOS:0.000=1;
#SPEEDS:0.000=1.000=0.000=0,
48.000=10.000=3.000=0;
#SCROLLS:0.000=1.000,
48.000=0.100;
#FAKES:;
#LABELS:0.000=Song Start;
#BGCHANGES:0.000=MV.avi=1.200=1=0=1===CrossFade==,
2.500=MV.avi=1.000=0=0=1=====,
272.000=MV.avi=0.100=0=0=1=====,
99999=-nosongbg-=1.000=0=0=0 // don't automatically add -songbackground-
;
#KEYSOUNDS:;
#ATTACKS:
;

//---------------dance-single - ----------------
#NOTEDATA:;
#CHARTNAME:;
#STEPSTYPE:dance-single;
#DESCRIPTION:;
#CHARTSTYLE:;
#DIFFICULTY:Challenge;
#METER:12;
#RADARVALUES:0.449160,0.631921,0.224580,0.534345,0.727949,406.000000,377.000000,29.000000,69.000000,0.000000,0.000000,0.000000,0.000000,0.000000,0.449160,0.631921,0.224580,0.534345,0.727949,406.000000,377.000000,29.000000,69.000000,0.000000,0.000000,0.000000,0.000000,0.000000;
#CREDIT:Musey;
#NOTES:
0000
0000
0000
0000
,
0000
0000
0000
0000
,
0000
0000
0000
0000
,
0000
0000
0000
0000
,
0000
0000
0000
0000
,
0000
0000
0000
0000
,
0000
0000
0000
0000
,
0000
0000
0000
0000
,
0000
0000
0000
0000
,
0000
0000
0000
0000
,
0000
0000
0000
0000
,
0000
0000
0000
0000
,
0000
0000
0000
0000
,
1001
0000
0000
1000
0001
0100
0020
0000
0000
0130
0001
1000
,
0200
0000
0000
1300
0000
0202
0303
0000
0000
1000
0100
1000
,
0001
0000
0000
0100
0000
2020
3030
0000
0000
0100
0001
0010
,
0200
0000
0000
1300
0000
0000
0011
0000
0010
0100
0000
0000
,
1010
0000
0000
1000
0001
0010
0200
0000
0000
1300
0001
0100
,
0002
0000
0000
0013
0000
0202
0303
0000
0000
0010
0100
0001
,
1000
0000
0000
0100
0000
0020
0100
0000
0000
0031
0100
0001
,
1000
0000
0001
0100
1000
0100
0001
0010
0001
0100
0000
0010
,
1000
0000
0100
0001
0000
0100
1000
0001
1000
0010
0000
0100
,
1000
0000
0100
0001
0000
0100
0010
0100
0001
0010
0000
0000
,
1100
0000
0101
0000
0011
0000
1010
0000
1100
0000
0101
0000
,
1001
0000
0000
0110
0000
1000
0100
1000
0001
0010
0000
1000
,
0010
0000
0010
0001
0000
1000
0010
0100
1000
0100
0000
0100
,
1000
0000
0100
0001
0000
0010
0001
1000
0100
0010
0000
0000
,
0011
0000
1010
0000
1100
0000
0101
0000
0011
0000
1010
0000
,
1001
0000
1000
0100
0001
1000
0010
0001
0100
0010
0000
0000
,
0210
0001
0010
1000
,
0302
0010
1000
0100
,
0023
0000
0000
1000
0000
0000
0001
0000
0000
0100
0000
0130
,
2000
0000
3000
0012
,
0103
1000
0100
0020
0000
0000
1030
0100
0001
0200
0000
0000
,
1300
0001
0010
0002
0000
0000
0103
0010
0100
1000
0100
0001
,
1000
0100
0001
0200
0000
0000
1300
0010
0001
0010
0000
0100
,
0001
1000
0100
0001
1000
0010
0002
0000
0203
0000
0301
0000
,
0020
0031
1000
0020
1030
0001
0020
0130
1000
0002
0000
0103
,
2000
0000
0000
3200
0000
0000
0301
0010
0001
1000
0010
0100
,
0002
0000
1003
0200
0000
0000
1300
0100
1000
0001
0100
0001
,
0020
0000
0130
1000
0000
0001
0100
0010
1000
0001
0100
0001
,
0020
0031
0100
0020
1030
0100
0020
0130
0001
0100
1000
0001
,
0200
0000
0000
0302
0000
0000
1003
0100
1000
0001
0100
0010
,
2000
0000
3100
1000
0000
0000
0010
0100
1000
0100
0010
1000
,
0002
0000
0103
0010
0100
0001
1000
0100
0010
0002
0000
0000
,
1003
0100
1000
0020
0000
0000
1000
0000
0000
0230
0000
0000
,
0301
1000
0001
0020
0000
0000
1000
0000
0000
0230
0000
0000
,
1300
0100
1000
0002
0000
0000
0023
0000
0000
0230
0000
1300
,
0020
0000
0000
1000
0000
0000
0130
0001
0010
0100
1000
0001
,
0100
0001
1000
0020
0000
0000
1000
0000
0000
0230
0000
0000
,
0301
1000
0100
0020
0000
0000
0001
0000
0000
0230
0000
0000
,
1300
0010
1000
0200
0000
0000
0320
0000
0000
0031
0000
1000
,
0100
0001
0100
1000
0010
0100
0001
0010
0001
2000
0000
0000
,
3010
0001
0010
1000
0010
0100
0002
0000
0013
0100
0000
1000
,
0100
0001
0100
1000
0100
0010
0200
0000
0000
2300
0000
0000
,
3001
0100
0010
0001
0010
0100
0002
0000
0013
0100
0000
1000
,
0100
0001
0100
1000
0001
0020
0000
0000
0130
0010
0100
1000
,
0001
0010
0001
1000
0000
0000
1001
0000
0000
0120
0000
0000
,
0130
0010
0100
0001
0000
0000
0101
0000
0000
2010
0000
0000
,
3010
0100
0001
0010
0000
0000
0101
0000
0000
1010
0000
0010
,
1000
0100
0001
0100
0010
0001
1000
0010
0100
0001
0000
0000
,
2000
0000
0000
0000
,
3002
0000
0000
0000
,
0023
0000
0000
0000
,
0032
0000
0000
0000
,
0203
0000
0000
0000
,
0320
0000
0000
0000
,
2030
0000
0000
0000
,
3001
0000
0000
0000
;

//---------------dance-single - ----------------
#NOTEDATA:;
#CHARTNAME:;
#STEPSTYPE:dance-single;
#DESCRIPTION:;
#CHARTSTYLE:;
#DIFFICULTY:Hard;
#METER:10;
#RADARVALUES:0.383888,0.579261,0.185859,0.542089,0.503369,347.000000,323.000000,24.000000,70.000000,0.000000,0.000000,0.000000,0.000000,0.000000,0.383888,0.579261,0.185859,0.542089,0.503369,347.000000,323.000000,24.000000,70.000000,0.000000,0.000000,0.000000,0.000000,0.000000;
#CREDIT:Musey;
#NOTES:
0000
0000
0000
0000
,
0000
0000
0000
0000
,
0000
0000
0000
0000
,
0000
0000
0000
0000
,
0000
0000
0000
0000
,
0000
0000
0000
0000
,
0000
0000
0000
0000
,
0000
0000
0000
0000
,
0000
0000
0000
0000
,
0000
0000
0000
0000
,
0000
0000
0000
0000
,
0000
0000
0000
0000
,
0000
0000
0000
0000
,
1000
0000
0000
0001
0100
0001
0020
0000
0000
0031
1000
0100
,
2000
0000
0000
3010
0000
0000
0010
0000
0000
0010
0100
0010
,
0200
0000
0000
0301
0000
0000
0001
0000
0000
0001
0010
0100
,
2000
0000
0000
3010
0000
0000
0010
0000
1000
0100
0000
0000
,
1001
0000
0000
0100
0010
0001
2000
0000
0000
3010
1000
0100
,
0020
0000
0000
0031
0000
0000
0001
0000
0000
0001
1000
0010
,
0100
0000
0000
0010
0000
1000
0200
0000
0000
1300
0000
0000
,
1000
0010
0100
0001
0010
0100
1000
0000
0000
1001
0000
1000
,
0010
0000
0100
0010
0000
1000
0010
0100
0001
0010
0000
0001
,
1000
0000
0010
1000
0000
0001
0010
0100
1000
0001
0000
0000
,
0200
0000
0320
0000
0230
0000
0302
0000
0023
0000
0230
0000
,
2300
0000
0000
3010
0000
0000
0100
0010
0100
0001
0000
0010
,
0100
0000
1000
0001
0000
0010
0100
1000
0001
0100
0000
0001
,
0010
0000
0100
0010
0000
0001
0010
0100
1000
0001
0000
0000
,
2000
0000
3200
0000
2300
0000
3002
0000
0203
0000
0320
0000
,
0230
0000
0000
0301
1000
0100
1000
0000
0000
1010
0000
0000
,
0200
0302
0023
0230
,
0320
0000
0000
0032
0000
0000
2000
0003
0000
0020
3000
0000
,
0230
0000
0000
0302
0000
0000
2000
0003
0000
3100
0000
0010
,
0002
0000
0000
0203
,
0310
1000
0010
1000
0000
0000
0001
0100
0001
0100
0000
0000
,
0010
1000
0100
0010
0000
0000
0001
0100
0001
0100
0010
1000
,
0001
0010
0001
0100
0000
0000
0010
1000
0100
1000
0000
0001
,
0100
0001
0010
0100
1000
0001
0100
0000
0000
0000
0000
0000
,
0110
0000
0000
1001
0000
0000
0110
0000
1000
0100
1000
0100
,
0020
0000
0000
0031
0000
0000
0100
0001
0100
0001
0010
0100
,
2000
0000
0000
3010
0000
0000
0100
0001
0100
0001
0100
0001
,
2000
0000
0000
3001
0000
0000
0100
0001
0100
0020
0000
0000
,
2030
0000
0000
3200
0000
0000
0320
0000
0031
0010
0000
0001
,
2000
0000
0000
3100
0000
0000
1000
0100
1000
0001
0100
0001
,
0020
0000
0000
0130
0000
0000
1000
0010
1000
0010
0100
0001
,
0020
0000
0000
0031
0000
0000
1000
0100
1000
0001
0000
0000
,
1010
0101
0110
2010
,
3010
0011
0110
1200
,
1300
0000
0000
0011
0000
0000
1020
0000
0000
0130
0000
0001
,
0020
0000
0000
0130
0000
0000
1000
0100
1000
0010
0000
0000
,
0011
1100
0102
0013
,
1100
0110
2100
3001
,
0011
1100
1020
0130
,
0001
0010
0001
0010
0100
1000
0020
0000
0000
1030
0000
0000
,
1000
0100
1000
0001
0100
0001
0020
0000
0000
0031
0000
0000
,
1000
0100
1000
0001
0010
0001
0200
0000
0000
0310
0000
0000
,
0100
0010
0100
0001
1000
0001
0200
0000
0000
0310
0000
0000
,
0001
0010
0001
1000
0100
1000
0020
0000
0000
0130
0000
0000
,
0001
0010
0100
2000
0000
0000
0010
0000
0000
3200
0000
0000
,
0310
0001
0100
0020
0000
0000
1000
0000
0000
0230
0000
0000
,
0301
0010
0100
2000
0000
0000
3002
0000
0000
0200
0003
0000
,
0310
0100
0010
0100
0000
0000
0001
1000
0001
1000
0000
0000
,
0002
0000
0000
0000
,
0203
0000
0000
0000
,
0320
0000
0000
0000
,
0230
0000
0000
0000
,
0302
0000
0000
0000
,
0023
0000
0000
0000
,
0032
0000
0000
0000
,
1003
0000
0000
0000
;

//---------------dance-single - ----------------
#NOTEDATA:;
#CHARTNAME:;
#STEPSTYPE:dance-single;
#DESCRIPTION:;
#CHARTSTYLE:;
#DIFFICULTY:Medium;
#METER:7;
#RADARVALUES:0.281001,0.421281,0.023232,0.348486,0.236196,254.000000,251.000000,3.000000,45.000000,0.000000,0.000000,0.000000,0.000000,0.000000,0.281001,0.421281,0.023232,0.348486,0.236196,254.000000,251.000000,3.000000,45.000000,0.000000,0.000000,0.000000,0.000000,0.000000;
#CREDIT:Musey;
#NOTES:
0000
0000
0000
0000
,
0000
0000
0000
0000
,
0000
0000
0000
0000
,
0000
0000
0000
0000
,
0000
0000
0000
0000
,
0000
0000
0000
0000
,
0000
0000
0000
0000
,
0000
0000
0000
0000
,
0000
0000
0000
0000
,
0000
0000
0000
0000
,
0000
0000
0000
0000
,
0000
0000
0000
0000
,
0000
0000
0000
0000
,
1000
0000
0000
0001
0000
0100
0010
0000
0000
1000
0000
0100
,
0010
0000
0000
0100
0000
0000
0100
0000
0000
0100
0000
1000
,
0001
0000
0000
0100
0000
0000
0100
0000
0000
0100
0000
0001
,
0010
0000
0000
0010
0000
0000
0010
0000
0001
1000
0000
0000
,
0100
0000
0000
1000
0000
1000
0001
0000
0000
0001
0000
0001
,
0100
0000
0000
0100
0000
0000
0100
0000
0000
0100
0000
0010
,
1000
0000
0000
1000
0000
0100
0010
0000
0000
0010
0000
0100
,
0010
0000
0001
1000
0000
0010
1000
0000
0000
0100
0000
0000
,
1000
0001
0100
0010
0000
1000
0001
0000
0100
0010
0000
0010
,
0001
0000
0100
0010
0000
0010
0001
0000
0000
1000
0000
0000
,
0100
0000
1000
0100
0000
0000
1000
0000
0001
0100
0000
0000
,
0020
0000
0000
0130
0000
0000
0001
0000
0001
0100
0000
0001
,
0010
0000
0001
0100
0000
0010
1000
0000
0000
0100
0000
0100
,
1000
0000
0010
0001
0000
1000
0010
0000
0000
0100
0000
0000
,
0001
0000
0100
0000
0001
0000
0010
0000
0001
0000
1000
0000
,
0020
1030
2000
3001
,
0200
0302
0023
0000
,
0032
2003
3020
0000
,
0230
0302
2003
0000
,
3200
0000
0000
1300
,
0001
0001
0200
0310
,
0100
0100
0020
1030
,
2000
3002
0203
0000
,
0010
0010
0310
0000
,
0010
0000
0000
0010
0000
0000
0010
0000
0100
0001
0000
1000
,
0020
0000
0000
1000
0030
0000
0001
0000
0100
0001
0000
1000
,
0020
0000
0000
1030
0000
0000
0100
0000
1000
0001
0000
0100
,
0020
0000
0000
1030
0000
0000
0100
0000
0010
0001
0000
0000
,
0010
0000
0000
0010
0000
0000
0010
0000
0001
0100
0000
0010
,
2000
0000
0000
3100
0000
0000
1000
0000
0001
0100
0000
0010
,
2000
0000
0000
3001
0000
0000
0010
0000
0100
1000
0000
0001
,
0200
0310
0100
0110
,
1000
0100
0020
0031
,
0001
0100
0020
1030
,
1000
0000
0000
0001
0000
0000
0100
0000
0000
0010
0000
0100
,
0002
0000
0000
0010
0003
0000
0010
0000
0000
0100
0000
0000
,
1000
0010
0200
0310
,
1000
0001
0020
0130
,
1000
0000
0000
0001
0000
0000
2000
0000
0000
3010
0000
0100
,
0002
0010
1003
1001
,
1000
0100
1000
0100
0000
0000
2000
0000
0000
3010
0000
0000
,
0100
0001
0100
0001
0000
0000
0020
0000
0000
0130
0000
0000
,
1000
0100
1000
0010
0000
0000
0200
0000
0000
0301
0000
0000
,
1000
0001
1000
0001
0000
0000
0200
0000
0000
0310
0000
0000
,
1000
0000
0000
0001
0000
0000
0100
0000
0010
0100
0000
0001
,
0020
0000
0000
0130
0000
0000
1000
0000
0001
1000
0000
0010
,
0200
0000
0000
0301
0000
0000
1000
0000
0100
1000
0000
0001
,
0020
0100
0031
0011
,
2000
0000
0000
0000
,
3002
0000
0000
0000
,
0203
0000
0000
0000
,
0320
0000
0000
0000
,
2030
0000
0000
0000
,
3002
0000
0000
0000
,
0020
0003
0000
0000
0000
0000
0000
0000
0000
0000
0000
0000
,
0030
0000
0000
0000
;

//---------------dance-single - ----------------
#NOTEDATA:;
#CHARTNAME:;
#STEPSTYPE:dance-single;
#DESCRIPTION:;
#CHARTSTYLE:;
#DIFFICULTY:Easy;
#METER:3;
#RADARVALUES:0.160414,0.236970,0.000000,0.348486,0.000000,145.000000,145.000000,0.000000,45.000000,0.000000,0.000000,0.000000,0.000000,0.000000,0.160414,0.236970,0.000000,0.348486,0.000000,145.000000,145.000000,0.000000,45.000000,0.000000,0.000000,0.000000,0.000000,0.000000;
#CREDIT:;
#NOTES:
0000
0000
0000
0000
,
0000
0000
0000
0000
,
0000
0000
0000
0000
,
0000
0000
0000
0000
,
0000
0000
0000
0000
,
0000
0000
0000
0000
,
0000
0000
0000
0000
,
0000
0000
0000
0000
,
0000
0000
0000
0000
,
0000
0000
0000
0000
,
0000
0000
0000
0000
,
0000
0000
0000
0000
,
0000
0000
0000
0000
,
1000
0000
1000
0001
,
0200
0000
0310
0010
,
0200
0000
0301
0001
,
0020
0000
0032
0000
,
1003
0100
1000
0010
,
0200
0000
0310
0010
,
2000
0000
3001
0010
,
0100
0010
0001
0000
,
1000
0010
2000
0000
,
3001
0100
0002
0000
,
0013
0100
1000
0010
,
0200
0000
0302
0000
,
1003
0100
2000
0000
,
3001
0100
0002
0000
,
0023
0000
0032
0000
,
0203
0000
0310
0000
,
2000
0000
0000
0000
,
3002
0000
0000
0000
,
0203
0000
0000
0000
,
0320
0000
0000
0000
,
1030
1000
1000
0000
,
0001
0001
0001
0000
,
0100
0100
0100
0000
,
0010
0100
0020
0000
,
1030
1000
1000
1000
,
0002
0000
0103
0001
,
0020
0000
0031
0100
,
0020
0000
1030
1000
,
0010
0010
0010
0100
,
0002
0000
0013
0100
,
0020
0000
0031
1000
,
0010
1000
0100
0010
,
0001
0100
0020
0000
,
1030
0001
0200
0000
,
0301
0010
0002
0000
,
2003
0000
3020
0000
,
1030
0100
0020
0000
,
0031
0100
0020
0000
,
1030
0100
1000
0001
,
0200
0000
0320
0000
,
1030
1000
2000
0000
,
3001
0001
0002
0000
,
0013
0010
0020
0000
,
0031
0001
0001
0100
,
0010
1000
0100
0010
,
0001
0100
0010
1000
,
0100
1000
0001
0100
,
0020
0000
0000
0000
,
2030
0000
0000
0000
,
3002
0000
0000
0000
,
0203
0000
0000
0000
,
0320
0000
0000
0000
,
2030
0000
0000
0000
,
3002
0000
0000
0000
,
0203
0000
0000
0000
,
0300
0000
0000
0000
;

//---------------dance-single - ----------------
#NOTEDATA:;
#CHARTNAME:;
#STEPSTYPE:dance-single;
#DESCRIPTION:;
#CHARTSTYLE:;
#DIFFICULTY:Beginner;
#METER:1;
#RADARVALUES:0.069697,0.131650,0.000000,0.007744,0.000000,63.000000,63.000000,0.000000,1.000000,0.000000,0.000000,0.000000,0.000000,0.000000,0.069697,0.131650,0.000000,0.007744,0.000000,63.000000,63.000000,0.000000,1.000000,0.000000,0.000000,0.000000,0.000000,0.000000;
#CREDIT:Musey;
#NOTES:
// measure 0
0000
0000
0000
0000
,  // measure 1
0000
0000
0000
0000
,  // measure 2
0000
0000
0000
0000
,  // measure 3
0000
0000
0000
0000
,  // measure 4
0000
0000
0000
0000
,  // measure 5
0000
0000
0000
0000
,  // measure 6
0000
0000
0000
0000
,  // measure 7
0000
0000
0000
0000
,  // measure 8
0000
0000
0000
0000
,  // measure 9
0000
0000
0000
0000
,  // measure 10
0000
0000
0000
0000
,  // measure 11
0000
0000
0000
0000
,  // measure 12
0000
0000
0000
0000
,  // measure 13
1000
0000
0000
0000
,  // measure 14
0001
0000
0000
0000
,  // measure 15
1000
0000
0000
0000
,  // measure 16
0010
0000
0000
0000
,  // measure 17
0010
0000
0000
0000
,  // measure 18
1000
0000
0000
0000
,  // measure 19
0001
0000
0000
0000
,  // measure 20
1000
0000
1000
0000
,  // measure 21
1000
0000
0000
0000
,  // measure 22
0001
0000
0000
0000
,  // measure 23
0010
0000
0000
0000
,  // measure 24
0100
0000
0000
0000
,  // measure 25
0001
0000
0001
0000
,  // measure 26
1000
0000
1000
0000
,  // measure 27
0010
0000
0010
0000
,  // measure 28
0100
0000
0000
0000
,  // measure 29
1000
0000
0000
0000
,  // measure 30
1000
0000
0000
0000
,  // measure 31
0001
0000
0000
0000
,  // measure 32
0001
0000
0000
0000
,  // measure 33
0010
0000
0000
0000
,  // measure 34
0010
0000
0000
0000
,  // measure 35
0100
0000
0000
0000
,  // measure 36
0010
0000
0000
0000
,  // measure 37
1000
0000
1000
0000
,  // measure 38
1000
0000
0000
0000
,  // measure 39
0001
0000
0001
0000
,  // measure 40
0001
0000
0000
0000
,  // measure 41
0100
0000
0100
0000
,  // measure 42
0010
0000
0000
0000
,  // measure 43
1000
0000
1000
0000
,  // measure 44
0001
0000
0001
0000
,  // measure 45
1000
0000
0000
0000
,  // measure 46
1000
0000
0000
0000
,  // measure 47
0010
0000
0000
0000
,  // measure 48
1000
0000
0000
0000
,  // measure 49
0001
0000
0000
0000
,  // measure 50
1000
0000
0000
0000
,  // measure 51
0010
0000
0000
0000
,  // measure 52
1000
0000
0000
0000
,  // measure 53
0001
0000
0001
0000
,  // measure 54
0001
0000
0000
0000
,  // measure 55
1000
0000
1000
0000
,  // measure 56
1000
0000
0000
0000
,  // measure 57
0010
0000
0010
0000
,  // measure 58
0100
0000
0000
0000
,  // measure 59
0001
0000
1000
0000
,  // measure 60
0002
0000
0000
0000
,  // measure 61
1003
0000
0000
0000
,  // measure 62
0000
0000
0000
0000
,  // measure 63
0000
0000
0000
0000
,  // measure 64
0000
0000
0000
0000
,  // measure 65
0000
0000
0000
0000
,  // measure 66
0000
0000
0000
0000
,  // measure 67
0000
0000
0000
0000
,  // measure 68
1000
0000
0000
0000
;
