#VERSION:0.83;
#TITLE:Get A Guitar;
#SUBTITLE:;
#ARTIST:RIIZE;
#TITLETRANSLIT:;
#SUBTITLETRANSLIT:;
#ARTISTTRANSLIT:;
#GENRE:;
#ORIGIN:;
#TAGS:;
#CREDIT:;
#BANNER:AV.avi;
#BACKGROUND:bg.png;
#PREVIEWVID:;
#JACKET:jacket.png;
#CDIMAGE:;
#DISCIMAGE:;
#LYRICSPATH:;
#CDTITLE:;
#MUSIC:audio.ogg;
#OFFSET:-0.093000;
#SAMPLESTART:36.280025;
#SAMPLELENGTH:15.000002;
#SELECTABLE:YES;
#BPMS:0.000000=110.000000
;
#STOPS:;
#DELAYS:;
#WARPS:;
#TIMESIGNATURES:0.000000=4=4
;
#TICKCOUNTS:0.000000=4
;
#COMBOS:0.000000=1
;
#SPEEDS:0.000000=1.000000=0.000000=0
;
#SCROLLS:0.000000=1.000000
;
#FAKES:;
#LABELS:0.000000=Song Start
;
#BGCHANGES:0.000=MV.avi=1.200=1=0=1===CrossFade==,
2.000=MV.avi=1.000=0=0=1=====,
99999=-nosongbg-=1.000=0=0=0 // don't automatically add -songbackground-
;
#KEYSOUNDS:;
#ATTACKS:
;

//---------------dance-single - ----------------
#NOTEDATA:;
#CHARTNAME:;
#CHARTHASH:823518381;
#STEPSTYPE:dance-single;
#BANNER:;
#DESCRIPTION:;
#CHARTSTYLE:;
#DIFFICULTY:Beginner;
#METER:2;
#METERF:0.000000;
#LASTSECONDHINT:105.911179;
#RADARVALUES:0.202282,0.224427,0.009255,0.120311,0.000000,153.000000,152.000000,1.000000,13.000000,0.000000,0.000000,0.000000,0.000000,0.000000,0.202282,0.224427,0.009255,0.120311,0.000000,153.000000,152.000000,1.000000,13.000000,0.000000,0.000000,0.000000,0.000000,0.000000;
#CREDIT:Musey;
#NOTES:
// measure 0
0000
0000
0000
0000
,  // measure 1
1000
0000
0001
0000
,  // measure 2
0100
0001
0100
0000
,  // measure 3
0010
0000
0010
0000
,  // measure 4
1000
0010
1000
0000
,  // measure 5
0001
0100
0001
0001
,  // measure 6
1000
0010
1000
1000
,  // measure 7
0001
0100
0001
1000
,  // measure 8
0020
0000
1030
0000
,  // measure 9
0100
0100
0001
0000
,  // measure 10
1000
0001
1000
1000
,  // measure 11
0010
1000
0001
0000
,  // measure 12
0100
0001
0100
0100
,  // measure 13
0020
0000
2030
0000
,  // measure 14
3001
0100
0001
1000
,  // measure 15
0020
0000
1030
0000
,  // measure 16
0100
0100
0100
0000
,  // measure 17
0010
1000
0010
1000
,  // measure 18
0001
0100
0001
0001
,  // measure 19
1000
1000
0001
0001
,  // measure 20
1000
0010
2000
0000
,  // measure 21
3001
0100
0001
0001
,  // measure 22
1000
0000
0010
1000
0010
0000
0000
0000
,  // measure 23
1000
0001
0100
0100
,  // measure 24
0001
0000
1000
0001
1000
0000
0000
0000
,  // measure 25
0100
0100
0010
0010
,  // measure 26
1000
0000
0001
1000
0001
0000
0000
0000
,  // measure 27
1000
1000
0010
0010
,  // measure 28
0100
0001
0200
0000
,  // measure 29
0302
0000
0000
0000
,  // measure 30
2003
0000
0000
0000
,  // measure 31
3020
0000
0000
0000
,  // measure 32
2030
0000
0000
0000
,  // measure 33
3001
0100
0001
0100
,  // measure 34
0010
1000
0001
1000
,  // measure 35
0020
0000
0000
0000
,  // measure 36
0130
0100
0100
0000
,  // measure 37
0001
0001
0001
0000
,  // measure 38
1000
0010
1000
0000
,  // measure 39
0100
0100
0100
0000
,  // measure 40
1000
0001
1000
0000
,  // measure 41
0001
1000
0010
0010
,  // measure 42
1000
0001
0200
0000
,  // measure 43
0310
0010
1000
1000
,  // measure 44
0001
0100
0002
0000
,  // measure 45
1003
0010
1000
1000
,  // measure 46
0001
0100
0001
0001
,  // measure 47
0100
0010
0100
0100
,  // measure 48
0001
0100
0110
0000
;

//---------------dance-single - ----------------
#NOTEDATA:;
#CHARTNAME:;
#CHARTHASH:3311948701;
#STEPSTYPE:dance-single;
#BANNER:;
#DESCRIPTION:;
#CHARTSTYLE:;
#DIFFICULTY:Easy;
#METER:5;
#METERF:0.000000;
#LASTSECONDHINT:105.911179;
#RADARVALUES:0.000000,0.000000,0.000000,0.000000,0.000000,0.000000,0.000000,0.000000,0.000000,0.000000,0.000000,0.000000,0.000000,0.000000,0.000000,0.000000,0.000000,0.000000,0.000000,0.000000,0.000000,0.000000,0.000000,0.000000,0.000000,0.000000,0.000000,0.000000;
#CREDIT:Musey;
#NOTES:
0000
0000
0000
0000
,
1000
0001
0100
0100
,
0010
0000
0100
0010
0100
0000
0001
0000
,
1000
0100
0010
0001
,
0100
0000
0001
0100
0001
0000
1000
0000
,
0010
0010
1000
1000
,
0001
0001
0100
0100
,
0010
1000
0010
0000
0100
0001
0100
0000
,
0001
1000
1001
0000
,
0010
0010
0100
0100
,
0001
0000
1000
0001
1000
0000
0100
0000
,
0010
0010
0100
0100
,
0010
0000
0001
0010
0001
0000
0100
0000
,
0001
1000
0010
0100
,
0001
1000
0001
0000
1000
0100
1000
0000
,
0002
1000
0100
0013
,
0011
0011
0011
0000
,
1000
0001
1000
0010
,
1000
0000
0001
0100
0001
0000
1000
0000
,
0010
0010
0100
0100
,
0010
0000
1000
0010
2000
0000
0000
0000
,
3001
0000
0100
0000
0001
0100
0001
0000
,
1000
1000
0010
0010
,
1000
0001
1000
0000
0001
0100
0001
0000
,
1000
0010
1000
1000
,
0001
0100
0010
0000
0100
0001
0100
0000
,
0010
0000
1000
0000
0001
1000
0010
0000
,
1000
1000
0001
0001
,
0100
0001
0100
0000
0020
0000
0000
0000
,
2030
0000
3002
0000
,
0203
0000
0302
0000
,
2003
0000
3020
0000
,
0230
0000
0302
0000
,
1003
1000
0010
0010
,
1000
1000
0001
0001
,
0200
0000
0310
0000
,
1001
1001
1001
0000
,
0010
0010
0010
1000
,
0001
1000
0001
0000
0200
0000
0301
0000
,
0010
0010
1000
1000
,
0001
1000
0001
0000
0200
0000
0301
0000
,
1000
0000
1000
0000
0001
1000
0001
0000
,
0100
0001
0100
0000
0010
0000
0010
0000
,
1000
0000
1000
0000
0001
1000
0001
0000
,
0100
0001
0100
0000
0010
0000
1000
0000
,
0001
0000
1000
0000
0001
1000
0001
0000
,
0100
0010
0100
0000
0001
0000
0001
0000
,
1000
0100
1000
0000
0001
0100
0001
0000
,
1000
1000
1000
0000
;

//---------------dance-single - ----------------
#NOTEDATA:;
#CHARTNAME:;
#CHARTHASH:2292669056;
#STEPSTYPE:dance-single;
#BANNER:;
#DESCRIPTION:;
#CHARTSTYLE:;
#DIFFICULTY:Medium;
#METER:8;
#METERF:0.000000;
#LASTSECONDHINT:105.774818;
#RADARVALUES:0.000000,0.000000,0.000000,0.000000,0.000000,0.000000,0.000000,0.000000,0.000000,0.000000,0.000000,0.000000,0.000000,0.000000,0.000000,0.000000,0.000000,0.000000,0.000000,0.000000,0.000000,0.000000,0.000000,0.000000,0.000000,0.000000,0.000000,0.000000;
#CREDIT:Musey;
#NOTES:
0000
0000
0000
0000
,
1000
0000
0010
0000
0100
0000
0010
0000
1000
0000
0000
0000
1000
0000
0001
1000
,
0001
0000
0100
0001
0200
0000
0310
0000
,
0100
0000
0001
0000
0010
0000
0100
0000
0010
0000
0001
0000
1000
0000
0010
1000
,
0010
0000
1000
0001
2000
0000
3001
0000
,
0101
0000
1010
0000
0010
1000
0010
0000
,
1100
0011
0100
0001
,
1000
0000
0001
0000
1000
0000
0010
0000
0100
0000
0001
0000
0100
0000
0010
1000
,
0010
0000
0100
0001
0100
0000
0101
0000
,
0002
1003
0020
1030
,
0001
0000
0100
0000
0010
0000
0100
0010
0100
0000
0000
0000
0010
0000
0000
0000
,
2000
3001
0200
0301
,
1000
0000
0010
0000
1000
0000
0001
1000
0001
0000
0000
0000
0100
0000
0001
0000
,
0200
0320
2030
3002
,
0103
0001
0100
0010
1000
0001
0100
0010
,
2000
0010
3100
1100
,
1001
0000
0110
0000
0100
0000
0001
0100
,
0001
0001
0001
1200
,
1300
0000
0001
0000
1000
0000
0010
1000
0010
0000
0000
0000
1000
0000
0000
0000
,
0100
0100
0100
0210
,
0310
0000
0001
0000
1000
0000
0010
1000
0002
0000
0000
0000
0000
0000
0000
0000
,
0103
0001
0100
0001
1000
0000
1010
0000
,
0001
1000
0010
1000
0100
0000
1100
0000
,
0010
0001
0100
0010
0100
0000
1010
0000
,
0001
0010
1000
0010
0001
0000
1001
0000
,
0010
0100
0001
0100
0010
0000
0110
0000
,
1000
0100
0010
0100
1000
0000
1100
0000
,
0001
1000
0010
1000
0001
1000
0100
1000
,
0001
0100
0010
0100
0002
0000
1003
0000
,
2000
3010
0200
0310
,
1000
0001
1000
0000
0001
0000
0100
0000
,
0002
1003
2000
3001
,
0100
0010
0100
0001
1000
0000
0010
0000
,
1000
1000
0010
0010
,
0100
0001
0100
0000
0001
0100
0010
0100
,
0002
1000
0103
0101
,
1010
1010
0101
0001
,
0100
0100
0100
0210
,
1300
0000
0010
0000
1000
0000
0001
1000
0010
0000
0000
0000
1000
0000
0000
0000
,
0001
0001
0001
0102
,
0103
0000
0001
0000
0100
0000
0010
0100
0002
0000
0000
0000
0000
0000
0000
0000
,
1003
0000
0010
0000
1000
0000
0001
0000
1000
0000
0000
1000
0000
0000
0010
0000
,
0100
0000
0001
0000
1000
0000
0000
2000
0000
0000
0000
0000
0000
0000
0000
0000
,
3010
0000
0100
0000
0001
0000
0100
0000
0010
0000
0000
0010
0000
0000
0100
0000
,
0001
0000
1000
0000
0010
0000
0000
0020
0000
0000
0000
0000
1030
0000
0000
0000
,
0001
0000
0100
0000
0010
0000
0100
0000
0001
0000
0000
0001
0000
0000
1000
0000
,
0100
0000
1000
0000
0001
0000
0100
0000
0010
0000
0000
0010
0000
0000
0000
0000
,
0100
0000
0001
0000
0010
0000
0100
0000
0010
0000
0000
0010
0000
0000
0001
0000
,
1000
0000
0010
0000
1000
0000
0000
1000
0000
0000
0000
0000
0000
0000
0000
0000
;

//---------------dance-single - ----------------
#NOTEDATA:;
#CHARTNAME:;
#CHARTHASH:4276866698;
#STEPSTYPE:dance-single;
#BANNER:;
#DESCRIPTION:;
#CHARTSTYLE:;
#DIFFICULTY:Hard;
#METER:11;
#METERF:0.000000;
#LASTSECONDHINT:106.047546;
#RADARVALUES:0.000000,0.000000,0.000000,0.000000,0.000000,0.000000,0.000000,0.000000,0.000000,0.000000,0.000000,0.000000,0.000000,0.000000,0.000000,0.000000,0.000000,0.000000,0.000000,0.000000,0.000000,0.000000,0.000000,0.000000,0.000000,0.000000,0.000000,0.000000;
#CREDIT:Musey;
#NOTES:
0000
0000
0000
0000
,
1000
0000
0010
0000
0100
0000
0010
0000
1000
0000
0001
0000
0010
0000
0010
1000
,
0010
0000
0001
0000
1000
0010
1000
0010
1000
0000
0000
0000
1000
0000
0000
0000
,
0001
0000
0100
0000
0010
0000
0100
0000
0001
0000
1000
0000
0100
0000
0100
0001
,
0100
0000
1000
0000
0001
0100
0001
0100
0001
0000
1000
0000
0001
0100
0001
0000
,
0100
0000
0010
0000
1000
0000
0100
0000
1000
0000
0000
0000
1000
0100
1000
0000
,
0010
0100
0001
0010
0100
0000
1100
0000
,
0010
1000
0001
0100
0010
0100
0001
0010
,
1000
0000
0010
0000
0001
0100
0001
0100
0002
0000
0000
0000
1003
0000
0000
0000
,
0120
0130
1002
1003
,
0100
0000
1000
0000
0001
1000
0001
1000
0010
0000
0000
0000
0110
0000
0000
0000
,
1002
1003
0210
0310
,
0001
0000
0010
0000
0100
0010
0001
0010
0100
0000
0000
0000
1001
0000
0000
0000
,
0010
1000
0001
0100
0010
1000
0100
1000
,
0001
0010
1000
0010
0001
0100
1000
0100
,
0020
0000
0000
0000
1000
0000
0000
0000
0100
0000
0000
0030
1010
0000
0000
0000
,
0101
0000
0000
0000
0101
0000
0000
0000
1000
0000
0001
0000
0100
0010
0100
0001
,
1000
0000
0000
0000
1000
0000
0000
0000
1001
0000
0000
0000
0120
0000
0000
0030
,
0100
1000
0001
1000
0100
1000
0001
1000
0000
0000
0000
0001
0000
2000
0000
0000
,
3010
0000
0000
0000
0010
0000
0000
0000
1010
0000
0000
0000
0210
0000
0000
0300
,
0001
0100
0001
0100
0010
0100
0001
0200
0000
0000
0000
0000
0000
0000
0000
0300
,
0110
0000
0100
0000
0010
0000
0001
0000
1000
0000
0001
0100
0000
0010
1000
0100
,
0010
0100
1000
0001
0100
0001
1000
0001
0010
0000
0000
0000
1001
0000
0000
0000
,
0100
0010
1000
0100
0010
0100
0001
0010
,
0100
0001
0100
1000
0200
0000
0301
0000
,
0011
0001
0010
1000
0010
0100
1000
0100
,
0010
0001
0100
0001
0100
0010
0100
1000
0100
0000
0000
0000
0110
0000
0000
0002
,
0000
1003
0000
0020
0000
0130
0000
0002
0000
1003
0000
0001
0000
0001
0000
0000
,
1000
0010
0100
0010
1000
0001
0010
0001
2000
0000
0000
0000
3001
0000
0000
0000
,
0200
0000
0000
0300
0001
0100
0000
0000
0020
0000
0000
0030
1000
0000
0000
0000
,
0010
0000
1000
0000
0001
1000
0001
1000
0001
0000
0000
0000
0100
0000
0000
0000
,
0002
0000
0000
0003
1000
0001
0000
0000
2000
0000
0000
0000
3010
0000
0000
0000
,
0100
0000
0010
0000
1000
0010
1000
0010
2000
0000
0000
0000
3001
0000
0000
0000
,
0010
0001
1000
0001
0010
0001
1000
0100
,
0001
0100
1000
0010
0001
0010
0100
0001
,
2000
0000
0000
0000
0001
0000
0000
0000
0100
0000
0000
3000
1010
0000
0000
0000
,
1001
0000
0000
0000
0110
0000
0000
0000
0010
0000
0001
0000
1000
0001
1000
0001
,
0100
0000
0000
0000
0010
0000
0000
0000
0011
0000
0000
0000
2010
0000
0000
3000
,
0001
0100
0010
1000
0001
0010
0001
1000
0000
0000
0000
0000
0110
0000
0000
0000
,
0001
0000
0000
0000
0001
0000
0000
0000
0101
0000
0000
0000
1020
0000
0000
0030
,
1000
0010
0100
0010
1000
0001
0010
0001
2000
0000
0000
0000
0000
0000
0000
0000
,
3010
0000
0100
0000
0010
0000
0100
0000
0001
0000
0100
0001
0000
0000
0001
0000
,
1000
0000
0001
0000
1000
0001
1000
0010
2000
0000
0000
0000
3100
0000
0000
0000
,
0110
0000
1000
0000
0100
0000
0010
0000
0100
0010
0100
0010
0000
0000
0001
0000
,
1000
0000
1000
0000
0001
1000
0001
1000
0020
0000
0000
0000
0100
0000
0000
0000
,
0130
0000
0001
0000
1000
0000
0001
0000
0010
0000
0100
1000
0000
0000
0100
0010
,
0100
1000
0001
0010
0001
1000
0001
0100
0020
0000
0000
1030
0000
0000
0000
0000
,
0001
0000
0100
0000
0001
0000
0010
0000
0100
0000
1000
0100
0000
1000
0010
0001
,
0010
1000
0010
0001
0010
1000
0001
0200
0000
0300
0000
0000
0000
0000
0000
0000
;

//---------------dance-single - ----------------
#NOTEDATA:;
#CHARTNAME:;
#CHARTHASH:3936141170;
#STEPSTYPE:dance-single;
#BANNER:;
#DESCRIPTION:;
#CHARTSTYLE:;
#DIFFICULTY:Challenge;
#METER:14;
#METERF:0.000000;
#LASTSECONDHINT:106.047546;
#RADARVALUES:0.000000,0.000000,0.000000,0.000000,0.000000,0.000000,0.000000,0.000000,0.000000,0.000000,0.000000,0.000000,0.000000,0.000000,0.000000,0.000000,0.000000,0.000000,0.000000,0.000000,0.000000,0.000000,0.000000,0.000000,0.000000,0.000000,0.000000,0.000000;
#CREDIT:Musey;
#NOTES:
0000
0000
0000
0000
,
0010
0000
1000
0000
0001
0000
0100
0010
1000
0010
0000
0000
1000
0100
0001
0100
,
1000
0000
0010
0000
1000
0001
0100
0001
1000
0000
0000
0000
0001
0000
0010
0001
,
0100
0000
0001
0000
1000
0000
0010
0100
0001
0100
0000
0000
0001
0010
1000
0010
,
0001
0000
0100
0000
0001
1000
0010
1000
0001
0000
0100
0000
0001
1000
0010
0100
,
0000
0100
0001
0000
0100
0000
0010
0000
1000
0000
0001
0100
0001
1000
0010
0100
,
0000
0010
1000
0000
0010
0000
0100
0000
0001
0000
0000
0000
0100
0010
0100
0001
,
0010
0000
0100
0010
0001
0000
0100
1000
0100
0010
0000
0000
1000
0100
0010
0100
,
1000
0010
0100
0000
0001
0010
1000
0010
0001
0100
0000
0010
0000
0200
0000
0300
,
1002
0000
0000
0003
0100
0020
0000
0030
1002
0000
0000
0003
1000
0010
0100
0010
,
0000
1000
0001
0000
0100
1000
0100
0001
1000
0000
0000
0000
0101
0000
1000
0000
,
1200
0000
0000
0300
0010
0002
0000
0003
1200
0000
0000
0300
0001
0100
0010
0100
,
0000
0001
1000
0000
0010
0001
0010
1000
0000
0000
0000
0000
0001
0100
0010
0100
,
1000
0000
0100
0000
0001
0000
0100
0010
0000
1000
0000
0001
0000
0010
1000
0010
,
0100
0000
1000
0000
0001
0100
0001
0010
0100
0000
1000
0000
0001
0000
0200
0000
,
0010
0000
0000
0000
0001
0000
0000
0000
1000
0000
0000
0300
0110
0000
0000
0000
,
1100
0000
0000
0000
0101
0000
0000
0000
0110
0000
0001
0000
0001
0010
0100
1000
,
0022
0000
0033
0000
0220
0000
0330
0000
2200
0000
3300
0000
0202
0000
0303
0001
,
0010
0100
0001
1000
0010
0100
1000
0001
0000
0000
0000
2000
0000
3002
0000
0003
,
2020
0000
3030
0000
0202
0000
0303
0000
0220
0000
0330
0000
2200
0000
3300
0100
,
1000
0010
0001
0010
1000
0001
0010
0200
0000
0000
0000
0000
0000
0000
0000
0300
,
1100
0000
0010
0000
0100
0000
1000
0000
0001
0000
0100
0010
0000
0010
0001
0010
,
1000
0100
1000
0001
0100
0001
1000
0010
0200
0000
0000
0300
1100
0000
0010
1000
,
0010
0100
1000
0000
0100
0000
0010
1000
0000
1000
0000
0001
0000
0100
0010
1000
,
0010
0100
1000
0001
0010
1000
0001
0010
0200
0000
0000
0300
1000
0001
0100
0010
,
1000
0100
0010
0000
0010
0000
0010
0000
0011
0000
0001
1000
0010
1000
0000
0010
,
0100
1000
0100
0001
1000
0001
0010
0100
0020
0000
0000
0031
0010
1000
0010
0002
,
0000
0103
0000
0020
0000
1030
0000
0200
0000
1300
0000
2000
0000
3002
0000
0103
,
1000
0100
0001
0010
0001
1000
0100
0010
0002
0000
0000
0000
1003
0000
0000
0000
,
0020
0000
0000
0030
1000
0001
0000
0000
0200
0000
0000
0300
0001
0000
0000
1000
,
0000
0000
1000
0000
0000
0000
0010
0000
0100
0000
0000
0000
0001
0000
0001
1000
,
0000
0000
1000
0000
0000
0000
0001
0000
0100
0000
0000
0000
0010
0000
0000
1000
,
0000
0000
1000
0000
0000
0000
0010
0000
0100
0000
0000
0000
0100
0000
0010
1000
,
0010
0000
0100
0000
0001
0000
1000
0001
,
0100
0000
0010
0000
1000
0001
0100
0020
,
0100
0000
0000
0000
1000
0000
0000
0000
0100
0000
0000
0030
0110
0000
0000
0000
,
2002
0000
3003
0000
0202
0000
0303
0000
1010
0000
0010
0000
0100
0001
0010
0100
,
2020
0000
3030
0000
0202
0000
0303
0000
0022
0000
0033
0000
2200
0000
3300
0001
,
0010
1000
0001
0100
1000
0010
0100
0001
0000
0000
0000
2000
0000
3020
0000
0030
,
0220
0000
0330
0000
2200
0000
3300
0000
0022
0000
0033
0000
0220
0000
0330
1000
,
0100
0001
0100
0010
1000
0010
0100
1000
0020
0000
0000
0000
1030
0010
0100
0010
,
1000
0000
0010
0000
1000
0000
0010
0000
1000
0000
0001
0200
0000
0000
0301
1000
,
0100
1000
0010
0100
0001
1000
0100
0010
0002
0000
0000
0000
0100
0000
0000
0003
,
0101
0000
1000
0000
0010
0000
1000
0000
0010
0000
1000
0002
0000
0000
1003
0001
,
0010
0001
0100
0010
1000
0001
0010
0100
1000
0000
0000
0000
0001
0010
0001
1000
,
0010
0000
0100
0000
0001
0000
0100
0000
0010
0000
1000
0001
0000
1000
0010
0001
,
0010
1000
0100
0001
0100
1000
0010
0100
0020
0000
0000
0130
0000
0000
0001
0100
,
0001
0000
0100
0000
0010
0000
0100
0000
0001
0000
0100
0001
0000
0001
0100
1000
,
0100
0001
0010
1000
0010
0001
0100
0020
0000
0030
0000
0000
0000
0000
0000
0000
;
