#VERSION:0.83;
#TITLE:Feel The POP;
#SUBTITLE:;
#ARTIST:ZEROBASEONE;
#TITLETRANSLIT:;
#SUBTITLETRANSLIT:;
#ARTISTTRANSLIT:;
#GENRE:;
#ORIGIN:;
#CREDIT:;
#BANNER:AV.avi;
#BACKGROUND:bg.png;
#PREVIEWVID:;
#JACKET:jacket.png;
#CDIMAGE:;
#DISCIMAGE:;
#LYRICSPATH:;
#CDTITLE:;
#MUSIC:audio.ogg;
#OFFSET:-0.254000;
#SAMPLESTART:58.039974;
#SAMPLELENGTH:15.000002;
#SELECTABLE:YES;
#BPMS:0.000=149.000;
#STOPS:;
#DELAYS:;
#WARPS:;
#TIMESIGNATURES:0.000=4=4;
#TICKCOUNTS:0.000=4;
#COMBOS:0.000=1;
#SPEEDS:0.000=1.000=0.000=0;
#SCROLLS:0.000=1.000;
#FAKES:;
#LABELS:0.000=Song Start;
#BGCHANGES:0.000=MV.avi=1.000=1=0=1===CrossFade==,
99999=-nosongbg-=1.000=0=0=0 // don't automatically add -songbackground-
;
#KEYSOUNDS:;
#ATTACKS:
;

//---------------dance-single - ----------------
#NOTEDATA:;
#CHARTNAME:;
#STEPSTYPE:dance-single;
#DESCRIPTION:;
#CHARTSTYLE:;
#DIFFICULTY:Challenge;
#METER:15;
#RADARVALUES:0.697893,0.785856,0.196842,0.653156,0.371315,546.000000,524.000000,22.000000,73.000000,0.000000,0.000000,0.000000,0.000000,0.000000,0.697893,0.785856,0.196842,0.653156,0.371315,546.000000,524.000000,22.000000,73.000000,0.000000,0.000000,0.000000,0.000000,0.000000;
#CREDIT:Musey;
#NOTES:
// measure 0
0000
0000
0000
0000
,  // measure 1
0000
0000
0000
0000
,  // measure 2
0000
0000
0000
0000
,  // measure 3
0000
1000
0010
0100
0001
0010
0100
1000
,  // measure 4
0020
0030
0000
0000
0020
0030
0000
0000
0020
0030
0000
0000
0020
0030
0000
0000
,  // measure 5
0100
0010
1000
0200
0300
1000
0001
1000
,  // measure 6
0020
0030
0000
0000
0020
0030
0000
0000
0020
0030
0200
0300
0020
0030
0200
0000
,  // measure 7
0301
0000
1000
0100
0010
0000
0000
0000
0001
0000
1000
0000
0100
0000
0010
0000
,  // measure 8
0100
0100
0100
0100
,  // measure 9
0100
1000
0001
0010
0000
0010
0100
1000
,  // measure 10
0020
0030
0000
0000
0020
0030
0000
0000
0010
0000
1000
0000
0001
0000
0100
0000
,  // measure 11
0010
0000
0100
0001
1000
0010
1000
0010
1000
0010
1000
0010
1000
0010
1000
0000
,  // measure 12
0001
0000
0100
0001
0100
0000
0100
0000
0010
0000
0100
0010
0100
0000
0010
0000
,  // measure 13
0001
0010
1000
0001
0010
0001
1000
0100
,  // measure 14
1000
0000
0001
0100
0001
0000
1000
0000
0010
0000
0100
0010
0100
0000
0001
0000
,  // measure 15
0010
0000
0100
0000
1000
0000
0001
0000
0010
0100
1000
0000
0010
1000
0001
0000
,  // measure 16
0100
0000
0001
0010
0001
0000
1000
0000
0010
0000
0100
1000
0100
0000
0001
0000
,  // measure 17
1001
0000
0011
0000
0101
0100
0001
0100
,  // measure 18
0010
0000
1000
0001
1000
0000
0100
0000
0010
0000
0001
0000
0010
0000
1000
0000
,  // measure 19
0110
0000
1001
0000
1001
0100
0010
0000
,  // measure 20
0001
0000
1000
0001
0020
0000
0000
0000
0130
0000
1000
0001
0200
0000
0000
0000
,  // measure 21
0310
0000
1000
0001
0020
0000
0000
0000
0130
0000
1000
0010
0200
0000
0000
0000
,  // measure 22
1300
0000
0100
0001
0020
0000
0000
0000
0031
0000
1000
0001
0200
0000
0000
0000
,  // measure 23
0301
0000
1000
0100
1000
0000
0001
0000
0020
0000
0000
0000
0130
0000
2000
0000
,  // measure 24
0001
0000
0010
0000
0100
0000
3001
0010
,  // measure 25
0001
0100
0010
0001
1000
0100
0000
1001
,  // measure 26
0000
0011
0000
1010
0000
0101
0000
0110
,  // measure 27
0000
1000
0010
0100
0001
0010
1000
0010
,  // measure 28
0002
0003
0000
0000
0002
0003
0000
0000
0002
0003
0000
0100
0002
0003
0010
0000
,  // measure 29
0110
0000
0001
1000
0001
0000
0100
0000
0010
0000
1000
0100
1000
0000
0001
0000
,  // measure 30
0020
0030
1000
0000
0020
0030
0001
0000
2000
3000
0200
0300
2000
3000
0200
0300
,  // measure 31
2000
3000
0020
0030
2000
3000
0020
0030
0100
0000
0001
1000
0001
1000
0001
0000
,  // measure 32
1010
1000
0110
0010
0101
0100
1010
1000
,  // measure 33
0001
0000
0100
0001
0100
0000
0001
0000
1000
0000
0010
0100
0010
0000
1000
0000
,  // measure 34
0002
0003
0100
0000
2000
3000
0100
0000
0002
0003
0020
0030
0002
0003
0020
0030
,  // measure 35
0100
0000
1000
0001
1000
0001
1000
0001
1000
0001
1000
0001
1000
0000
0001
0000
,  // measure 36
0101
0000
0100
0010
2000
0000
0001
0000
3001
0000
0100
0010
0002
0000
0010
0000
,  // measure 37
0013
0000
0100
0001
2000
0000
0100
0000
3100
0000
0010
0001
0020
0000
0130
0000
,  // measure 38
1000
0000
1001
0000
0001
0000
0100
0000
0020
0030
1000
0010
0100
0000
0001
0000
,  // measure 39
0010
0000
0001
0000
1000
0000
1000
0000
0001
0000
0100
0000
0020
0030
0020
0030
,  // measure 40
1000
0000
0010
0100
0002
0000
1000
0000
1003
0000
0001
0010
0200
0000
0010
0000
,  // measure 41
0310
0000
0100
1000
0002
0000
1000
0000
1003
0000
0010
0100
0001
0000
0010
0000
,  // measure 42
0100
0000
1100
0000
0001
0000
0100
0000
0020
0030
1000
0001
0010
0000
0001
0000
,  // measure 43
0100
0000
0001
0000
1000
0001
1000
0001
1000
0001
1000
0001
1000
0001
1000
0000
,  // measure 44
0001
0100
1000
0000
1000
0100
0001
0000
0001
0100
1000
0000
1000
0100
0001
0000
,  // measure 45
1000
0000
0000
0000
0100
0000
0000
0000
0001
0000
0000
0100
0000
0000
1000
0000
,  // measure 46
1000
0100
0001
0000
0001
0100
1000
0000
1000
0100
0001
0000
0001
0100
1000
0000
,  // measure 47
0001
0000
0000
0000
0100
0000
0000
0000
0010
0000
0000
1000
0000
0000
0001
0000
,  // measure 48
1000
0001
0010
0000
0001
1000
0100
0000
1000
0001
0010
0000
0001
1000
0100
0000
,  // measure 49
1000
0000
0000
0000
1000
0000
0000
0000
0010
0000
0000
0100
0000
0000
0001
0000
,  // measure 50
0010
0000
0010
0000
0001
0000
1000
0000
0200
0300
0000
0000
2000
0000
0000
0000
,  // measure 51
3020
0000
0130
0000
0001
1000
0100
0010
,  // measure 52
0002
0003
0000
0000
0002
0003
0000
0000
2000
3000
0000
0000
2000
3000
0000
0000
,  // measure 53
0001
0100
0010
1000
0000
1000
0100
0010
,  // measure 54
0002
0003
0000
0000
0002
0003
0000
0000
0002
0003
2000
3000
0002
0003
2000
3000
,  // measure 55
0002
0000
0000
0000
0003
1000
0001
0010
,  // measure 56
0100
0100
0100
0100
,  // measure 57
1000
0001
1000
0010
0000
1000
0100
0010
,  // measure 58
0002
0003
0000
0000
0002
0003
0000
0000
0001
0000
1000
0000
0010
0000
0100
0000
,  // measure 59
0001
1000
0001
0000
0010
0000
0010
0000
0001
1000
0001
0000
0100
0000
0100
0000
,  // measure 60
0001
0000
1000
0001
1000
0001
0100
0000
0010
0000
0010
0100
0010
0100
0001
0000
,  // measure 61
1000
0000
0010
1000
0010
1000
0001
0000
0010
0000
0001
0100
0001
0100
0001
0000
,  // measure 62
1000
0000
1100
0000
0010
0000
1000
0000
0002
0003
0100
0000
1000
0000
0100
0000
,  // measure 63
0001
0000
1000
0000
0100
0000
0100
0000
1000
0000
0001
0000
0020
0030
0020
0030
,  // measure 64
0011
0000
0001
1000
0001
0100
0010
0000
1000
0000
0001
0010
0100
0010
0001
0000
,  // measure 65
1000
0000
0001
0100
0001
0010
0100
0000
1000
0000
0001
0100
1000
0100
0010
0000
,  // measure 66
0100
0110
0001
1000
0020
0000
1030
0000
,  // measure 67
0001
0000
1000
0000
0100
0000
0010
0000
0002
0003
0000
0000
0000
0000
0000
0000
;

//---------------dance-single - ----------------
#NOTEDATA:;
#CHARTNAME:;
#STEPSTYPE:dance-single;
#DESCRIPTION:;
#CHARTSTYLE:;
#DIFFICULTY:Hard;
#METER:10;
#RADARVALUES:0.572630,0.635317,0.187894,0.313157,0.143158,448.000000,427.000000,21.000000,35.000000,0.000000,0.000000,0.000000,0.000000,0.000000,0.572630,0.635317,0.187894,0.313157,0.143158,448.000000,427.000000,21.000000,35.000000,0.000000,0.000000,0.000000,0.000000,0.000000;
#CREDIT:Musey;
#NOTES:
0000
0000
0000
0000
,
0000
0000
0000
0000
,
0000
0000
0000
0000
,
0000
1000
0100
0010
0001
0100
1000
0100
,
0010
0010
0010
0010
,
0001
1000
0001
0010
0000
0100
0010
0001
,
1000
0000
1000
0000
1000
0010
1000
0010
,
0100
0000
0001
0000
0001
0010
0100
1000
,
0001
0001
0001
0001
,
0100
0010
0100
0001
0000
1000
0100
0001
,
0100
0000
0100
0000
0100
1000
0001
1000
,
0010
0000
0000
0000
,
1000
0010
0001
0010
1000
0001
0100
0001
,
0010
0000
0100
0000
0010
0000
0001
0000
1000
0001
1000
0000
0010
0000
0100
0000
,
0001
1000
0010
0100
1000
0100
0001
0010
,
0100
0000
1000
0000
0100
0000
0010
0000
0001
0100
0010
0000
1000
0010
0100
0000
,
0001
0000
1001
0000
0001
0010
0001
0100
,
0010
0000
0000
0000
1010
0000
0000
0000
0001
1000
0010
0000
0100
0000
0001
0000
,
0010
0000
0011
0000
0001
1000
0100
1000
,
0001
0000
0110
0000
0001
0010
0200
0000
,
2300
0001
3001
0000
0002
1000
1003
0000
,
0020
0100
0130
0000
0200
0001
0301
0000
,
0002
1000
1003
0000
2000
0100
3100
0000
,
1001
0000
0001
1000
0010
0100
0001
0020
,
0100
0000
0100
0000
0001
0000
0130
2000
,
3001
0200
0310
2000
3001
0020
0000
0032
,
0000
0203
0000
0320
0000
2030
0000
3100
,
0000
1000
0010
0001
0010
1000
0100
0010
,
0001
0001
0001
1001
,
1000
0000
0100
0000
0001
0000
0100
0000
1000
0000
0010
0100
1000
0000
0100
0000
,
0010
0000
0010
0000
0010
1000
0010
1000
,
0010
0000
0100
0000
0010
0000
0100
0000
0001
0000
1000
0010
0100
0000
0001
0000
,
0010
0010
0010
0010
,
0001
0000
0100
0000
1000
0000
0100
0000
0001
0000
1000
0010
1000
0000
0010
0000
,
0100
0000
0100
0000
0100
0010
0100
0010
,
0100
0000
0001
1000
0001
0000
0100
0000
0010
0000
0010
0000
0200
0000
0000
0000
,
0302
0000
0000
0003
1001
0000
0000
0000
1000
0000
0010
0000
1010
0000
0100
0000
,
0002
0000
0000
0003
0101
0000
0000
0000
2000
0000
0000
3000
1010
0000
0000
0000
,
1100
0000
1100
0000
0010
0000
0001
0000
2000
0000
0000
3000
1001
0000
0000
0000
,
0100
0001
0010
0010
0100
0010
0001
0001
,
0200
0000
0000
0300
0101
0000
0000
0000
1000
0000
0001
0000
0101
0000
0100
0000
,
0020
0000
0000
0030
1010
0000
0000
0000
1000
0000
0001
0000
1001
0000
0000
0000
,
0100
0000
0100
0000
0001
0000
1000
0000
0020
0000
0000
0030
1010
0000
0000
0000
,
1000
0000
0100
1000
0010
0000
0100
0000
0001
0000
0100
0000
0020
0000
0000
0000
,
1030
0010
1000
0000
0010
1000
0010
0000
1000
0010
1000
0000
0010
1000
0010
0000
,
1000
0000
0000
0000
0001
0000
0000
0000
1000
0000
0000
0010
0000
0000
0100
0000
,
0001
0100
0001
0000
0100
0001
0100
0000
0001
0100
0001
0000
0100
0001
0100
0000
,
0001
0000
0000
0000
1000
0000
0000
0000
0010
0000
0000
1000
0000
0000
0100
0000
,
0010
0100
0010
0000
0100
0010
0100
0000
0010
0100
0010
0000
0100
0010
0100
0000
,
1000
0000
0000
0000
0001
0000
0000
0000
1000
0000
0000
0010
0000
0000
0100
0000
,
0001
0001
1000
0100
0020
0000
0130
0000
,
2000
0000
3001
0000
1000
0100
0010
0001
,
0100
0100
0001
0001
,
1000
0001
1000
0001
0000
1000
0100
0010
,
0001
0000
0001
0000
0100
0001
0100
0001
,
2000
0000
0000
0000
3010
1000
0100
0010
,
0001
0001
0100
0100
,
0010
1000
0010
1000
0000
0100
0010
0001
,
0100
0000
0100
0000
0001
1000
0001
1000
,
0010
1000
0010
0000
1000
0000
1000
0000
0010
1000
0010
0000
0100
0000
0100
0000
,
0001
0000
1000
0010
2000
0000
0000
0000
3100
0000
0001
0000
0100
0000
1000
0000
,
0010
0000
0100
0001
2000
0000
0000
0000
3100
0000
1000
0000
1010
0000
0000
0000
,
0100
0100
0001
1000
0200
0000
1300
0000
,
0001
1000
0100
0100
1000
0010
0001
0001
,
0010
0000
1000
0010
2000
0000
0000
0000
3100
0000
1000
0001
1000
0000
0010
0000
,
0100
0000
0001
0010
0002
0000
0000
0000
0103
0000
0010
0100
2000
0000
0000
0000
,
3100
0100
0010
1000
0100
0000
0011
0000
,
1010
0000
0001
1000
0200
0300
0000
0000
;

//---------------dance-single - ----------------
#NOTEDATA:;
#CHARTNAME:;
#STEPSTYPE:dance-single;
#DESCRIPTION:;
#CHARTSTYLE:;
#DIFFICULTY:Medium;
#METER:7;
#RADARVALUES:0.411578,0.484946,0.098421,0.420525,0.000000,322.000000,311.000000,11.000000,47.000000,0.000000,0.000000,0.000000,0.000000,0.000000,0.411578,0.484946,0.098421,0.420525,0.000000,322.000000,311.000000,11.000000,47.000000,0.000000,0.000000,0.000000,0.000000,0.000000;
#CREDIT:Musey;
#NOTES:
0000
0000
0000
0000
,
0000
0000
0000
0000
,
0000
0000
0000
0000
,
0000
1000
0100
0010
0001
0010
0001
0000
,
1000
1000
0010
0010
,
1000
0001
0100
0010
0000
1000
0100
0010
,
0001
0000
0001
0000
1000
0001
1000
0001
,
0100
0000
0000
0000
0000
0010
0001
0010
,
0100
0100
0010
0010
,
0001
0010
0001
1000
0000
0010
0100
0001
,
1000
0000
1000
0000
0100
1000
0001
0100
,
0020
0000
0000
0000
,
1030
0000
0001
0000
0100
0001
0010
0100
,
1000
0010
0100
0001
1000
0000
1001
0000
,
0010
0000
0010
0000
1000
0100
0010
0001
,
1000
0010
0100
0001
1000
0000
1001
0000
,
0001
0000
0001
0000
0010
0100
0010
0001
,
1000
1000
0010
1010
,
0001
0100
0010
0000
1000
0100
1000
0001
,
0010
0010
0101
1010
,
0002
0000
0023
0000
,
0230
0000
2300
0000
,
3020
0000
0230
0000
,
0301
0001
1000
1000
,
0020
0130
2000
3001
,
0002
0013
0200
0310
,
0001
1000
0001
1000
0010
0100
0010
0100
,
0002
0013
2000
3001
,
0100
0100
0100
0101
,
0001
0010
0100
2000
0000
3001
0100
0010
,
1000
0000
1000
0000
1000
0010
1000
0010
,
0200
0000
0301
0000
0100
0001
0010
0100
,
1000
1000
0010
0010
,
1000
0001
0010
0100
0000
0100
0010
0001
,
1000
0000
1000
0000
0010
0100
0010
0100
,
0002
0013
0100
0100
,
2000
0000
0001
0000
3010
0000
0100
0001
,
0200
0001
0310
0100
,
0001
1000
0001
1000
0200
0000
0310
0000
,
0002
1003
0020
1030
,
0002
0000
1000
0000
0013
0000
0100
0001
,
0200
0010
0301
1000
,
0001
0100
0001
0100
0020
0000
1030
0000
,
0200
0000
0310
0000
0001
1000
0001
0000
,
0100
0100
0001
0001
,
1000
1001
0001
1001
,
0100
0010
0001
0000
0001
0010
0100
0000
,
1000
1000
0010
1010
,
0001
0100
0010
0100
0001
0100
0010
0100
,
0001
1001
0001
1001
,
0001
0010
0100
1000
0020
0000
1030
0000
,
0200
0000
0310
0000
,
2000
0000
3002
0000
,
0103
0000
0100
0000
0010
1000
0010
0000
,
0200
0000
0302
0000
,
1003
0000
1000
0001
,
0200
0000
0302
0000
,
0103
0000
0100
0000
0010
1000
0001
0000
,
0020
0000
0032
0000
,
0103
0100
0010
0010
,
1000
0001
0200
0000
0301
0010
0200
0000
,
0310
0001
2000
0000
3010
0100
0002
0000
,
1003
0001
1000
0001
0200
0000
0310
0000
,
2000
0001
3010
0100
,
0001
0010
0200
0000
0310
0001
2000
0000
,
3010
0100
0002
0000
0013
0100
0020
0000
,
0031
1000
0010
1000
0002
0000
0103
0000
,
0010
1000
0001
0010
0200
0000
0300
0000
;

//---------------dance-single - ----------------
#NOTEDATA:;
#CHARTNAME:;
#STEPSTYPE:dance-single;
#DESCRIPTION:;
#CHARTSTYLE:;
#DIFFICULTY:Easy;
#METER:4;
#RADARVALUES:0.214736,0.271776,0.017895,0.366841,0.000000,168.000000,166.000000,2.000000,41.000000,0.000000,0.000000,0.000000,0.000000,0.000000,0.214736,0.271776,0.017895,0.366841,0.000000,168.000000,166.000000,2.000000,41.000000,0.000000,0.000000,0.000000,0.000000,0.000000;
#CREDIT:Musey;
#NOTES:
0000
0000
0000
0000
,
0000
0000
0000
0000
,
0000
0000
0000
0000
,
1000
0001
0100
0100
,
0002
0000
0013
0000
,
2000
0000
3010
0100
,
0002
0000
0013
0000
,
2000
0000
3010
0100
,
0002
0000
0013
0000
,
0200
0000
0310
0001
,
2000
0000
3010
0000
,
0100
0000
0100
0000
,
0001
1000
0001
0010
,
0100
0100
2000
0000
,
3001
0001
0100
0100
,
0010
1000
0002
0000
,
0013
0010
0100
0100
,
1000
0010
2000
0000
,
3010
0100
0001
0010
,
0002
0000
2003
0000
,
3020
0000
0100
0000
,
0230
0000
0010
0000
,
0302
0000
0010
0000
,
0023
0000
0130
0000
,
2000
0000
3010
0000
,
0002
0000
0103
0000
,
0010
1000
0010
0100
,
0002
0000
0013
0000
,
0100
0000
0100
0000
,
0110
0000
1001
0000
,
0001
1000
0001
0100
,
0020
0000
1030
0000
,
0001
0000
0001
0000
,
1000
0100
0010
0001
,
1000
0000
1000
0000
,
0020
0000
0130
0000
,
0002
0000
1003
0001
,
2000
0000
3010
0000
,
0100
0001
0010
0100
,
2000
0000
3001
0000
,
0200
0000
0310
0000
,
0002
0000
0013
0000
,
1000
0100
0020
0000
,
0032
0000
0103
0000
,
1000
1000
0001
0001
,
0200
0000
0310
0000
,
1000
1000
0001
0001
,
0200
0000
0310
0000
,
1000
0001
1000
0001
,
0200
0000
0310
0000
,
1000
1000
0001
0001
,
0020
0000
0031
0000
,
2000
0000
0000
0000
,
3002
0000
0000
0000
,
0203
0000
0000
0000
,
0320
0000
0000
0000
,
1030
0000
1000
0000
,
0001
0000
0001
0000
,
0100
0000
0100
0000
,
0010
0000
0010
0000
,
1000
0001
1000
0001
,
0200
0000
0310
0000
,
1000
0001
0010
0100
,
2000
0000
3001
0000
,
0200
0000
0310
0000
,
0002
0000
0013
0000
,
0001
0010
0100
1000
,
0002
0000
1003
0000
;

//---------------dance-single - ----------------
#NOTEDATA:;
#CHARTNAME:;
#STEPSTYPE:dance-single;
#DESCRIPTION:;
#CHARTSTYLE:;
#DIFFICULTY:Beginner;
#METER:2;
#RADARVALUES:0.157218,0.181184,0.000000,0.232631,0.000000,123.000000,123.000000,0.000000,26.000000,0.000000,0.000000,0.000000,0.000000,0.000000,0.157218,0.181184,0.000000,0.232631,0.000000,123.000000,123.000000,0.000000,26.000000,0.000000,0.000000,0.000000,0.000000,0.000000;
#CREDIT:Musey;
#NOTES:
0000
0000
0000
0000
,
0000
0000
0000
0000
,
0000
0000
0000
0000
,
0000
1000
0001
0100
,
0010
0000
0010
0000
,
1000
0000
1000
0000
,
0001
0000
0001
0000
,
0100
0000
0100
0000
,
0010
0000
0010
0000
,
1000
0000
1000
0000
,
0001
0000
0001
0000
,
0100
0000
0000
0000
,
0002
0000
1003
0000
,
0010
0001
0010
0000
,
0002
0000
1003
0000
,
1000
0000
2000
0000
,
3010
0000
0010
0000
,
0100
0001
0200
0000
,
0301
0000
0001
0000
,
1000
0000
1000
0000
,
0020
0000
0000
0000
,
2030
0000
0000
0000
,
3002
0000
0000
0000
,
0103
0000
0000
0000
,
0200
0000
0000
0000
,
0320
0000
0000
0000
,
1030
0000
1000
0000
,
0001
0000
0001
0000
,
0100
0000
0100
0000
,
0100
0000
0001
0000
,
1000
0000
1000
0000
,
0020
0000
0130
0000
,
0001
0000
0001
0000
,
1000
0000
1000
0000
,
0010
0000
0010
0000
,
0200
0000
0301
0000
,
2000
0000
3001
0000
,
0002
0000
1003
0000
,
0100
0000
0100
0000
,
0020
0000
1030
0000
,
2000
0000
3001
0000
,
0002
0000
0103
0000
,
0010
0000
0010
0000
,
0002
0000
0103
0000
,
1000
0000
1000
0000
,
1000
0000
1000
0000
,
0001
0000
0001
0000
,
0001
0000
0001
0000
,
0100
0000
0100
0000
,
0100
0000
0100
0000
,
0010
0000
1000
0000
,
0020
0000
0130
0000
,
0002
0000
0000
0000
,
1003
0000
0000
0000
,
2000
0000
0000
0000
,
3010
0000
0000
0000
,
0100
0000
0100
0000
,
0001
0000
0001
0000
,
1000
0000
1000
0000
,
0020
0000
0000
0000
,
1030
0000
1000
0001
,
0200
0000
0301
0000
,
0001
0000
0010
0000
,
0002
0000
1003
0000
,
2000
0000
3001
0100
,
0020
0000
1030
0000
,
1000
0000
1000
0000
,
0002
0000
0103
0000
;
