#VERSION:0.83;
#TITLE:Fuwari;
#SUBTITLE:;
#ARTIST:MIMI Covered By Hanon x Kotoha;
#TITLETRANSLIT:;
#SUBTITLETRANSLIT:;
#ARTISTTRANSLIT:;
#GENRE:;
#ORIGIN:;
#CREDIT:;
#BANNER:bn.png;
#BACKGROUND:bg.png;
#PREVIEWVID:;
#JACKET:jacket.png;
#CDIMAGE:;
#DISCIMAGE:;
#LYRICSPATH:;
#CDTITLE:;
#MUSIC:Fuwari.ogg;
#OFFSET:-0.200000;
#SAMPLESTART:46.985409;
#SAMPLELENGTH:15.000008;
#SELECTABLE:YES;
#BPMS:0.000=164.000;
#STOPS:;
#DELAYS:;
#WARPS:;
#TIMESIGNATURES:0.000=4=4;
#TICKCOUNTS:0.000=4;
#COMBOS:0.000=1;
#SPEEDS:0.000=1.000=0.000=0;
#SCROLLS:0.000=1.000;
#FAKES:;
#LABELS:0.000=Song Start;
#BGCHANGES:0.000=mv.avi=1.200=1=0=0=StretchNoLoop==CrossFade==,
3.000=mv.avi=1.000=0=0=1=====,
99999=-nosongbg-=1.000=0=0=0 // don't automatically add -songbackground-
;
#KEYSOUNDS:;
#ATTACKS:
;

//---------------dance-single - ----------------
#NOTEDATA:;
#CHARTNAME:;
#STEPSTYPE:dance-single;
#DESCRIPTION:;
#CHARTSTYLE:;
#DIFFICULTY:Challenge;
#METER:14;
#RADARVALUES:0.665303,0.695345,0.328187,0.015628,0.128930,596.000000,554.000000,42.000000,2.000000,0.000000,0.000000,0.000000,0.000000,0.000000,0.665303,0.695345,0.328187,0.015628,0.128930,596.000000,554.000000,42.000000,2.000000,0.000000,0.000000,0.000000,0.000000,0.000000;
#CREDIT:Rajeious's Chart;
#NOTES:
0000
0000
0000
0000
,
0000
0000
0000
0000
,
0000
0000
0000
0000
,
0000
0000
0000
0000
,
0000
0000
1000
0000
0100
0010
0001
0000
,
0010
1000
0100
0000
0001
0010
0100
0000
,
1100
0000
0110
0000
0001
1000
0100
0000
,
0100
0000
0010
0000
0001
0000
0000
0000
1000
0000
0010
0000
0100
0000
0001
1000
,
0001
0000
1000
0001
1000
0000
0000
0000
0010
0000
0100
0000
0010
0000
0000
0000
,
0010
1000
0001
0000
0010
0100
1000
0000
,
1010
0000
1001
0000
0100
0010
0001
0000
,
0001
1000
0001
0000
0010
1000
0010
0000
,
1000
0000
0001
0000
0001
1000
0100
0000
,
0100
0010
0001
0000
0001
1000
0010
0100
,
0001
0100
1000
0001
0010
1000
0001
1000
,
0100
0010
0001
0100
0010
1000
0010
0000
,
0000
0000
0001
0000
1000
0100
0010
0000
,
0001
0010
0100
0000
1000
0001
0010
0100
,
1000
0010
0100
0001
0100
0010
0001
1000
,
0100
0010
0100
0010
1000
0001
0010
0100
,
0010
0001
1000
0000
0100
1000
0100
0000
,
0001
0010
0100
0000
0010
1000
0001
0100
,
0001
0010
1000
0001
0100
1000
0100
0010
,
0100
0010
0001
1000
0010
0100
0001
0000
,
0010
0000
1000
0000
0100
0010
0001
0000
,
0001
0010
0100
0000
0100
1000
0010
0100
,
0001
0010
0011
0000
0100
1000
1100
0000
,
0000
1001
0000
1010
0000
1000
1100
0000
,
0010
0000
1001
0000
1000
0010
0001
0000
,
0010
0000
1001
0000
0010
0100
0001
0000
,
0010
0000
1100
0000
1000
0010
0001
0000
,
0010
0000
1000
0001
0010
0001
1000
0000
,
0010
1000
0010
0000
0001
0100
0001
0000
,
1000
0001
0100
0010
0001
0010
1000
0000
,
0010
1000
0010
0000
0020
0000
1030
0001
,
0010
0000
0100
0000
1000
0000
0001
0100
0001
0000
0100
0000
0010
0000
0000
0000
,
0001
0010
0001
0000
0100
1000
0100
0000
,
0010
0100
0001
1000
0100
0010
0001
0000
,
0001
1000
0010
0000
0010
0100
0001
0010
,
0010
0000
0100
0000
1000
0000
0001
1000
0001
0000
0010
0000
0100
0000
0000
0000
,
1001
0000
0110
0000
0001
0100
0001
0010
,
0001
0000
1000
0000
0100
0000
1000
0001
0100
0000
0010
0000
1000
0000
0000
0000
,
0011
0000
1010
0000
1000
0010
1000
0100
,
1000
0000
0001
0000
0010
0000
0001
1000
0010
0000
0100
0000
0001
0000
0000
0000
,
0000
0000
1001
0000
1000
0001
0100
0000
,
1010
0000
0010
0000
1000
0010
0001
0010
,
0100
0001
1001
0000
1000
0100
0010
0000
,
0011
0000
0010
0100
1000
0001
0100
0010
,
0010
0000
1001
0000
0010
1000
0100
0000
,
0011
0000
0010
0000
0001
0100
1000
0100
,
0010
1000
1001
0000
0000
0100
0110
0000
,
0000
1001
0000
0011
0000
1000
1010
0000
,
0011
0000
0000
0000
0010
0000
0001
0010
0001
0000
0100
0000
0010
0000
1000
0000
,
0100
0000
1000
0000
0100
0000
0010
0100
0010
0000
0001
0000
1000
0000
0001
0000
,
0100
0000
0010
0000
1000
0000
0001
1000
0001
0000
0010
0000
0100
0000
0010
0000
,
0001
0000
1000
0000
0001
0000
1000
0100
1000
0100
0010
0001
1000
0000
0010
0000
,
1000
0000
0000
0000
0010
0000
0100
0010
0100
0000
0001
0000
1000
0000
0100
0000
,
0010
0000
0100
0000
1000
0000
0001
1000
0001
0000
1000
0000
0100
0000
0000
0000
,
1000
0000
0001
0000
1000
0000
0010
1000
0010
0000
0100
0000
0001
0000
0010
0000
,
0100
0000
0010
0000
0100
0000
1000
0100
0010
0100
1000
0001
1000
0000
0001
0000
,
1000
0001
0010
0000
0001
0010
0001
0000
,
1000
0001
0010
0100
0010
0001
1000
0000
,
0001
0000
0010
0001
1000
0000
0000
0000
0010
0000
0100
0000
0001
0000
0010
0000
,
0100
0000
0001
0000
0100
0000
1000
0001
1000
0000
0001
0000
0010
0000
0001
0000
,
0001
0000
1010
0000
0100
0001
0010
0000
,
0100
1000
0010
0100
0001
0100
1000
0000
,
0001
0100
0001
0000
1000
0010
0001
0010
,
0100
0000
0001
0000
0010
0000
0001
1000
0001
0000
1000
0000
0010
0000
0000
0000
,
0100
0001
1010
0000
0010
1000
0101
0000
,
0100
0000
0010
0000
1000
0000
0001
1000
0100
0000
1000
0000
1001
0000
0000
0000
,
0100
0010
1001
0000
1000
0001
0100
0001
,
0100
0000
0010
0000
1000
0000
0001
0100
0010
0100
0001
0000
0100
0000
0010
0000
,
0110
0000
0100
0000
0010
0100
1001
0000
,
0010
1000
0001
0010
0001
0100
0110
0000
,
0001
0100
1010
0000
1000
0100
0010
0100
,
1000
0000
0001
0000
1000
0000
0010
1000
0001
1000
0010
0000
0100
0000
0001
1000
,
0001
0100
0110
0000
0100
0001
0100
1000
,
0100
0000
0001
0000
0010
0000
0001
1000
0001
0000
0010
0000
0100
0000
0000
0000
,
1100
0000
0101
0000
0010
1000
0010
0001
,
0010
0000
1000
0000
0100
0000
1000
0001
1000
0000
0100
0000
0010
0000
0001
0010
,
0001
0000
1000
0100
1000
0000
0000
0000
1000
0000
0100
0000
0001
0000
1000
0000
,
0010
0000
0100
0000
1000
0000
0001
0100
0010
0000
1000
0000
0001
0000
0000
0000
,
0110
0000
1001
0000
0010
0001
0100
0010
,
1000
0000
0100
0000
1000
0000
0001
0010
0001
0000
1000
0000
0010
0000
1000
0000
,
0001
0010
0200
0000
0000
0000
0300
0000
;

//---------------dance-single - ----------------
#NOTEDATA:;
#CHARTNAME:;
#STEPSTYPE:dance-single;
#DESCRIPTION:;
#CHARTSTYLE:;
#DIFFICULTY:Hard;
#METER:12;
#RADARVALUES:0.498977,0.557917,0.164093,0.171907,0.000000,447.000000,426.000000,21.000000,22.000000,0.000000,0.000000,0.000000,0.000000,0.000000,0.498977,0.557917,0.164093,0.171907,0.000000,447.000000,426.000000,21.000000,22.000000,0.000000,0.000000,0.000000,0.000000,0.000000;
#CREDIT:Rajeious's Chart;
#NOTES:
// measure 0
0000
0000
0000
0000
,  // measure 1
0000
0000
0000
0000
,  // measure 2
0000
0000
0000
0000
,  // measure 3
0000
0000
0000
0000
,  // measure 4
0000
0000
0001
0000
1000
0100
0010
0000
,  // measure 5
0100
0001
1000
0000
0001
0010
0100
0000
,  // measure 6
0002
0000
2003
0000
3100
0010
0100
0000
,  // measure 7
0010
0001
0010
0000
0001
1000
0001
0000
,  // measure 8
0100
0000
0010
0000
0100
0001
1000
0000
,  // measure 9
1000
0100
0010
0000
0010
0001
0100
0000
,  // measure 10
2000
0000
3020
0000
0130
0001
1000
0000
,  // measure 11
0001
0100
0010
0000
1000
0100
0010
0000
,  // measure 12
0100
0000
0001
0000
0001
0000
1000
0100
,  // measure 13
0010
0000
0001
0000
0001
0000
1000
0010
,  // measure 14
0100
0000
0001
0000
0001
0000
1000
0100
,  // measure 15
0010
0000
1000
0000
1000
0000
0010
0100
,  // measure 16
0001
0000
1000
0000
0100
0000
0010
0001
,  // measure 17
1000
0000
0010
0000
0100
0000
0001
1000
,  // measure 18
0010
0000
0100
0000
0001
0000
1000
0100
,  // measure 19
0010
0000
0001
0000
1000
0000
0001
0100
,  // measure 20
1000
0100
0001
0000
0010
0001
0100
0000
,  // measure 21
0010
1000
0010
0000
0100
0000
0001
0010
,  // measure 22
0100
1000
0001
0000
0100
0000
0010
1000
,  // measure 23
0001
0000
0010
0001
0100
0001
0010
0000
,  // measure 24
0001
0000
1000
0000
1000
0100
0010
0000
,  // measure 25
0010
0001
0100
0000
0010
1000
0000
0001
,  // measure 26
0010
0100
1000
0000
0000
0100
0001
0000
,  // measure 27
0000
1000
0000
0010
0000
1000
0001
0000
,  // measure 28
0010
0101
0010
1001
,  // measure 29
0100
1010
1010
0011
,  // measure 30
0100
1001
0100
0011
,  // measure 31
1000
0001
0010
0100
0010
0001
0100
0000
,  // measure 32
0001
1000
0001
0000
0100
1000
0100
0000
,  // measure 33
2000
0000
3010
0000
0100
0010
1000
0000
,  // measure 34
0002
0000
0013
0000
0010
0100
1000
0000
,  // measure 35
0001
0000
0100
0001
1000
0001
0100
0000
,  // measure 36
1000
0001
0010
0000
1000
0001
0010
0000
,  // measure 37
0002
0000
1003
0000
0100
0010
0001
0000
,  // measure 38
2000
0000
3010
0000
0100
0010
0100
0000
,  // measure 39
0001
0000
1000
0010
0001
0010
1000
0000
,  // measure 40
0100
1001
0110
1100
,  // measure 41
1001
0000
1010
0000
0001
0100
0001
0000
,  // measure 42
0110
1001
1010
0110
,  // measure 43
1001
0000
0110
0000
0001
1000
0010
0000
,  // measure 44
0000
0000
1000
0000
0010
1000
0010
0000
,  // measure 45
0100
0000
0100
0010
,  // measure 46
1000
0000
0001
0000
0010
0001
0010
0000
,  // measure 47
0001
0000
0000
0000
0100
0001
0010
0000
,  // measure 48
0001
0000
0001
0000
0001
1000
0100
0000
,  // measure 49
1000
0000
0000
0000
0010
0000
0100
0001
,  // measure 50
1000
0000
1000
0000
0000
0001
1000
0000
,  // measure 51
0000
0010
0000
0100
0000
0001
0001
0000
,  // measure 52
0200
0000
0010
0000
0310
1000
0100
0000
,  // measure 53
0002
0000
0010
0000
0013
0001
1000
0000
,  // measure 54
0200
0000
0010
0000
0310
0001
1000
0000
,  // measure 55
0002
0000
0100
0000
0103
0010
0100
0010
,  // measure 56
1000
0000
0002
0000
0103
0010
0100
0000
,  // measure 57
0020
0000
1000
0000
1030
0001
1000
0000
,  // measure 58
0100
1000
0200
0000
0310
0001
0020
0000
,  // measure 59
0031
1000
0100
0010
0001
1000
0010
0100
,  // measure 60
0001
1000
0100
0000
0100
1000
0001
0000
,  // measure 61
0200
0000
0301
0000
1000
0100
0010
0000
,  // measure 62
0002
0000
0103
0000
0010
1000
0001
0000
,  // measure 63
0100
0000
0001
0010
1000
0010
0100
0000
,  // measure 64
1000
0100
0001
0000
0001
0100
1000
0000
,  // measure 65
0020
0000
0130
0000
0001
1000
0100
0000
,  // measure 66
2000
0000
3010
0000
0001
0010
0100
0000
,  // measure 67
1000
0000
1000
0100
0001
0100
0010
0000
,  // measure 68
1000
0001
0010
0000
0010
0001
1000
0000
,  // measure 69
1000
0001
1000
0001
0010
0001
0010
0000
,  // measure 70
0200
0000
0310
0000
1000
0001
1000
0001
,  // measure 71
0010
0100
1000
0001
0010
0001
1000
0000
,  // measure 72
0010
1000
0100
0000
0100
1000
0010
0000
,  // measure 73
1000
0010
1000
0100
0010
0001
0100
0000
,  // measure 74
0002
0000
1003
0000
1000
0100
0010
0001
,  // measure 75
0100
1000
0100
0010
1000
0001
0100
0000
,  // measure 76
0001
0000
1000
0000
0100
1000
0100
0000
,  // measure 77
0010
0100
0010
0000
0001
1000
0100
0000
,  // measure 78
0010
0000
1001
0000
0010
0001
0010
0000
,  // measure 79
0100
0010
0100
0000
1000
0001
0010
0000
,  // measure 80
0000
0000
1000
0000
1000
0010
0001
0000
,  // measure 81
0001
0010
1000
0000
1000
0001
0100
0000
,  // measure 82
1000
0000
1010
0000
0010
0100
0001
0000
,  // measure 83
0001
0010
0100
0000
0100
1000
0010
0000
,  // measure 84
1001
0000
0000
0000
;

//---------------dance-single - ----------------
#NOTEDATA:;
#CHARTNAME:;
#STEPSTYPE:dance-single;
#DESCRIPTION:;
#CHARTSTYLE:;
#DIFFICULTY:Medium;
#METER:8;
#RADARVALUES:0.378419,0.392652,0.046884,0.265675,0.000000,339.000000,333.000000,6.000000,34.000000,0.000000,0.000000,0.000000,0.000000,0.000000,0.378419,0.392652,0.046884,0.265675,0.000000,339.000000,333.000000,6.000000,34.000000,0.000000,0.000000,0.000000,0.000000,0.000000;
#CREDIT:Rajeious's Chart;
#NOTES:
0000
0000
0000
0000
,
0000
0000
0000
0000
,
0000
0000
0000
0000
,
0000
0000
0000
0000
,
0000
0000
0001
0000
0100
0010
1000
0000
,
1000
0001
0010
0100
,
1000
1000
0010
0100
,
0001
1000
0010
0100
,
0000
0000
0001
0000
0001
1000
0100
0000
,
0100
1000
0010
0100
,
0001
0000
0010
0000
0100
0000
0100
1000
,
0010
0100
0001
1000
,
0000
1000
0000
1000
,
0000
0010
0010
1000
,
0001
0010
0100
1000
,
0001
0100
0001
1000
,
0000
0010
0000
0001
,
0000
0100
1000
0010
,
0100
0001
0001
1000
,
0100
0010
1000
0001
,
1000
0000
0100
0000
1000
0001
1000
0000
,
0001
1000
0001
0000
0100
0000
0010
0000
,
1000
0001
0001
0100
,
0010
1000
0100
1000
,
0000
0000
0001
0000
1000
0100
1000
0000
,
0001
0010
0001
0000
1000
0000
0010
0000
,
1000
0000
0001
0000
0000
1000
0010
0000
,
0000
1000
0000
1000
0000
0010
1000
0000
,
0001
0100
0001
0100
,
0010
1000
1000
0001
,
0100
0001
0100
0001
,
1000
0010
0100
0010
,
0000
0000
0001
0000
1000
0001
1000
0000
,
0020
0100
1000
0130
,
1000
0000
0001
0000
0100
0010
1000
0000
,
0100
0000
0100
0010
0001
0000
1000
0000
,
0001
1000
0001
0000
1000
0100
1000
0000
,
0020
1000
0001
0130
,
1000
0000
0001
0000
1000
0010
1000
0000
,
0001
0000
0001
0000
0010
0001
0100
0000
,
0010
0110
0100
0001
,
1000
0000
0001
0000
0100
0010
0001
0000
,
1000
0010
0010
1000
,
1000
0000
0100
0000
0100
1000
0010
0000
,
0000
1000
0000
1000
,
0010
1000
0000
0001
,
0010
0100
0000
1000
,
0010
0100
0000
0001
,
0000
1000
0000
0100
,
1000
0010
0000
1000
,
0001
0000
1001
0000
0000
0010
1000
0000
,
0000
0010
0000
0100
0000
0010
1000
0000
,
0001
2000
0100
3010
,
0010
0200
0001
0310
,
0001
2000
0100
3001
,
1000
0000
0020
0000
0130
0000
0001
1000
,
0001
0200
0010
1300
,
0100
0020
1000
1030
,
0010
2000
3001
0200
,
0310
0000
1000
0000
0001
1000
0001
1000
,
0100
0020
0031
0002
,
1003
0000
0100
0000
1000
0010
0100
0000
,
0002
0010
0100
1003
,
0001
0000
1000
0000
0100
1000
0100
0000
,
1000
0020
1030
0002
,
0103
0000
0010
0000
0010
1000
0100
0000
,
0020
0001
1000
0130
,
0100
0000
1000
0000
0100
1000
0100
0000
,
1000
1010
0001
0101
,
0100
0000
1000
0000
0010
1000
0010
0000
,
0200
0001
0010
0301
,
1000
0000
0010
0000
1000
0001
0100
0000
,
0001
0011
1000
1100
,
0010
0000
0100
0000
0001
0010
0001
0000
,
2000
0100
0001
3010
,
0100
0000
0001
0000
1000
0100
1000
0000
,
0010
0100
0002
0203
,
0320
0000
2030
0000
3100
0010
0001
0000
,
0100
0100
0002
0023
,
0230
0000
2300
0000
3001
1000
0001
0000
,
0100
0010
2000
3200
,
0320
0000
0032
0000
0103
0010
0100
0000
,
0001
0100
0020
2030
,
3200
0000
0320
0000
0031
1000
0001
0000
;

//---------------dance-single - ----------------
#NOTEDATA:;
#CHARTNAME:;
#STEPSTYPE:dance-single;
#DESCRIPTION:;
#CHARTSTYLE:;
#DIFFICULTY:Easy;
#METER:4;
#RADARVALUES:0.286884,0.327210,0.046884,0.000000,0.000000,257.000000,251.000000,6.000000,0.000000,0.000000,0.000000,0.000000,0.000000,0.000000,0.286884,0.327210,0.046884,0.000000,0.000000,257.000000,251.000000,6.000000,0.000000,0.000000,0.000000,0.000000,0.000000,0.000000;
#CREDIT:Rajeious's Chart;
#NOTES:
0000
0000
0000
0000
,
0000
0000
0000
0000
,
0000
0000
0000
0000
,
0000
0000
0000
0000
,
0000
0000
1000
0100
,
0010
0001
1000
0010
,
0000
1000
0000
0001
,
0010
0100
1000
0010
,
0000
1000
0000
0001
,
0010
0100
1000
0010
,
0000
0100
0000
0001
,
1000
0001
1000
0100
,
0000
1000
0000
1000
,
0000
0010
0000
0010
,
0000
0100
0001
0100
,
0001
1000
0100
0010
,
0000
0001
0000
0001
,
0000
1000
0000
1000
,
0000
0010
0100
0010
,
1000
0001
0010
0100
,
1000
0001
0010
0100
,
0001
1000
0100
1000
,
0010
0100
0100
0001
,
1000
0100
0010
0001
,
0000
1000
1000
0010
,
0100
0001
0001
1000
,
0100
1001
0000
1010
,
0000
1001
0000
0010
,
0000
1000
0000
0001
,
0000
1000
1000
0010
,
0000
0100
0000
0100
,
0000
0001
0001
1000
,
0000
0001
1000
0001
,
0000
1000
0010
1000
,
0000
0001
0010
0100
,
1000
0100
0010
0001
,
0000
1000
0010
1000
,
0000
0100
0001
0100
,
0000
0001
1000
0100
,
0010
0001
1000
0010
,
0000
0100
0000
0001
,
1000
0100
0000
1000
,
0010
0100
0000
0001
,
0010
0100
0000
1000
,
0000
0001
0000
1000
,
0010
0100
0000
0001
,
0000
1000
0000
0100
,
1000
0010
0000
0100
,
0000
0001
0000
1000
,
0100
1000
0000
0010
,
0000
1001
0000
1010
,
0000
1001
0000
0100
,
0000
1000
1000
0010
,
0000
0100
0100
0001
,
0000
1000
1000
0100
,
0000
0001
0001
1000
,
0010
1000
0000
0001
,
0000
1000
1000
0100
,
0000
1000
1000
0010
,
0000
0100
0100
0001
,
0000
1000
0100
1000
,
0000
0010
0100
0001
,
0000
0001
1000
0100
,
0010
0001
1000
0010
,
0000
0100
0000
0001
,
0000
1000
0100
0010
,
0000
0001
0000
1000
,
0100
1000
0010
0100
,
0001
1000
0001
0100
,
0010
1000
0100
0010
,
0001
1000
0100
0100
,
1000
0001
0010
0001
,
1000
0100
1000
0010
,
0100
0001
1000
0100
,
1000
0010
0100
0001
,
0010
0100
1000
0001
,
0100
0010
0010
1000
,
1000
0100
0100
0010
,
0010
0001
0001
1000
,
1000
0001
0100
0010
,
0000
1000
1000
0100
,
0100
0010
0010
0001
,
0001
1000
0100
1000
,
0010
0100
0001
0010
;

//---------------dance-single - ----------------
#NOTEDATA:;
#CHARTNAME:;
#STEPSTYPE:dance-single;
#DESCRIPTION:;
#CHARTSTYLE:;
#DIFFICULTY:Beginner;
#METER:3;
#RADARVALUES:0.174140,0.196326,0.046884,0.000000,0.000000,156.000000,150.000000,6.000000,0.000000,0.000000,0.000000,0.000000,0.000000,0.000000,0.174140,0.196326,0.046884,0.000000,0.000000,156.000000,150.000000,6.000000,0.000000,0.000000,0.000000,0.000000,0.000000,0.000000;
#CREDIT:Rajeious's Chart;
#NOTES:
0000
0000
0000
0000
,
0000
0000
0000
0000
,
0000
0000
0000
0000
,
0000
0000
0000
0000
,
0000
0001
0000
1000
,
0000
0001
0000
0100
,
0100
0010
0000
1000
,
0000
0001
0000
1000
,
0000
0001
0000
0100
,
0000
0010
0000
1000
,
1000
0001
0000
0100
,
0000
0001
0000
1000
,
0000
0001
0000
0000
,
0000
0001
0000
0000
,
0000
1000
0000
1000
,
0000
0010
0010
0100
,
0000
1000
0000
0000
,
0000
1000
0000
0000
,
0000
0001
0000
1000
,
0000
0001
0001
0100
,
0000
0001
0000
1000
,
0000
0010
0000
1000
,
0000
0001
0000
0010
,
0000
0100
0000
1000
,
0000
0001
0000
1000
,
0000
0001
0000
0100
,
0000
0010
0000
0000
,
0000
0010
0000
0000
,
0000
1000
0000
1000
,
0000
0001
0001
0100
,
0000
0010
0000
0010
,
0000
1000
1000
0001
,
0000
1000
0000
0000
,
0000
1000
0000
0010
,
0000
0100
0000
0001
,
0000
1000
0000
1000
,
0000
0010
0000
0000
,
0000
0100
0000
0100
,
0000
0001
0000
1000
,
0000
0100
0000
0010
,
0000
1000
0000
0001
,
0000
1000
0000
0100
,
0000
1000
0000
0010
,
0000
0100
0000
0001
,
0000
1000
0000
0000
,
0000
0010
0000
0000
,
0000
0100
0000
0000
,
0000
0001
0000
0001
,
0000
1000
0000
0000
,
0000
0010
0000
0000
,
0000
0100
0000
0000
,
0000
0001
0000
0001
,
0000
1100
0000
0000
,
0000
0110
0000
0000
,
0000
0011
0000
0000
,
0000
1000
0000
0001
,
0000
1001
0000
0000
,
0000
0110
0000
0000
,
0000
1001
0000
0000
,
0000
1000
0000
0010
,
0000
0010
0000
1000
,
0000
0100
0000
1000
,
0000
0010
0000
1000
,
0000
0001
0000
1000
,
0000
1000
0000
0010
,
0000
0100
0000
0001
,
0000
1000
0000
0010
,
0000
1000
0000
0001
,
0000
1000
0000
0010
,
0000
0001
0001
1000
,
0000
0100
0000
0010
,
0000
1000
1000
0001
,
0000
1000
0000
0001
,
0000
0100
0100
0010
,
0000
1000
0000
0001
,
0000
1000
1000
0100
,
0000
1000
0000
0010
,
0000
1000
0000
0001
,
0000
0010
0000
0001
,
0000
1000
0000
0100
,
0000
1000
0000
0010
,
0000
0100
0000
0001
,
0000
1000
0000
0001
,
0000
1000
0000
0001
;
