#VERSION:0.83;
#TITLE:FREAK;
#SUBTITLE:;
#ARTIST:Yuqi;
#TITLETRANSLIT:;
#SUBTITLETRANSLIT:;
#ARTISTTRANSLIT:;
#GENRE:;
#ORIGIN:;
#CREDIT:;
#BANNER:AV.avi;
#BACKGROUND:bg.png;
#PREVIEWVID:;
#JACKET:jacket.png;
#CDIMAGE:;
#DISCIMAGE:;
#LYRICSPATH:;
#CDTITLE:;
#MUSIC:audio.ogg;
#OFFSET:0.073000;
#SAMPLESTART:38.772991;
#SAMPLELENGTH:15.000004;
#SELECTABLE:YES;
#BPMS:0.000=120.000;
#STOPS:;
#DELAYS:;
#WARPS:;
#TIMESIGNATURES:0.000=4=4;
#TICKCOUNTS:0.000=4;
#COMBOS:0.000=1;
#SPEEDS:0.000=1.000=0.000=0;
#SCROLLS:0.000=1.000;
#FAKES:;
#LABELS:0.000=Song Start;
#BGCHANGES:0.000=MV.avi=0.800=1=0=1===CrossFade==,
2.000=MV.avi=1.000=0=0=1=====,
99999=-nosongbg-=1.000=0=0=0 // don't automatically add -songbackground-
;
#KEYSOUNDS:;
#ATTACKS:
;

//---------------dance-single - ----------------
#NOTEDATA:;
#CHARTNAME:;
#STEPSTYPE:dance-single;
#DESCRIPTION:;
#CHARTSTYLE:;
#DIFFICULTY:Challenge;
#METER:12;
#RADARVALUES:0.513267,0.611446,0.183076,0.160192,0.141121,471.000000,447.000000,24.000000,21.000000,0.000000,0.000000,0.000000,0.000000,0.000000,0.513267,0.611446,0.183076,0.160192,0.141121,471.000000,447.000000,24.000000,21.000000,0.000000,0.000000,0.000000,0.000000,0.000000;
#CREDIT:Musey;
#NOTES:
// measure 0
0000
0000
0000
0000
,  // measure 1
0000
0000
0000
0000
,  // measure 2
0000
0000
0000
0000
,  // measure 3
0000
0000
0000
0000
2000
0000
3001
0100
,  // measure 4
0010
0000
0101
0000
0001
0100
0000
0001
,  // measure 5
0010
1000
0100
0001
0100
0010
0000
1000
,  // measure 6
0010
0100
1000
0100
0001
1000
0010
0100
,  // measure 7
0001
0010
0100
0000
1001
0000
1000
0001
,  // measure 8
1000
0001
0100
0000
0100
0000
0020
0000
0000
0000
1030
0001
1000
0000
0010
0000
,  // measure 9
0100
0000
0010
0000
1000
0000
0002
0000
0000
0000
1003
0010
1000
0000
0010
0000
,  // measure 10
0100
0000
0001
0000
0100
0000
0020
0000
0000
0000
1030
0001
1000
0000
0100
0000
,  // measure 11
0010
0001
1000
0001
0100
0000
0001
0100
0001
1000
0000
0001
0010
0000
0001
1000
,  // measure 12
0100
0010
0100
1000
0001
0000
0100
0000
0010
0000
1000
0000
0010
0000
0100
0000
,  // measure 13
0002
0000
0013
0100
0010
0001
1000
0010
,  // measure 14
2000
0000
3010
0100
0001
0100
0010
1000
,  // measure 15
0200
0000
0000
0000
1300
0000
0010
0000
0100
0000
0001
0010
0001
0000
1000
0100
,  // measure 16
1000
0001
0100
0010
1000
0002
1000
0000
,  // measure 17
0013
0000
0100
0001
0100
0020
1000
0000
,  // measure 18
0130
0000
1000
0100
0001
0100
0010
0001
,  // measure 19
1000
0001
0010
0000
0001
0000
0000
0000
1001
0000
0000
0000
0010
0000
0100
0000
,  // measure 20
0001
0000
1001
0010
0100
0001
0000
0001
,  // measure 21
1000
0100
0010
0001
1000
0001
0000
1000
,  // measure 22
0010
0100
1000
0001
0010
1000
0001
0010
,  // measure 23
1000
0010
0100
0000
1001
0000
1010
0010
,  // measure 24
0100
0001
1000
0000
1001
0000
0000
0000
0010
0000
0100
0000
0000
0000
0001
0000
,  // measure 25
1000
0001
0010
0100
1000
0001
0000
0001
,  // measure 26
0010
1000
0001
0100
0010
1000
0010
0001
,  // measure 27
1000
0010
0100
0000
1001
0000
0100
0001
,  // measure 28
1000
0010
1000
0000
0010
0000
0010
0000
0010
0000
0010
0000
0000
0000
1000
0000
,  // measure 29
0001
1000
0100
0100
0100
0100
1000
0010
,  // measure 30
0200
0000
0301
0001
0001
0001
0000
1000
,  // measure 31
0010
0100
0001
0000
1001
0000
0010
0100
,  // measure 32
0001
1000
0001
0000
0110
0000
0000
0000
0100
0010
0000
0000
1000
0001
1000
0010
,  // measure 33
1000
0000
0000
0000
0010
1000
0100
0000
0010
0000
0001
0000
1000
0001
1000
0000
,  // measure 34
0010
0000
0000
0000
1000
0001
0100
0000
0010
0000
1000
0000
0010
1000
0100
0000
,  // measure 35
0010
0000
0001
1000
0001
0000
0100
0000
0010
0000
1000
0001
0010
0100
0010
0000
,  // measure 36
0001
0000
0100
0000
0010
0000
0000
0000
1000
0001
1000
0000
0020
0000
1000
0000
,  // measure 37
1030
0000
0000
0000
0001
1000
0001
0000
1000
0000
0100
0000
0010
0100
0010
0000
,  // measure 38
0002
0000
1000
0000
1003
0000
0000
0000
0010
1000
0010
0000
0100
0000
0001
0000
,  // measure 39
1000
0000
0000
0000
0010
0100
0010
0000
1000
0100
1000
0000
0002
0000
1000
0000
,  // measure 40
1003
0000
0001
0010
0100
2000
0000
3020
,  // measure 41
0000
0230
0000
0000
0301
0000
0001
1000
,  // measure 42
0010
1000
0100
0000
0100
0010
0100
1000
,  // measure 43
0001
0100
0010
0000
0010
0000
0010
1000
,  // measure 44
0100
0000
1001
0010
1000
0010
0001
0010
,  // measure 45
0100
0000
1010
0100
0001
0100
1000
0001
,  // measure 46
0100
0000
1001
0000
1001
1000
0010
0100
,  // measure 47
0010
1000
2100
0000
3200
0000
1300
0010
,  // measure 48
0100
0000
1001
0000
0001
0000
0001
1000
,  // measure 49
0010
0100
1001
0000
1000
0000
1000
0001
,  // measure 50
0010
0100
0110
1000
0010
0100
0001
0010
,  // measure 51
0100
1000
1100
0000
0011
0000
0010
0010
,  // measure 52
0110
0000
1001
1000
0010
0001
0000
0001
,  // measure 53
0010
0100
0001
1000
0001
0010
0000
0100
,  // measure 54
0001
0100
1000
0001
0010
1000
0001
0100
,  // measure 55
1000
0100
0001
0000
1001
0000
1000
0010
,  // measure 56
0100
0001
1000
0000
0001
0000
0001
0000
0001
0000
0001
0000
0010
0000
0100
0000
,  // measure 57
1000
0001
0100
0100
0100
0100
0010
1000
,  // measure 58
0002
0000
0013
0010
0010
0010
0001
1000
,  // measure 59
0010
1000
0100
0000
1100
0000
1000
0001
,  // measure 60
0100
0010
1000
0000
0001
0000
0001
0000
0001
0000
0001
0000
1000
0000
0100
0000
,  // measure 61
0010
0100
1000
1000
1000
1000
0001
0010
,  // measure 62
0200
0000
0310
0010
0010
0010
0001
0100
,  // measure 63
0010
1000
0100
0000
0020
0000
0031
1000
,  // measure 64
0001
1000
0001
0000
0000
0000
0000
0000
0000
0000
0000
0000
0000
0000
0000
0000
;

//---------------dance-single - ----------------
#NOTEDATA:;
#CHARTNAME:;
#STEPSTYPE:dance-single;
#DESCRIPTION:;
#CHARTSTYLE:;
#DIFFICULTY:Hard;
#METER:9;
#RADARVALUES:0.438075,0.415783,0.205961,0.251730,0.000000,402.000000,375.000000,27.000000,33.000000,0.000000,0.000000,0.000000,0.000000,0.000000,0.438075,0.415783,0.205961,0.251730,0.000000,402.000000,375.000000,27.000000,33.000000,0.000000,0.000000,0.000000,0.000000,0.000000;
#CREDIT:Musey;
#NOTES:
0000
0000
0000
0000
,
0000
0000
0000
0000
,
0000
0000
0000
0000
,
0000
0000
0000
0000
2000
0000
3001
0100
,
0020
0000
0130
0000
0001
0010
0000
0010
,
0001
1000
0100
0000
0100
1000
0000
1000
,
0001
0100
0010
0100
0001
0010
0001
1000
,
0100
1000
0010
0000
1000
0000
0001
0100
,
0010
1000
0002
0000
0013
0000
0100
0010
,
0001
1000
0020
0000
0130
0001
0010
0001
,
1000
0100
0010
0100
2000
0000
3010
1000
,
0001
0100
0010
0000
0010
0100
0001
0000
,
1001
0000
0001
1000
0010
0100
0001
0010
,
0200
0000
1300
0010
0100
0010
1000
0001
,
0020
0000
0031
1000
0010
1000
0001
0010
,
0200
0000
0310
0001
1000
0010
0100
0000
,
1010
0000
0001
1000
0001
1000
0020
0000
,
0130
0000
1000
0001
1000
0001
0020
0000
,
0130
0000
0001
0010
0100
1000
0100
0010
,
0001
1000
0010
0000
0210
0000
0310
1000
,
0020
0000
0130
0000
0100
0001
0010
1000
,
0010
0001
1000
0000
0010
0100
0001
0100
,
1000
0100
0001
0010
0001
0010
0100
0010
,
0001
1000
0010
0000
2001
0000
3001
0100
,
0020
0000
0130
0000
0001
0010
0000
0010
,
0100
1000
0010
1000
0001
0100
0000
0100
,
0001
1000
0010
1000
0001
0010
0001
0010
,
0100
1000
0010
0000
2001
0000
3001
0100
,
0020
0000
1030
0001
1000
0001
0000
0100
,
0010
0100
0001
0100
0001
0100
0010
1000
,
0002
0000
0013
0001
0010
0001
0000
0010
,
0100
1000
0010
0000
2000
0000
3001
0100
,
0010
0000
1010
0000
0101
0000
0001
0010
,
0100
0000
0110
0000
1001
0000
0010
1000
,
0001
0101
0110
1100
,
1001
0000
0010
1000
0100
0010
0001
0010
,
0100
0000
1001
0000
1010
0000
0001
0100
,
0001
0000
0011
0000
0110
0000
0001
1000
,
0010
0000
1100
0000
1001
0000
0010
1000
,
0100
0110
0011
1002
,
1003
0000
0010
1000
0001
0200
0000
0320
,
0000
2030
0000
0000
3001
0000
0001
0100
,
0010
0100
0001
0000
0001
0000
0001
0010
,
0100
1000
0010
0000
2000
0000
3001
1000
,
0010
0000
0100
0000
0100
0000
0100
0010
,
1000
0001
0010
0000
0010
0000
0001
1000
,
0010
1000
0100
0000
0100
1000
0001
0100
,
0010
1000
0001
0000
0020
0000
0031
0100
,
0010
0000
1001
0000
0001
0000
0100
0001
,
0010
0100
1000
0000
1000
0000
0010
1000
,
0001
1000
0100
0010
0001
0010
1000
0010
,
0001
1000
0010
0000
1010
0000
0101
0000
,
2001
0000
3010
0100
0001
0010
0000
0100
,
0010
0001
0100
0001
1000
0010
0000
0010
,
1000
0001
0100
0001
1000
0100
1000
0100
,
0010
0001
0100
0000
1002
0000
1003
0010
,
0200
0000
0301
1000
0001
1000
0000
0010
,
0100
0010
1000
0010
1000
0010
0100
0001
,
2000
0000
3100
1000
0100
1000
0000
0100
,
0010
0001
0100
0000
0002
0000
1003
0010
,
0200
0000
0310
0100
0010
0100
0000
0001
,
0010
0100
1000
0100
1000
0100
1000
0001
,
0200
0000
0310
0100
0010
0100
0000
0001
,
0010
0100
1000
0000
0002
0000
1003
0010
,
0200
0300
0000
0000
0000
0000
0000
0000
;

//---------------dance-single - ----------------
#NOTEDATA:;
#CHARTNAME:;
#STEPSTYPE:dance-single;
#DESCRIPTION:;
#CHARTSTYLE:;
#DIFFICULTY:Medium;
#METER:6;
#RADARVALUES:0.309486,0.294066,0.061025,0.183076,0.000000,284.000000,276.000000,8.000000,24.000000,0.000000,0.000000,0.000000,0.000000,0.000000,0.309486,0.294066,0.061025,0.183076,0.000000,284.000000,276.000000,8.000000,24.000000,0.000000,0.000000,0.000000,0.000000,0.000000;
#CREDIT:Musey;
#NOTES:
0000
0000
0000
0000
,
0000
0000
0000
0000
,
0000
0000
0000
0000
,
0000
0000
0000
0000
1000
0000
0001
0100
,
0010
0000
0200
0000
0301
0000
1000
0001
,
1000
0000
0020
0000
0130
0000
0001
0010
,
0001
0000
1000
0100
1000
0000
0010
0100
,
0010
0000
2000
0000
3001
0000
0001
0100
,
0001
0000
0010
0000
0010
0000
0001
1000
,
0001
0000
1000
0000
1000
0000
0010
1000
,
0100
0000
0010
0000
0001
0000
0100
0001
,
0100
0000
0010
0000
1000
0000
0001
1000
,
0010
1000
0002
0000
0103
0000
0001
0010
,
0100
0000
2000
0000
3010
0000
0100
0001
,
0100
0000
0002
0000
0013
0000
0100
1000
,
0100
0000
1000
0000
1000
0000
0001
1000
,
0001
0100
0020
0000
0000
0000
0100
0000
,
0130
0002
0000
0010
,
0013
0000
0100
1000
0100
1000
0001
0000
,
0100
0000
0010
0000
1000
0000
1000
0001
,
1000
0000
0002
0000
0013
0000
0100
0010
,
0100
0000
1000
0000
0001
0000
1000
0010
,
1000
0000
0001
0100
0010
0000
0100
0001
,
0010
0000
0001
0000
1000
0000
0100
1000
,
0100
0000
0020
0000
0031
0000
0100
0001
,
0100
0000
0020
0000
1030
0000
0001
1000
,
0100
0000
0010
0001
0010
0000
0100
1000
,
0010
0000
1000
0000
0001
0000
1000
0010
,
0100
0000
0001
0000
0001
0000
0100
0001
,
0100
0000
0010
0000
0010
0000
1000
0100
,
2000
0000
3001
0000
0001
0000
0100
0001
,
0100
0000
0010
0000
1000
0000
0001
0010
,
0002
0000
0013
0000
0010
0000
0001
0010
,
0001
0000
1000
0000
1000
0000
0100
1000
,
0100
0000
1000
0000
0010
0000
0100
0001
,
0100
0000
0010
0000
1000
0000
0001
1000
,
0001
1000
0001
0100
,
0100
0001
0010
0001
,
0001
1000
0010
1000
,
1000
0001
0100
0010
,
0010
2000
0000
3001
,
0000
0200
0000
0301
,
0000
2000
0000
3010
,
0000
0002
0000
1003
,
0000
1001
0000
0110
,
0000
0011
0000
1001
,
0000
1010
0000
1001
,
0000
0000
0110
0000
0001
0000
1000
0001
,
1000
0020
0000
0130
,
0100
0002
0000
0013
,
0010
0000
0001
1000
0010
0000
1000
0100
,
1000
0001
0001
0100
,
0100
0000
0102
0000
0000
0000
0013
0001
,
0010
0000
0200
0000
0000
0000
1300
0010
,
1000
0000
0001
0100
0010
0000
0100
0001
,
1000
0000
0100
0000
0010
0000
0001
0010
,
0100
0000
1000
0000
0001
0000
1000
0010
,
1000
0000
0001
0000
0100
0000
0001
0010
,
0100
0000
1000
0000
0001
0000
1000
0010
,
1000
0000
0001
0000
0100
0000
0001
0010
,
0100
0000
2000
0000
3001
0000
0100
0001
,
0100
0000
0010
0000
1000
0000
0001
0010
,
0200
0000
0310
0000
0001
0000
1000
0010
,
1000
0000
0001
0000
0100
0000
0001
1000
,
0002
0003
0000
0000
;

//---------------dance-single - ----------------
#NOTEDATA:;
#CHARTNAME:;
#STEPSTYPE:dance-single;
#DESCRIPTION:;
#CHARTSTYLE:;
#DIFFICULTY:Easy;
#METER:3;
#RADARVALUES:0.222307,0.269561,0.076282,0.167820,0.000000,204.000000,194.000000,10.000000,22.000000,0.000000,0.000000,0.000000,0.000000,0.000000,0.222307,0.269561,0.076282,0.167820,0.000000,204.000000,194.000000,10.000000,22.000000,0.000000,0.000000,0.000000,0.000000,0.000000;
#CREDIT:Musey;
#NOTES:
0000
0000
0000
0000
,
0000
0000
0000
0000
,
0000
0000
0000
0000
,
0000
0000
1000
0010
,
0100
0110
0000
0001
,
0010
0011
0000
0001
,
1000
0010
1000
0100
,
0010
0001
1000
0010
,
0010
0200
0000
0301
,
0001
0020
0000
0130
,
0100
2000
0000
3001
,
0001
0200
0000
0310
,
1000
0001
0001
0100
,
0100
0010
0010
1000
,
1000
0001
0010
0100
,
1000
0001
0001
2000
,
0000
3010
0010
0200
,
0000
0301
0001
0020
,
0000
0130
1000
0001
,
1000
0020
0000
0130
,
0000
0110
0000
1001
,
0000
0001
0010
0001
,
0000
0010
0100
1000
,
0010
1000
0001
0100
,
0010
1010
0000
0001
,
0010
0100
0000
1000
,
0001
0100
0100
0010
,
1000
0001
0010
0001
,
0010
1001
0000
1001
,
0010
1010
0000
1000
,
0001
0101
0000
0001
,
0010
0110
0000
0001
,
1000
0020
0000
1030
,
0000
0002
0000
0103
,
0000
0200
0000
1300
,
0000
2000
0000
3010
,
0000
1000
0001
1000
,
0000
0001
0100
0001
,
0000
0010
0100
0010
,
0000
0002
0000
1003
,
0000
1000
0000
1000
,
0000
0010
0000
0010
,
0000
1000
0000
1000
,
0000
0001
0000
0100
,
0000
0001
0001
0020
,
0000
0031
0001
2000
,
0000
3010
0010
0200
,
0000
0310
1000
0001
,
0010
0200
0000
1300
,
1000
0002
0000
0103
,
0100
0010
0010
1000
,
1000
0001
0010
0100
,
1000
0002
0000
1003
,
0010
0200
0000
0310
,
1000
0001
0001
1000
,
1000
0010
1000
0100
,
0010
0001
0001
1000
,
1000
0010
0010
1000
,
0001
0100
0100
0010
,
0010
2000
0000
3001
,
0001
0100
0100
0010
,
0010
1000
1000
0001
,
0100
0001
0001
0010
,
0010
0100
0100
1000
,
2000
3000
0000
0000
;

//---------------dance-single - ----------------
#NOTEDATA:;
#CHARTNAME:;
#STEPSTYPE:dance-single;
#DESCRIPTION:;
#CHARTSTYLE:;
#DIFFICULTY:Beginner;
#METER:1;
#RADARVALUES:0.123140,0.145889,0.015256,0.152563,0.000000,113.000000,111.000000,2.000000,20.000000,0.000000,0.000000,0.000000,0.000000,0.000000,0.123140,0.145889,0.015256,0.152563,0.000000,113.000000,111.000000,2.000000,20.000000,0.000000,0.000000,0.000000,0.000000,0.000000;
#CREDIT:Musey;
#NOTES:
0000
0000
0000
0000
,
0000
0000
0000
0000
,
0000
0000
0000
0000
,
0000
0000
0000
0000
,
0000
1000
0000
1000
,
0000
0001
0000
0001
,
0000
0010
0000
0010
,
0000
1000
0000
1000
,
0000
0002
0000
0103
,
0000
2000
0000
3010
,
0000
0200
0000
0301
,
0000
0001
0000
1000
,
0000
0010
0000
0010
,
0000
1000
0000
1000
,
0000
0001
0000
0001
,
0000
0100
0000
0100
,
0000
0020
0000
0000
,
0000
2030
0000
0000
,
0000
3002
0000
0000
,
0000
0103
0000
0100
,
0000
0010
0000
0010
,
0000
1000
0000
1000
,
0000
0001
0000
0001
,
0000
0100
0000
0100
,
0000
0010
0000
0010
,
0000
1000
0000
1000
,
0000
0001
0000
0001
,
0000
1000
0000
1000
,
0000
0010
0000
0010
,
0000
1000
0000
1000
,
0000
0001
0000
0001
,
0000
0100
0000
0010
,
0000
1000
0000
1000
,
0000
0001
0000
0001
,
0000
0100
0000
0100
,
0000
0010
0000
0010
,
0000
2000
0000
3001
,
0000
0002
0000
0103
,
0000
2000
0000
3010
,
0000
0002
0000
0103
,
0000
0020
0000
0000
,
0000
2030
0000
0000
,
0000
3002
0000
0000
,
0000
0203
0000
0000
,
0000
0310
0000
0010
,
0000
1000
0000
1000
,
0000
0010
0000
0010
,
0000
1000
0000
0001
,
0000
0101
0000
0000
,
0000
1001
0000
0000
,
0000
1000
0000
1000
,
0000
0010
0000
0010
,
0000
1000
0000
1000
,
0000
0001
0000
0001
,
0000
0100
0000
0100
,
0000
0010
0000
1000
,
0000
0002
0000
0103
,
0000
0020
0000
1030
,
0000
2000
0000
3001
,
0000
0001
0000
1000
,
0000
0020
0000
1030
,
0000
2000
0000
3001
,
0000
0002
0000
0103
,
0000
0100
0000
0010
;
