#TITLE:Espresso;
#SUBTITLE:;
#ARTIST:Sabrina Carpenter;
#TITLETRANSLIT:;
#SUBTITLETRANSLIT:;
#ARTISTTRANSLIT:;
#GENRE:;
#CREDIT:;
#BANNER:AV.avi;
#BACKGROUND:bg.png;
#LYRICSPATH:;
#CDTITLE:;
#MUSIC:audio.ogg;
#OFFSET:-0.320000;
#SAMPLESTART:9.540256;
#SAMPLELENGTH:14.999997;
#SELECTABLE:YES;
#BPMS:0.000000=104.000000
;
#STOPS:
;
#BGCHANGES:0.000=MV.avi=1.000=1=0=1===CrossFade==,
99999=-nosongbg-=1.000=0=0=0 // don't automatically add -songbackground-
;
#KEYSOUNDS:;
#ATTACKS:;

//---------------dance-single - ----------------
#NOTES:
     dance-single:
     :
     Challenge:
     13:
     0.507121,0.604177,0.069265,0.415592,0.424250,410.000000,402.000000,8.000000,48.000000,0.000000,0.000000,0.507121,0.604177,0.069265,0.415592,0.424250,410.000000,402.000000,8.000000,48.000000,0.000000,0.000000:
// measure 0
0000
0000
0000
0000
,  // measure 1
0000
0000
0000
0000
,  // measure 2
0000
0000
0000
0000
,  // measure 3
0000
0000
0000
0000
0000
0000
1000
0010
,  // measure 4
0101
0000
0001
0000
0010
0001
1000
0000
0200
0000
0000
0000
1300
0001
0100
0000
,  // measure 5
0020
0000
0000
0000
0130
0001
0010
0000
1000
0000
0010
0000
0001
0000
0100
0000
,  // measure 6
0020
0000
0000
0000
1030
0100
0010
0000
0002
0000
0000
0000
0013
0100
1000
0000
,  // measure 7
0200
0000
0000
0000
1300
0001
0100
0000
0010
0000
0001
0000
0010
0000
1000
0000
,  // measure 8
0002
0000
0000
0000
1003
0001
0010
0000
0200
0000
0000
0000
0310
0001
1000
0000
,  // measure 9
0020
0000
0000
0000
0130
0001
0010
0000
0001
0000
0010
0000
1000
0000
0010
0000
,  // measure 10
0200
0000
0000
0000
1300
0001
0100
0000
0020
0000
0000
0000
0130
0001
0010
0000
,  // measure 11
0002
0000
0000
0000
1003
0010
0100
0000
1000
0000
0100
0000
0001
0000
0010
0000
,  // measure 12
0001
0000
1010
0001
0010
0100
2000
0000
,  // measure 13
0100
0000
3001
0100
0010
1000
0100
0020
,  // measure 14
0100
0000
0031
1000
0001
0100
0020
0000
,  // measure 15
1000
0000
0031
0100
0001
0010
1000
0010
,  // measure 16
0200
0000
0000
0000
0310
0000
0001
1000
0010
0000
0100
0000
0001
0000
2000
0000
,  // measure 17
0001
0000
0000
0000
3100
0000
0100
1000
0010
0000
1000
0000
0001
0000
0200
0000
,  // measure 18
0010
0000
0000
0000
0301
0000
1000
0001
0010
0000
0001
0000
2000
0000
0000
0000
,  // measure 19
3010
0000
0100
0000
0100
0001
0010
0000
1001
0000
0001
0000
0100
0010
1000
0000
,  // measure 20
0101
0000
0001
0000
0010
0000
0001
1000
0000
0100
0000
1000
0100
0001
0100
1000
,  // measure 21
0010
0000
1000
0000
0001
0000
0100
0010
0000
1000
0000
0010
0001
0010
1000
0001
,  // measure 22
0100
0000
0001
0000
1000
0000
0100
0010
0000
0100
0000
0010
0001
0010
0001
1000
,  // measure 23
0200
2300
3020
0032
0023
0230
0302
0000
,  // measure 24
1003
0000
0001
0000
0100
0000
0010
1000
0000
0001
0000
0010
0000
0001
1000
0001
,  // measure 25
0010
0000
0100
0000
1000
0000
0100
0010
0000
0001
0000
1000
0000
0001
0100
0001
,  // measure 26
1000
0000
0010
0000
0100
0000
0001
0010
0000
0001
0000
1000
0000
0010
0100
1000
,  // measure 27
0100
0000
0000
0000
0110
0000
0000
0001
1000
0000
0000
0000
2000
0000
3020
0000
,  // measure 28
0130
0000
0001
0000
0100
0010
1000
0000
0020
0000
0100
0000
0130
0010
1000
0000
,  // measure 29
0002
0000
0010
0000
0013
0001
0100
0000
1000
0000
0100
0000
0001
0000
0020
0000
,  // measure 30
0130
0000
0010
0000
0001
0100
1000
0000
0200
0000
0010
0000
0301
0010
1000
0000
,  // measure 31
0020
0000
0001
0000
0031
0100
0010
0000
0100
0000
0010
0000
1000
0000
0002
0000
,  // measure 32
0013
0000
0001
0000
1000
0010
0100
0000
0002
0000
1000
0000
0013
0001
0100
0000
,  // measure 33
0020
0000
1000
0000
1030
0010
0100
0000
0001
0000
0010
0000
0100
0000
2000
0000
,  // measure 34
3010
0000
0100
0000
1000
0100
0001
0000
0200
0000
0010
0000
0301
0010
0100
0000
,  // measure 35
0020
0000
0100
0000
0031
0010
0100
0000
1001
0000
0001
0000
0100
0010
0100
0000
,  // measure 36
1001
0000
0001
0010
0100
1000
0001
0100
0020
0000
0130
1000
0100
0001
1000
0100
,  // measure 37
0020
0000
0130
1000
0001
0100
0010
1000
0001
0000
0010
0000
1000
0000
0010
0000
,  // measure 38
0100
0000
1000
0001
0010
0100
0010
0001
2000
0000
3010
0001
0010
0100
0001
1000
,  // measure 39
0200
0000
0310
0001
0010
0100
1000
0010
0100
0000
0001
0000
0010
0000
0001
0000
,  // measure 40
1000
0000
0010
0100
0001
0010
0001
0100
0020
0000
1030
0100
0010
0100
1000
0001
,  // measure 41
0200
0000
0301
1000
0001
0010
0100
1000
0001
0000
0100
0000
0001
0000
1000
0000
,  // measure 42
0010
0000
0100
0010
1000
0100
0001
0100
2000
0000
3001
0010
1000
0010
0001
0100
,  // measure 43
0002
0000
1003
0000
0001
0100
0001
0000
1010
0000
0001
0000
1000
0010
1000
0001
,  // measure 44
1000
0001
1000
0010
,  // measure 45
0100
0000
0001
0100
0010
0100
0001
0020
,  // measure 46
0001
0031
0100
0001
,  // measure 47
1000
0000
0000
0000
0010
1000
0010
0000
1000
0000
0001
0000
0100
0000
0020
0000
,  // measure 48
0000
0030
0000
0000
0000
0000
0000
0000
;

//---------------dance-single - ----------------
#NOTES:
     dance-single:
     :
     Hard:
     9:
     0.421776,0.437508,0.017316,0.389617,0.246758,341.000000,339.000000,2.000000,45.000000,0.000000,0.000000,0.421776,0.437508,0.017316,0.389617,0.246758,341.000000,339.000000,2.000000,45.000000,0.000000,0.000000:
0000
0000
0000
0000
,
0000
0000
0000
0000
,
0000
0000
0000
0000
,
0000
0000
0000
0000
,
1000
0000
0000
0000
0001
0100
0010
0000
0200
0000
0000
0000
0301
0000
0010
0000
,
0002
0000
0000
0000
0013
0001
0100
0000
0010
0000
0100
0000
0001
0000
0020
0000
,
0100
0000
0000
0000
0130
0010
0001
0000
0200
0000
0000
0000
0310
0000
1000
0000
,
0200
0000
0000
0000
0310
0001
0010
0000
0001
0000
1000
0000
0010
0000
0200
0000
,
0001
0000
0000
0000
0301
0010
0100
0000
2000
0000
0000
0000
3001
0000
0010
0000
,
0200
0000
0000
0000
0310
0001
0010
0000
0100
0000
1000
0000
0010
0000
2000
0000
,
0001
0000
0000
0000
3100
0010
0001
0000
0020
0000
0000
0000
0130
0000
0010
0000
,
0002
0000
0000
0000
0013
0001
0100
0000
0001
0000
0001
0000
0100
0000
0020
0000
,
1000
0000
1030
0001
0100
0010
2000
0000
,
0001
0000
3010
0100
0001
0010
0100
0020
,
0001
0000
0130
1000
0001
0100
0020
0000
,
0100
0000
1030
0001
1000
0001
0100
0020
,
1000
0000
1030
0100
0010
0001
1000
0020
,
0100
0000
1030
0001
0100
0001
0010
0200
,
0010
0000
0310
0001
1000
0010
2000
0000
,
0100
0000
3100
0010
0001
1000
0010
0100
,
0001
0000
0100
0000
0010
0000
1000
0001
0000
0001
0000
1000
0000
0010
1000
0000
,
0001
0000
0100
0000
0010
0000
1000
0100
0000
0100
0000
1000
0000
0100
1000
0000
,
0001
0000
0010
0000
0100
0000
0010
0001
0000
0001
0000
1000
0000
0010
1000
0000
,
0001
0010
0100
1000
0010
0100
0020
0000
,
1030
0000
0001
0000
0001
0000
0010
0100
0000
0100
0000
1000
0000
0001
0100
0000
,
0001
0000
0100
0000
0010
0000
1000
0100
0000
0010
0000
0100
0000
1000
0001
0000
,
0100
0000
0001
0000
0010
0000
0001
1000
0000
0001
0000
0100
0000
0010
1000
0000
,
0100
0010
0100
0110
,
1001
0000
0000
0000
0001
1000
0010
0000
0200
0000
0000
0000
0301
0010
0100
0000
,
0020
0000
0000
0000
0130
1000
0100
0000
1000
0000
0001
0000
0100
0000
0010
0000
,
2000
0000
0000
0000
3001
0010
0100
0000
2000
0000
0000
0000
3001
1000
0010
0000
,
0200
0000
0000
0000
0301
0010
0100
0000
1000
0000
0001
0000
0100
0000
0010
0000
,
2000
0000
0000
0000
3010
1000
0100
0000
0020
0000
0000
0000
0130
0010
0001
0000
,
2000
0000
0000
0000
3001
0100
0010
0000
1000
0000
0100
0000
0010
0000
0002
0000
,
1000
0000
0000
0000
1003
0100
0010
0000
0200
0000
0000
0000
0310
0001
1000
0000
,
0020
0000
0130
0000
0001
0010
0001
0000
0100
0000
0001
0000
1000
0100
1000
0000
,
0010
0000
1000
0100
0010
0000
0001
0000
2000
0000
0010
0000
3010
1000
0001
0000
,
0200
0000
0001
0000
0301
0010
0100
0000
1000
0000
0001
0000
0100
0000
0020
0000
,
1000
0000
0000
0000
1030
0100
0010
0000
0200
0000
0010
0000
0310
0001
1000
0000
,
0020
0000
1000
0000
1030
0001
0100
0000
0001
0000
0010
0000
0100
0000
2000
0000
,
0001
0000
0000
0000
3010
1000
0001
0000
0020
0000
0100
0030
0100
0010
0100
0000
,
2000
0000
0010
0000
3010
1000
0001
0000
0100
0000
0010
0000
1000
0000
0002
0000
,
0010
0000
0000
0000
0013
0100
1000
0000
0020
0000
1000
0000
1030
0001
0100
0000
,
0010
0000
1000
0000
0001
1000
0001
0000
0100
0000
0001
0000
0010
0000
0100
0000
,
2000
3001
0100
0010
,
0020
0000
0130
0001
0010
0100
1000
0002
,
1000
1003
0010
1000
,
1000
0000
0010
0100
0001
1000
0010
2000
,
0000
3000
0000
0000
0000
0000
0000
0000
;

//---------------dance-single - ----------------
#NOTES:
     dance-single:
     :
     Medium:
     7:
     0.343853,0.332473,0.017316,0.554122,0.034633,278.000000,276.000000,2.000000,64.000000,0.000000,0.000000,0.343853,0.332473,0.017316,0.554122,0.034633,278.000000,276.000000,2.000000,64.000000,0.000000,0.000000:
0000
0000
0000
0000
,
0000
0000
0000
0000
,
0000
0000
0000
0000
,
0000
0000
0000
0000
,
0100
0000
0001
0100
0020
0000
1030
0100
,
0200
0000
1300
0001
0010
0100
1000
0002
,
0100
0000
0103
0010
2000
0000
3100
0010
,
0002
0000
0013
0001
0100
0010
0100
0002
,
0100
0003
1000
0010
0200
0000
0310
1000
,
0002
0000
0013
0100
0010
0001
1000
0020
,
0100
0000
1030
0100
0020
0000
0031
1000
,
0020
0000
1030
0001
0100
0010
1000
0100
,
0020
0000
0031
0100
0001
1000
0200
0000
,
0010
0000
1300
0001
1000
0010
0100
0002
,
0010
0000
0103
0001
1000
0100
0020
0000
,
0100
0000
0130
1000
0001
1000
0010
0200
,
0001
0000
0301
0010
0100
1000
0010
0200
,
0010
0000
0310
1000
0001
0010
0100
0020
,
0100
0000
0130
1000
0001
1000
0020
0000
,
0100
0000
1030
0001
0100
0001
0020
0000
,
0031
0010
0200
0000
2300
0000
3020
0000
,
0130
0001
0200
0000
0320
0000
2030
0000
,
3001
0010
0200
0000
2300
0000
3002
0000
,
0103
0010
0100
0001
1000
0100
2000
0000
,
3010
1000
0200
0000
0010
0000
1300
0000
,
0001
0100
0020
0000
1000
0000
0130
0000
,
0001
0010
0002
0000
0100
0000
1003
0000
,
0001
0101
0010
1100
,
2000
0000
3001
0001
0200
0000
0310
0010
,
2000
0000
3001
0010
0100
1000
0001
0200
,
0010
0300
0001
0001
0020
0000
0130
0100
,
2000
0000
3001
0100
0010
0010
1000
0002
,
0100
0003
0010
0010
0200
0000
0310
0010
,
0002
0000
1003
1000
0010
1000
0100
0020
,
0100
0030
1000
1000
0002
0000
1003
1000
,
0020
0000
0130
0001
0010
0100
1000
0002
,
0100
0000
0003
0000
1000
0100
1000
0000
0200
0000
0000
0000
1300
0010
1000
0000
,
0020
0000
0130
0001
0010
0100
1000
0002
,
0100
0000
0003
0000
0100
0001
0100
0000
0002
0000
0000
0000
0013
0001
0010
0000
,
0002
0000
1003
0100
0010
0001
0100
0020
,
1000
0030
0000
0000
1000
0001
1000
0000
0002
0000
0000
0000
1003
0001
1000
0000
,
0002
0000
0103
0010
0100
0001
1000
0010
,
2000
0000
0000
0000
3001
1000
0010
0000
2000
0000
0000
0000
3010
1000
0001
0000
,
0020
0000
0130
0010
0001
1000
0010
1000
,
0002
0103
0200
0310
,
2000
0000
3010
1000
0002
0000
0103
0000
,
0002
0013
0200
1300
,
0010
0000
1000
0001
1000
0010
0200
0000
,
0300
0000
0000
0000
;

//---------------dance-single - ----------------
#NOTES:
     dance-single:
     :
     Easy:
     4:
     0.254797,0.249355,0.000000,0.285719,0.000000,206.000000,206.000000,0.000000,33.000000,0.000000,0.000000,0.254797,0.249355,0.000000,0.285719,0.000000,206.000000,206.000000,0.000000,33.000000,0.000000,0.000000:
0000
0000
0000
0000
,
0000
0000
0000
0000
,
0000
0000
0000
0000
,
0000
0000
0000
0000
,
1000
0000
0001
0100
0002
0000
1003
0000
,
2000
0000
3010
0100
0002
0000
0013
0000
,
0100
0000
1000
0001
2000
0000
3010
0000
,
0020
0000
0130
0001
0100
0000
0010
0000
,
1000
0000
0001
0100
0002
0000
0013
0000
,
0020
0000
0130
0010
0001
0000
1000
0000
,
0010
0000
1000
0001
0200
0000
0301
0000
,
0002
0000
0103
0001
0020
0000
0130
0000
,
1000
1000
0001
0200
,
0001
0301
0010
0100
,
1000
0001
0100
0200
,
0010
0301
1000
1000
,
0001
0010
0100
2000
,
0010
3001
0100
0002
,
0010
1003
0010
0200
,
0010
0301
1000
0001
,
0010
0000
0100
0000
1000
0001
1000
0000
,
0010
0000
0100
0000
0001
0100
0001
0000
,
0010
0000
0100
0000
1000
0100
1000
0000
,
0001
0001
1000
2000
,
3010
0000
0010
0000
0100
0010
0100
0000
,
0001
0000
0001
0000
1000
0100
1000
0000
,
0001
0000
0010
0000
0100
0010
0100
0000
,
1000
1000
0010
0100
,
1000
0000
0001
0100
0002
0000
0013
0000
,
0020
0000
0130
0000
1000
0010
1000
0000
,
0001
0000
0100
0001
0200
0000
0310
0000
,
0020
0000
1030
0100
1000
0000
0010
0000
,
1000
0000
0100
1000
0200
0000
1300
0000
,
2000
0000
3001
0100
0001
0000
0010
0000
,
0001
0000
1000
0100
2000
0000
3010
0000
,
0200
0000
0301
0100
0001
0000
0010
0000
,
0100
0000
1000
0001
2000
0000
3001
0000
,
0002
0000
0103
0010
0100
0000
0100
0000
,
0010
0000
1000
0001
2000
0000
3001
0000
,
0002
0000
0013
0001
0010
0000
0100
0000
,
1000
0000
0001
1000
0002
0000
0103
0000
,
0200
0000
0310
1000
0001
0000
0010
0000
,
0001
0000
0100
0010
0200
0000
0310
0000
,
0020
0000
1030
0001
1000
0000
0100
0000
,
0010
0010
0001
0001
,
1000
1000
0010
1000
,
0001
0001
0100
0100
,
0010
0010
1000
2000
,
3000
0000
0000
0000
;

//---------------dance-single - ----------------
#NOTES:
     dance-single:
     :
     Beginner:
     1:
     0.171926,0.165371,0.000000,0.311694,0.000000,139.000000,139.000000,0.000000,36.000000,0.000000,0.000000,0.171926,0.165371,0.000000,0.311694,0.000000,139.000000,139.000000,0.000000,36.000000,0.000000,0.000000:
0000
0000
0000
0000
,
0000
0000
0000
0000
,
0000
0000
0000
0000
,
0000
0000
0000
0000
,
1000
1000
0020
0000
,
0230
0000
0301
0001
,
1000
0010
0200
0000
,
0320
0000
1030
1000
,
0001
0010
0002
0000
,
0203
0000
0310
0010
,
1000
0100
0020
0000
,
0032
0000
0103
0100
,
0010
1000
2000
0000
,
3001
0100
0001
0010
,
0001
1000
0020
0000
,
1030
1000
0001
0100
,
0010
1000
0200
0000
,
0310
0001
1000
1000
,
0010
0100
0002
0000
,
1003
1000
0100
0010
,
0001
1000
0020
0000
,
1030
0001
0200
0000
,
0301
0001
0020
0000
,
0130
0100
1000
1000
,
0001
0100
0020
0000
,
1030
1000
0002
0000
,
0013
0100
2000
0000
,
3100
0100
1000
1000
,
0010
1000
0002
0000
,
0203
0000
0310
0010
,
1000
0100
0020
0000
,
0032
0000
1003
1000
,
0010
0100
0020
0000
,
0230
0000
0301
0001
,
1000
0100
0020
0000
,
0230
0000
1300
1000
,
0001
1000
0020
0000
,
0230
0000
0301
0001
,
1000
0100
2000
0000
,
3020
0000
0130
0100
,
0001
0010
0200
0000
,
0320
0000
0031
0001
,
1000
1000
0020
0000
,
2030
0000
3001
0001
,
0100
0100
0001
1000
,
0020
0000
1030
0000
,
1000
1000
0001
0001
,
0200
0000
0310
0010
;
