#VERSION:0.83;
#TITLE:-Emissar wul Elverhojj;
#SUBTITLE:;
#ARTIST:Vaelumir's Call;
#TITLETRANSLIT:;
#SUBTITLETRANSLIT:;
#ARTISTTRANSLIT:;
#GENRE:;
#ORIGIN:;
#CREDIT:;
#BANNER:AV.avi;
#BACKGROUND:bg.png;
#PREVIEWVID:;
#JACKET:jacket.png;
#CDIMAGE:;
#DISCIMAGE:;
#LYRICSPATH:;
#CDTITLE:;
#MUSIC:audio.ogg;
#OFFSET:-0.367000;
#SAMPLESTART:52.993229;
#SAMPLELENGTH:14.999998;
#SELECTABLE:YES;
#DISPLAYBPM:*;
#BPMS:0.000=212.000;
#STOPS:195.000=0.550,
400.000=0.550;
#DELAYS:;
#WARPS:184.000=11.000,
385.000=15.000,
422.000=15.000;
#TIMESIGNATURES:0.000=4=4;
#TICKCOUNTS:0.000=4;
#COMBOS:0.000=1;
#SPEEDS:0.000=1.000=0.000=0;
#SCROLLS:0.000=1.000,
26.000=2.000,
29.000=1.000,
32.000=2.000,
35.000=1.000,
139.000=0.500,
163.000=1.000,
181.000=0.500,
195.000=1.000,
238.000=0.500,
239.000=1.000,
239.500=0.500,
240.500=1.000,
241.000=0.500,
243.000=1.000,
400.000=0.500,
440.000=1.500,
443.000=0.700,
446.000=1.500,
449.000=0.700,
464.000=1.000,
494.000=0.500,
495.000=1.000,
495.500=0.500,
496.500=1.000,
497.000=1.600,
497.375=0.250,
497.750=1.600,
498.125=0.250,
498.500=1.600,
498.875=0.250,
499.250=1.600,
499.625=0.250,
500.000=1.000,
547.000=0.500,
560.000=1.000;
#FAKES:;
#LABELS:0.000=Song Start;
#BGCHANGES:0.000=MV.avi=1.400=1=0=1===CrossFade==,
4.000=MV.avi=1.000=0=0=1=====,
99999=-nosongbg-=1.000=0=0=0 // don't automatically add -songbackground-
;
#KEYSOUNDS:;
#ATTACKS:
;

//---------------dance-single - ----------------
#NOTEDATA:;
#CHARTNAME:;
#STEPSTYPE:dance-single;
#DESCRIPTION:;
#CHARTSTYLE:;
#DIFFICULTY:Challenge;
#METER:17;
#RADARVALUES:0.651257,1.092583,0.318352,0.853183,0.245131,716.000000,666.000000,50.000000,134.000000,0.000000,0.000000,0.000000,0.000000,62.000000,0.651257,1.092583,0.318352,0.853183,0.245131,716.000000,666.000000,50.000000,134.000000,0.000000,0.000000,0.000000,0.000000,62.000000;
#CREDIT:Raje'Muse;
#DISPLAYBPM:*;
#NOTES:
0000
0000
0000
0000
,
0000
0000
0000
0000
,
0000
0000
0000
0000
,
0000
0000
0000
0000
,
0000
0000
0000
0000
,
0000
0000
0000
0000
,
0000
0000
2002
0000
,
0000
3003
0000
0000
,
0022
0000
0000
0033
,
0000
0000
0000
0000
0000
0000
0000
0000
1001
0000
0000
0000
0010
0001
0010
0000
,
0000
0000
1000
0000
0002
0000
0000
0000
0103
0001
0100
0001
0100
0000
0000
0000
,
0020
0000
0030
0000
,
0002
0000
0023
0000
0230
0000
1300
0010
,
0000
1000
0001
0100
0002
0000
2003
0000
,
3010
0100
0000
0100
0020
0000
2030
0000
,
3002
0000
0013
0100
0000
0100
0010
0001
,
2000
0000
3002
0000
0013
0100
2000
0000
,
3200
0000
0310
0000
0012
0000
1003
0010
,
0000
0010
0100
0010
1000
0001
0200
0000
,
0310
1000
0000
1000
0002
0000
0203
0000
,
0302
0000
1003
0002
0000
1003
0200
0000
,
0320
0000
0031
0001
0000
0001
0000
1000
,
0200
0000
0000
0000
1300
0001
1000
0000
0010
0000
0100
0000
0001
0000
0000
0000
,
0001
0000
1000
0000
0001
0000
1000
0000
0100
0000
0000
0000
1000
0001
0100
0000
,
0010
0000
1000
0000
0010
0100
0001
0100
,
0010
1010
1010
1000
,
0100
0000
0010
0000
0001
0000
0010
0000
0100
0000
0000
0000
0001
1000
0001
0000
,
0100
0000
1001
0000
0100
0001
1000
0001
,
0010
0000
0001
0010
0100
1000
0001
0000
,
0001
0000
0000
0000
0100
0000
0010
0000
0100
0000
0000
0000
0010
1000
0010
0000
,
1000
0000
0110
0000
1000
0100
0001
0100
,
1000
0000
0001
1000
0001
0000
0010
0000
0100
0000
0010
0000
0001
0000
0000
0000
,
1000
0000
0100
0000
1000
0000
0100
0000
0010
0000
0000
0000
0001
1000
0001
0000
,
1000
0100
0020
0000
0031
0100
0000
0100
,
0010
0000
1000
0001
1000
0000
0010
0000
0100
0000
0001
0000
0020
0000
0000
0000
,
0000
0031
0010
0100
2000
0000
3200
0000
,
0320
0032
1000
2003
,
3002
0000
0103
0010
0100
0010
2000
0000
,
3001
0100
0020
0000
0230
0000
0301
1000
,
0020
0000
2030
0000
0000
3001
0100
0010
,
0200
0000
0301
0012
,
0000
0100
0100
0000
,
1003
2010
0000
0001
,
0001
0000
0000
0000
0000
0000
0000
0000
3100
0000
0000
0000
1000
0001
0010
0000
,
0010
0000
0001
0000
1000
0000
0010
0000
0100
0000
0010
0000
1000
0100
1000
0001
,
1000
0010
1000
0001
0200
0000
0000
0000
0000
0000
0000
0000
0000
0000
0000
0000
,
0301
0000
0000
0000
,
0000
0000
0000
0000
,
0000
0000
0000
0000
,
1001
0000
0100
0010
0001
0000
1000
0001
1000
0000
0010
0000
0200
0000
0000
0000
,
0302
0000
0000
0000
1003
0000
0100
0000
0020
0000
0000
0000
0031
0100
0001
0000
,
0010
0000
0100
0000
2000
0000
0000
0000
3001
0000
0100
0010
0100
0000
0010
0000
,
2000
0000
3001
0100
1000
0100
0002
0000
,
0013
0000
0100
0000
0010
0000
0001
1000
0020
0000
0000
0000
0100
0000
0000
0000
,
1030
0001
1000
0000
0002
0000
0000
0000
0103
0000
0000
0000
1000
0000
0100
0010
,
0001
0000
0010
0000
0001
0000
0100
0000
0010
1000
0010
1000
0002
0000
0000
0000
,
0023
0000
0000
0000
0130
1000
0100
0000
2000
0000
0000
0000
3001
0000
0100
0000
,
1000
0100
0002
0000
0013
0100
1000
0001
,
0100
0000
0001
1000
0001
0000
0010
0000
0001
0000
0010
0000
0100
0000
0010
0000
,
0100
1000
0001
0010
0022
0000
0033
2002
,
0000
3003
2020
0000
0030
0000
3001
0010
,
0100
0000
1000
0001
1000
0000
0010
0100
0010
0000
1000
0000
0200
0000
0000
0000
,
2300
0000
3001
0010
0200
0000
1300
0001
,
0100
0000
0001
1000
0001
0000
0100
0000
0010
0000
1000
0000
0010
0000
0001
0000
,
0020
0000
0000
0000
1030
0000
0001
0000
0100
0000
0010
0000
0100
0001
0100
0000
,
0001
0000
1000
0000
0010
0100
0010
1000
0002
0000
0000
0000
0100
0000
0000
0000
,
0103
0010
2000
0000
0000
0000
3100
1000
,
0001
0000
0100
0001
1000
0000
0010
0100
0010
0000
1000
0000
0002
0000
0000
0000
,
2003
3200
2300
3010
,
1000
0100
0010
0001
0200
0000
0000
0000
0310
0000
1000
0000
0200
0000
0000
0000
,
2300
0000
0000
0000
,
0000
0000
3001
0000
0100
0000
0010
0000
1000
0000
0100
1000
0010
0000
0100
0000
,
0001
1000
0200
0000
1300
0001
0010
0000
,
0001
0100
0000
0100
0000
0001
0010
0100
,
0000
0100
0000
1000
0001
1000
0000
1000
,
0000
0001
0010
0100
0000
0100
0000
1000
,
0001
0010
0000
0010
0000
0001
1000
0100
,
0000
0100
0000
1000
0010
0100
0000
0100
,
0000
0001
1000
0100
0001
0100
1000
0010
,
1000
1000
0000
0001
0010
0100
0010
0001
,
0000
0100
0010
0001
0010
1000
0000
1000
,
0001
0100
0010
0100
0000
0001
0010
0100
,
1000
0001
0000
1000
0010
0100
1000
0100
,
0000
0001
0100
0010
0100
0001
0000
0001
,
0000
0100
0020
0000
0000
0000
0000
0000
,
2030
3200
2300
3002
,
0203
0320
2030
0000
,
3020
0000
0230
0000
0000
0310
1000
0010
,
0200
0320
0230
0302
,
0000
2003
0000
0000
3020
0000
0000
0000
,
0000
2030
3000
0000
,
0002
0023
0230
0302
,
0203
0000
0320
0000
0032
0000
0000
2003
,
0000
0000
3002
0000
0000
0203
0000
0000
,
2300
0000
0000
3200
0000
0000
0320
0000
,
0000
0230
0000
0000
0300
0000
0000
0000
,
0000
0000
0000
0000
,
0000
0000
0000
0000
,
0000
0000
0000
0000
,
0000
0000
0000
0000
,
0000
0001
1000
0010
,
0100
0000
0020
0000
1030
0001
2000
0000
,
3010
0000
0100
0000
0010
0000
0001
0000
0020
0000
0000
0000
1030
0000
0001
1000
,
0001
0100
0020
0000
1030
0001
0010
0001
,
2000
0000
3010
1000
0001
1000
0200
0000
,
0000
0320
0031
MMMM
,
MMMM
0000
0000
0000
M00M
M00M
M00M
M00M
M00M
M00M
M00M
M00M
M00M
M00M
M00M
M00M
,
M00M
0000
0000
0000
0000
0000
0000
0000
0000
0000
0000
0000
0M0M
0M0M
0M0M
0M0M
,
0M0M
0M0M
0M0M
0M0M
0M0M
0M0M
0M0M
0M0M
0M0M
0000
0000
0000
0000
0000
0000
0000
,
0000
0000
0000
0000
,
2002
0000
0000
3003
,
0010
1000
0202
0000
,
0000
0303
0001
1000
,
2000
0000
0000
0000
3100
0010
0002
0000
0000
0000
1003
0000
2000
0000
0000
0000
,
3100
0010
0100
1000
0001
0000
0000
0000
0200
0000
0000
0000
0000
0000
0310
0000
,
1000
0000
0001
0000
0200
0000
0000
0000
0000
0000
0000
0000
0310
0000
1000
0001
,
2000
0000
0000
0000
3010
0000
0100
0001
1000
0000
0100
0000
0010
0000
0001
0100
,
0010
0000
0100
0000
0001
0000
1000
0000
0200
0000
0000
0000
1300
0001
1000
0001
,
0100
0000
0010
0000
2000
0000
0000
0000
3001
0010
0001
0010
0100
0000
1000
0000
,
0020
0000
0130
1000
0100
0001
0010
0100
,
1000
0001
1000
0000
0010
0000
0100
0000
0020
0000
0000
0000
0000
0000
0000
0000
,
0130
0000
0000
0000
0001
1000
0001
1000
0001
1000
0001
1000
0001
0000
0100
0000
,
0010
0000
0010
0100
0001
0000
0010
0000
0001
0000
1000
0100
0010
0000
0100
0000
,
1000
0000
0001
0000
1000
0100
0010
0001
1000
0000
0000
0000
1000
0000
1001
0000
,
0000
0000
0001
0000
0101
0000
0000
1010
0000
0000
1100
0000
0000
0011
0000
0000
,
2100
0000
0000
3020
,
0000
0000
0230
0000
,
0000
0302
0000
0103
,
0011
0011
0000
1100
1100
0000
1001
1001
,
0000
0000
0110
0000
0110
0000
0001
0100
0010
0000
0100
0000
0000
0000
0101
0000
,
0101
0000
1010
1010
0000
1100
1100
0000
,
0101
0000
0101
0000
0000
0000
1000
0000
0010
0000
0001
0000
0010
0000
1000
0001
,
1000
0000
0000
0000
0000
0000
0011
0000
0000
0000
0000
0000
1001
0000
0001
0010
,
0100
0000
1100
1100
0000
1001
0000
0101
,
0101
0000
1100
0000
1001
0000
0000
1010
,
0000
0000
0000
0000
0101
0000
0000
0000
0100
0000
0001
0100
0010
0000
0000
0000
,
0000
0000
1001
0000
0000
0000
0001
0010
0100
0000
0100
0010
0001
0000
0000
0000
,
0000
0000
0000
0000
,
0000
0000
0000
0000
,
0000
0000
0000
0000
,
0002
0000
0000
0000
,
0000
0000
2000
0000
,
0000
0000
0000
0000
,
3003
0000
0000
0000
;

//---------------dance-single - ----------------
#NOTEDATA:;
#CHARTNAME:;
#STEPSTYPE:dance-single;
#DESCRIPTION:;
#CHARTSTYLE:;
#DIFFICULTY:Medium;
#METER:9;
#RADARVALUES:0.369288,0.637340,0.127341,0.668539,0.044569,406.000000,386.000000,20.000000,105.000000,0.000000,0.000000,0.000000,0.000000,53.000000,0.369288,0.637340,0.127341,0.668539,0.044569,406.000000,386.000000,20.000000,105.000000,0.000000,0.000000,0.000000,0.000000,53.000000;
#CREDIT:Musey;
#DISPLAYBPM:*;
#NOTES:
// measure 0
0000
0000
0000
0000
,  // measure 1
0000
0000
0000
0000
,  // measure 2
0000
0000
0000
0000
,  // measure 3
0000
0000
0000
0000
,  // measure 4
0000
0000
0000
0000
,  // measure 5
0000
0000
0000
0000
,  // measure 6
0000
0000
2000
0000
,  // measure 7
0000
3000
0000
0000
,  // measure 8
0002
0000
0000
0003
,  // measure 9
0000
0000
0101
0001
,  // measure 10
0010
0000
0100
0010
0001
1000
0010
0000
,  // measure 11
0200
0000
0000
0000
,  // measure 12
0302
0000
2003
0000
3020
0000
0000
0130
,  // measure 13
0000
0020
0230
0302
,  // measure 14
0000
0103
0000
0000
0020
0000
0230
0000
,  // measure 15
0302
0000
0000
1003
0000
0000
0002
0000
,  // measure 16
0203
0000
0320
0000
0000
1030
0000
0000
,  // measure 17
2000
0000
3002
0000
0203
0000
0000
0310
,  // measure 18
0000
0002
0023
0230
,  // measure 19
0000
1300
0000
0000
0020
0000
0230
0000
,  // measure 20
0302
0000
0000
1003
0000
0000
0010
0000
,  // measure 21
1000
0001
0001
0100
,  // measure 22
0100
0001
0010
1001
,  // measure 23
0001
0100
0001
0000
0100
0000
0010
0000
,  // measure 24
0010
0000
1000
0000
0001
0010
0001
0000
,  // measure 25
1000
0010
0010
0100
,  // measure 26
0001
1000
0100
0000
1000
0000
0010
0000
,  // measure 27
0010
0000
1000
0000
0001
0010
0100
0000
,  // measure 28
0010
0001
1000
1000
,  // measure 29
0010
1000
0010
0000
0100
0000
0001
0100
,  // measure 30
0001
0000
0010
0000
0100
0010
0100
0000
,  // measure 31
1000
0001
1000
0010
,  // measure 32
0010
1000
0001
0100
,  // measure 33
0010
2000
0000
3001
,  // measure 34
0002
0000
0103
0020
,  // measure 35
0000
0000
2030
0000
,  // measure 36
0000
3002
0000
0000
,  // measure 37
0203
0000
0000
0320
,  // measure 38
0000
0000
0230
0000
,  // measure 39
0000
0302
0000
0000
,  // measure 40
2003
0000
3000
2002
,  // measure 41
0000
0000
0000
0000
,  // measure 42
3003
0220
0000
0000
,  // measure 43
0000
0000
0000
0000
0330
0000
1000
0001
,  // measure 44
0100
0001
0010
1000
0010
0001
1000
0010
,  // measure 45
0100
0001
2000
0000
0000
0000
0000
0000
,  // measure 46
30F0
0000
0000
0000
,  // measure 47
0000
0000
0000
0000
,  // measure 48
0000
0000
0000
0010
,  // measure 49
1000
0000
0001
0000
0100
0001
0010
0000
,  // measure 50
0001
0000
0001
0000
1000
0000
0010
1000
,  // measure 51
0010
0000
0100
0000
0001
0010
0001
0000
,  // measure 52
0100
0000
0010
1000
0001
1000
0010
0000
,  // measure 53
1000
0000
0001
0100
0001
0000
0010
0000
,  // measure 54
0100
0110
1001
0010
,  // measure 55
1000
0000
0010
0000
0010
1000
0010
0000
,  // measure 56
1000
0000
0001
0000
0101
0000
0001
0010
,  // measure 57
0100
0110
0001
1000
,  // measure 58
0010
1000
0010
0100
0001
0100
0001
0000
,  // measure 59
0010
0000
0100
0000
2000
0000
0000
3002
,  // measure 60
0000
0203
0000
0000
,  // measure 61
0310
0000
0010
0000
1000
0001
0010
0000
,  // measure 62
0100
0010
0011
0001
,  // measure 63
1000
0010
0100
0001
,  // measure 64
1100
1000
0001
1000
,  // measure 65
0010
0100
0011
0100
,  // measure 66
0010
0000
0001
0000
1000
0000
0010
1000
,  // measure 67
0010
0000
1000
0001
0100
0000
0001
0000
,  // measure 68
0010
0000
0100
0000
0110
0000
0001
1000
,  // measure 69
0010
0000
1000
0000
0001
0100
0001
0000
,  // measure 70
0022
0000
0000
0000
0000
0000
0000
0033
,  // measure 71
0000
0000
0000
0000
1000
0001
1000
0001
,  // measure 72
0100
0010
2000
0000
0001
0000
3001
0000
,  // measure 73
0100
0001
0020
0000
,  // measure 74
0031
0200
0000
0310
,  // measure 75
2000
0000
3001
0020
,  // measure 76
0000
0031
0200
0000
,  // measure 77
0310
2000
0000
3001
,  // measure 78
0020
0000
0130
1000
,  // measure 79
0010
0100
0002
0000
,  // measure 80
0013
0002
0000
0103
,  // measure 81
0020
0000
1030
0002
,  // measure 82
0000
0013
0200
0000
,  // measure 83
1300
0020
0000
0130
,  // measure 84
0001
0010
0100
1000
,  // measure 85
0002
0000
0000
0023
,  // measure 86
0000
0000
0130
0000
,  // measure 87
0100
1000
0000
1000
,  // measure 88
0010
0100
0010
1000
,  // measure 89
0001
0100
0020
0000
,  // measure 90
0000
2030
0000
0000
,  // measure 91
3002
0000
0000
0023
,  // measure 92
0000
0000
0032
0000
,  // measure 93
0000
0203
0000
0000
,  // measure 94
0320
0000
0000
2030
,  // measure 95
0000
0000
3001
0000
,  // measure 96
0000
0000
0000
0000
,  // measure 97
0000
0000
0000
0000
,  // measure 98
0000
0000
0000
0000
,  // measure 99
0000
0000
0000
0000
,  // measure 100
0000
2000
0000
0000
,  // measure 101
3001
0000
0000
0100
,  // measure 102
0100
0010
0200
0000
,  // measure 103
0000
0302
0000
0000
,  // measure 104
0013
0000
0000
1000
,  // measure 105
0001
1000
0000
0000
,  // measure 106
0000
0000
0000
0000
M0M0
M0M0
M0M0
M0M0
M0M0
M0M0
M0M0
M0M0
M0M0
M0M0
M0M0
M0M0
,  // measure 107
M0M0
0000
0000
0000
0000
0000
0000
0000
0000
0000
0000
0000
0M0M
0M0M
0M0M
0M0M
,  // measure 108
0M0M
0M0M
0M0M
0M0M
0M0M
0M0M
0M0M
0M0M
0M0M
0000
0000
0000
0000
0000
0000
0000
,  // measure 109
0000
0000
0000
0000
,  // measure 110
2020
0000
0000
3030
,  // measure 111
0000
0000
0202
0000
,  // measure 112
0000
0303
0000
0000
,  // measure 113
1001
0000
0000
1001
0000
0000
0010
0000
,  // measure 114
0100
0010
2000
0000
,  // measure 115
0000
3020
0000
0000
,  // measure 116
0130
0001
0100
0001
,  // measure 117
0010
0001
2000
0000
,  // measure 118
3010
0100
0100
0001
,  // measure 119
0011
0001
1000
1010
,  // measure 120
0001
0100
0020
0000
,  // measure 121
2030
3002
0000
0103
,  // measure 122
0101
0010
1000
0001
,  // measure 123
0010
0001
0010
0000
0020
0000
0000
0032
,  // measure 124
0000
0000
0000
0000
1003
0000
0000
0010
0000
0000
0100
0000
0000
0001
0000
0000
,  // measure 125
0020
0000
0000
0230
,  // measure 126
0000
0000
2300
0000
,  // measure 127
0000
3002
0000
0000
,  // measure 128
1003
0001
0000
1000
0001
0000
1000
0001
,  // measure 129
0000
1000
0001
0000
1000
0000
0001
0010
,  // measure 130
0100
0000
0010
0100
0000
0010
0100
0000
,  // measure 131
0010
0100
0000
1000
0001
1000
0010
0100
,  // measure 132
0002
0000
0003
2000
0000
3000
0020
0000
,  // measure 133
2030
0000
3002
0000
0003
0200
0000
0300
,  // measure 134
0020
0000
2030
0000
3002
0000
0003
0020
,  // measure 135
0000
0030
0002
0000
0203
0000
0320
0000
,  // measure 136
0030
2000
0000
3000
0002
0000
2003
0000
,  // measure 137
3000
0000
0000
0000
,  // measure 138
0000
0000
0000
0000
,  // measure 139
0000
0000
0000
0000
,  // measure 140
2000
0000
0000
0000
,  // measure 141
0000
0000
3002
0000
,  // measure 142
0000
0000
0000
0000
,  // measure 143
0003
0000
0000
0000
;

//---------------dance-single - ----------------
#NOTEDATA:;
#CHARTNAME:;
#STEPSTYPE:dance-single;
#DESCRIPTION:;
#CHARTSTYLE:;
#DIFFICULTY:Easy;
#METER:5;
#RADARVALUES:0.219208,0.364194,0.025468,0.388389,0.000000,241.000000,237.000000,4.000000,61.000000,0.000000,0.000000,0.000000,0.000000,0.000000,0.219208,0.364194,0.025468,0.388389,0.000000,241.000000,237.000000,4.000000,61.000000,0.000000,0.000000,0.000000,0.000000,0.000000;
#CREDIT:Musey;
#DISPLAYBPM:*;
#NOTES:
0000
0000
0000
0000
,
0000
0000
0000
0000
,
0000
0000
0000
0000
,
0000
0000
0000
0000
,
0000
0000
0000
0000
,
0000
0000
0000
0000
,
0000
0000
2000
0000
,
0000
0000
0000
0000
,
3002
0000
0000
0000
,
0000
0000
0203
0000
,
0000
0320
0000
0000
,
2030
0000
0000
3000
,
0010
0000
0100
0000
0001
0000
0000
0001
,
0000
0100
0001
1000
,
0000
1000
0000
0000
0010
0000
1000
0000
,
0001
0000
0000
0001
0000
0000
0100
0000
,
0010
0000
0100
0000
0000
0100
0000
0000
,
0010
0000
1000
0000
0001
0000
0000
0001
,
0000
0010
0100
0010
,
0000
0010
0000
0000
0001
0000
1000
0000
,
0010
0000
0000
0010
0000
0000
1000
0000
,
0001
2000
0000
0000
,
3020
0000
0000
0130
,
0000
0001
0000
0000
0100
0000
0001
0000
,
1000
0000
0010
0000
0000
0100
0000
0000
,
0001
0100
0010
1000
,
0000
0010
0000
0000
0100
0000
0001
0000
,
0100
0000
0010
0000
0000
1000
0000
0000
,
0001
0100
0010
0100
,
0000
0001
0000
0000
1000
0000
0100
0000
,
1000
0000
0100
0000
0000
1000
0000
0000
,
0010
0100
0001
0100
,
0000
0100
0000
0000
0010
0000
1000
0000
,
0001
0020
0000
0000
,
0032
0000
0000
0203
,
0000
0000
0000
0000
,
0000
0320
0000
0000
,
0000
0000
0000
2030
,
0000
0000
0000
0000
,
0000
3002
0000
0000
,
0000
0000
0000
0203
,
0000
0000
0000
0000
,
0000
0320
0000
0000
,
0000
0000
0000
2030
,
0000
0000
3002
0000
,
0000
0103
0000
0000
,
0000
0000
0000
0000
,
0000
0000
0000
0000
,
0000
0000
0000
0000
,
1000
0001
0100
0010
,
0010
1000
0002
0000
,
0103
0020
0000
1030
,
0001
0100
0010
0100
,
0001
1000
0200
0000
,
0000
2300
0000
0000
,
3001
0100
0010
1000
,
0001
0010
0200
0000
,
0000
2300
0000
0000
,
3010
1000
0001
0100
,
0010
0100
0002
0000
,
0000
2003
0000
0000
,
3010
1000
0001
0010
,
0100
0010
0002
0000
,
0000
2003
0000
0000
,
3010
1000
0010
0100
,
0001
0100
0020
0000
,
0000
2030
0000
0000
,
3001
0010
0100
0010
,
0001
1000
0020
0000
,
0000
2030
0000
0000
,
3002
0000
0000
0000
,
0000
0000
0203
0000
,
0000
0000
0000
0000
,
1300
0000
0000
1000
,
0000
0000
0001
0000
,
0000
0001
0000
0000
,
1000
0000
0000
1000
,
0000
0000
0010
0000
,
0000
1000
0010
1000
,
0001
0000
0000
0001
,
0000
0000
0100
0000
,
0000
0100
0000
0000
,
0001
0000
0000
0001
,
0000
0000
0100
0010
,
1000
0001
1000
0010
,
0100
0200
0000
0000
0000
0000
0000
0000
,
0000
0000
0301
0000
,
0000
1000
0000
0000
,
0020
0000
0000
0000
,
0000
0000
0230
0000
,
0000
0301
0000
0000
,
2002
0000
0000
0000
,
0000
0000
3003
0000
,
0000
0000
0000
0000
,
0220
0000
0000
0000
,
0000
0000
0330
0000
,
0000
0000
0000
0000
,
0000
0000
0000
0000
,
0000
0000
0000
0000
,
0000
0000
0000
0000
,
0000
2000
0000
0000
,
3001
0000
0000
0200
,
0000
0000
0310
0000
,
0000
0002
0000
0000
,
0013
0000
0000
2000
,
0000
0000
0000
0000
,
0000
0000
0000
0000
,
0000
0000
0000
0000
,
0000
0000
0000
0000
,
0000
3000
0000
0000
,
2000
0000
0000
3001
,
0000
0000
0002
0000
,
0000
0103
0000
0000
,
2020
0000
0000
0000
,
3030
0000
0202
0000
,
0000
0000
0303
0000
,
1000
0010
1000
0001
,
0100
0010
0200
0000
,
0000
0302
0000
0000
,
1003
0001
0010
0001
,
0010
0001
2000
0000
,
0000
3020
0000
0000
,
0130
0010
1000
0001
,
1000
0100
2000
0000
,
0000
3002
0000
0000
,
0203
0000
0000
0000
,
0000
0000
0320
0000
,
0000
0000
0000
0000
,
2030
0000
0000
0010
,
0000
0000
0100
0000
,
3002
0000
0000
0010
,
0000
0000
0100
0000
,
1003
0000
0000
1000
0000
0000
0010
0000
,
1000
0000
0010
0000
0000
0010
0000
0000
,
1000
0000
0001
0000
0100
0000
0000
0100
,
0000
0001
0010
0001
,
0000
0001
0000
0000
1000
0000
0010
0000
,
0000
0000
0000
0000
,
0000
0000
0000
0000
,
0000
0000
0000
0000
,
2000
0000
0000
0000
,
0000
0000
0000
0000
,
0000
0000
0000
0000
,
3010
0000
0000
0000
;

//---------------dance-single - ----------------
#NOTEDATA:;
#CHARTNAME:;
#STEPSTYPE:dance-single;
#DESCRIPTION:;
#CHARTSTYLE:;
#DIFFICULTY:Beginner;
#METER:2;
#RADARVALUES:0.111878,0.182097,0.025468,0.331086,0.000000,123.000000,119.000000,4.000000,52.000000,0.000000,0.000000,0.000000,0.000000,0.000000,0.111878,0.182097,0.025468,0.331086,0.000000,123.000000,119.000000,4.000000,52.000000,0.000000,0.000000,0.000000,0.000000,0.000000;
#CREDIT:Musey;
#DISPLAYBPM:*;
#NOTES:
0000
0000
0000
0000
,
0000
0000
0000
0000
,
0000
0000
0000
0000
,
0000
0000
0000
0000
,
0000
0000
0000
0000
,
0000
0000
0000
0000
,
0000
0000
2000
0000
,
0000
3000
0000
0000
,
0002
0000
0000
0003
,
0000
0000
0010
0000
,
0000
0010
0000
0000
,
0200
0000
0000
0300
,
0000
0000
0002
0000
,
0000
0000
0000
2003
,
0000
0000
0000
0000
,
3020
0000
0000
0000
,
0000
0230
0000
0000
,
0000
0000
0302
0000
,
0000
0000
0000
0023
,
0000
0000
0000
0000
,
0032
0000
0000
0000
,
0000
2003
0000
0000
,
0000
0000
0000
3010
,
0000
0000
0010
0000
,
0000
0100
0000
0000
,
0100
0000
0000
1000
,
0000
0000
1000
0000
,
0000
0010
0000
0000
,
0010
0000
0000
1001
,
0000
0000
0001
0000
,
0000
0100
0000
0000
,
0100
0000
0000
0010
,
0000
0000
0010
0000
,
0000
1000
0000
0000
,
1000
0000
0000
0002
,
0000
0000
0000
0000
,
0000
0013
0000
0000
,
0000
0000
0000
2000
,
0000
0000
0000
0000
,
0000
3100
0000
0000
,
0000
0000
0000
0020
,
0000
0000
0000
0000
,
0000
2030
0000
0000
,
0000
0000
0000
3001
,
0000
0000
0001
0000
,
0000
0010
0000
0000
,
0000
0000
0000
0000
,
0000
0000
0000
0000
,
0000
0000
0000
0000
,
2000
0000
0000
3001
,
0000
0000
0100
0000
,
0000
0100
0000
0000
,
0002
0000
0000
0013
,
0000
0000
2000
0000
,
0000
3010
0000
0000
,
0100
0000
0000
0100
,
0000
0000
0002
0000
,
0000
0013
0000
0000
,
2000
0000
0000
3010
,
0000
0000
0002
0000
,
0000
0103
0000
0000
,
1000
0000
0000
1000
,
0000
0000
0010
0000
,
0000
0010
0000
0000
,
0100
0000
0000
0100
,
0000
0000
0002
0000
,
0000
0013
0000
0000
,
1000
0000
0000
1000
,
0000
0000
0010
0000
,
0000
0010
0000
0000
,
0200
0000
0000
0000
,
0300
0000
0020
0000
,
0000
1030
0000
0000
,
2000
0000
0000
3001
,
0000
0000
0002
0000
,
0000
1003
0000
0000
,
0200
0000
0000
0310
,
0000
0000
0020
0000
,
0000
0130
0000
0000
,
2000
0000
0000
3001
,
0000
0000
0002
0000
,
0000
0013
0000
0000
,
0200
0000
0000
0301
,
0000
0000
0020
0000
,
0000
1030
0000
0000
,
0002
0000
0000
0000
,
0000
0000
1003
0000
,
0000
0000
0000
0000
,
2000
0000
0000
0000
,
0000
0000
3010
0000
,
0000
0000
0000
0000
,
0220
0000
0000
0330
,
0000
0000
2002
0000
,
0000
3003
0000
0000
,
2020
0000
0000
3030
,
0000
0000
0002
0000
,
0000
0000
0000
0000
,
0000
0000
0000
0000
,
0000
0000
0000
0000
,
0000
0000
0000
0000
,
0003
1000
0000
0000
,
0000
0000
0000
0001
,
0000
0000
0000
0000
,
0000
1000
0000
0000
,
0000
0000
0000
0020
,
0000
0000
0000
0000
,
0000
0000
0000
0000
,
0000
0000
0000
0000
,
0000
0000
0000
0000
,
0000
0030
0000
0000
,
0200
0000
0000
0300
,
0000
0000
0020
0000
,
0000
0030
0000
0000
,
2000
0000
0000
0000
,
0000
0000
3002
0000
,
0000
0003
0000
0000
,
0100
0000
0000
0100
,
0000
0000
0010
0000
,
0000
0010
0000
0000
,
1000
0000
0000
1000
,
0000
0000
0001
0000
,
0000
0001
0000
0000
,
0100
0000
0000
0100
,
0000
0000
0010
0000
,
0000
0000
0000
0000
,
0020
0000
0000
0000
,
0030
0000
0200
0000
,
0000
0300
0000
0000
,
0002
0000
0000
0000
,
0000
0000
0000
0000
,
2003
0000
0000
0000
,
0000
0000
0000
0000
,
3020
0000
0000
0000
,
0000
0000
0000
0000
,
0000
0000
0000
0000
,
0000
0000
0000
0000
,
0000
0000
0000
0000
,
0000
0000
0000
0000
,
0000
0000
0000
0000
,
0000
0000
0000
0000
,
2030
0000
0000
0000
,
0000
0000
0000
0000
,
0000
0000
0000
0000
,
3001
0000
0000
0000
;

//---------------dance-single - ----------------
#NOTEDATA:;
#CHARTNAME:;
#STEPSTYPE:dance-single;
#DESCRIPTION:;
#CHARTSTYLE:;
#DIFFICULTY:Hard;
#METER:13;
#RADARVALUES:0.475708,0.773913,0.178277,1.171534,0.070037,523.000000,495.000000,28.000000,184.000000,0.000000,0.000000,0.000000,0.000000,62.000000,0.475708,0.773913,0.178277,1.171534,0.070037,523.000000,495.000000,28.000000,184.000000,0.000000,0.000000,0.000000,0.000000,62.000000;
#CREDIT:Musey;
#DISPLAYBPM:*;
#NOTES:
0000
0000
0000
0000
,
0000
0000
0000
0000
,
0000
0000
0000
0000
,
0000
0000
0000
0000
,
0000
0000
0000
0000
,
0000
0000
0000
0000
,
0000
0000
2200
0000
,
0000
3300
0000
0000
,
0022
0000
0000
0033
,
0000
0001
0010
0100
1000
0010
0001
0010
,
0100
0001
0020
0000
0032
0000
0203
0000
,
0320
0000
0030
0000
,
2000
0000
3002
0000
0203
0000
0300
0100
,
0000
0020
2030
3002
,
0003
0001
0000
0000
0020
0000
0032
0000
,
2003
0000
3000
1000
0000
0000
0010
1000
,
0020
0000
0230
0000
0300
0100
0002
0000
,
0023
0000
0032
0000
2003
0000
0000
3002
,
0000
0003
1000
0001
0200
0000
0320
0000
,
0000
2030
0000
0000
3002
0000
0203
0000
,
0302
0000
0000
2003
0000
0000
3020
0000
,
0230
0000
0301
0010
0000
0001
0000
0001
,
2000
0000
3001
0000
0001
0100
0010
0000
,
0010
1000
0000
1000
0020
0000
2030
0000
,
3002
0000
0103
0000
0100
0010
0000
0010
,
0200
0302
2003
3001
,
0001
0100
0000
0100
0020
0000
2030
0000
,
3020
0000
0130
0000
0010
1000
0000
1000
,
0100
0010
0010
1001
,
0000
1000
0000
1000
0100
0000
0100
0000
,
0010
0000
1001
0000
0000
0010
0000
0010
,
1000
1000
0100
1001
,
0001
0010
0000
0010
0100
0000
1000
0000
,
0001
1000
0200
0000
1300
0000
0001
0010
,
0002
0000
0013
0000
0010
0001
2000
0000
,
0000
3001
0010
0100
2000
0000
0000
0000
,
3010
0200
0000
0301
,
0002
0000
0003
1000
0100
0010
0002
0000
,
0023
0230
0320
0032
,
2003
0000
3020
0000
0000
0030
0100
0001
,
0200
0000
0000
0300
0000
0000
0022
0000
,
0000
0000
0000
0000
,
0033
2020
0000
0000
,
0000
0000
0000
0000
3030
0000
0001
1000
,
0001
0010
0100
0010
0001
0000
1000
0000
,
0001
1000
0001
0000
0200
0000
0000
0000
0000
0000
0000
0000
0000
0000
0000
0000
,
0301
0000
0000
0000
,
0000
0000
0000
0000
,
0000
0000
0000
0000
,
0100
1000
0010
0100
0001
0010
0002
0000
,
2003
0000
3020
0000
2030
0000
3001
0100
,
0000
0100
0001
0000
0001
0010
1000
0010
,
0002
0000
0103
1000
0100
0001
0020
0000
,
0031
1000
0001
0010
0200
0000
0310
0000
,
0001
0000
1000
0000
0002
0000
0000
0000
0103
0000
0000
0000
0010
0000
1000
0001
,
1000
0001
0010
0100
1000
0010
0200
0000
,
0302
0000
2003
0000
3020
0000
0130
0020
,
0000
1030
0200
0000
0310
0001
0010
0100
,
0010
0100
1000
0001
0100
0001
2000
0000
,
3020
0000
0130
0010
2000
0000
0000
3002
,
0000
0000
0000
0000
0203
0000
0000
0000
0000
0000
0000
0000
0301
0000
0010
0001
,
0010
0001
0100
0001
1000
0010
0200
0000
,
0302
0000
0023
0000
0230
0000
1300
0010
,
0000
0000
1000
0001
1000
0000
0100
0000
0010
0000
0001
0000
0010
0000
0100
0000
,
2000
0000
3100
0010
0100
0000
0011
0000
,
1000
0010
0100
0000
0020
0000
0000
0000
,
0130
0001
2000
0000
3100
0000
0100
0010
,
0001
0000
0010
0001
0010
0000
0001
0000
1000
0000
0100
0000
2000
0000
0000
0000
,
3002
0203
0320
0000
,
1030
0001
2000
0000
3010
0100
0020
0000
,
2030
0000
0000
0000
,
0000
3001
0100
0001
0010
1000
0010
0001
,
1000
0100
2000
0000
3002
0000
0203
0000
,
0301
0000
2000
3000
2000
3000
0010
0000
,
0200
0300
0200
0300
0001
0000
0020
0030
,
0020
0030
0100
0000
2000
3000
2000
3000
,
0001
0000
0200
0300
0200
0300
0010
0000
,
2000
3000
2000
3000
0001
0000
0020
0030
,
0020
0030
0100
0000
1000
0000
0010
0000
,
1001
0000
0002
0003
0002
0003
0100
0000
,
0002
0003
0002
0003
0010
0000
0200
0300
,
0200
0300
1000
0000
0002
0003
0002
0003
,
0100
0000
0020
0030
0020
0030
1000
0000
,
0002
0003
0002
0003
0010
0000
0100
0000
,
1000
0001
0020
0000
0000
0000
0000
0000
,
0032
0023
0230
2300
,
3020
0230
0302
0000
,
0203
0000
0320
0000
0000
0130
0001
0100
,
0020
0230
0320
2030
,
0000
3002
0000
0000
0203
0000
0000
0000
,
0000
0000
0302
0000
0000
0003
0000
0000
,
2000
0000
0000
0000
,
3002
0000
0203
0000
0320
0000
0000
2030
,
0000
3002
0000
0000
,
2003
0000
0000
3200
0000
0000
0320
0000
,
0000
0230
0000
0000
0300
0000
0000
0000
,
0000
0000
0000
0000
,
0000
0000
0000
0000
,
0000
0000
0000
0000
,
0000
0000
0000
0000
,
0000
0000
1000
0000
1000
0001
0100
0000
,
0010
0200
0000
0301
,
0100
0000
0001
0100
0010
0000
0010
0000
,
0100
0001
1000
0001
,
0100
0010
0010
2000
,
0000
0000
3F00
MMMM
,
MMMM
0000
0000
0000
M00M
M00M
M00M
M00M
M00M
M00M
M00M
M00M
M00M
M00M
M00M
M00M
,
M00M
0000
0000
0000
0000
0000
0000
0000
0000
0000
0000
0000
0M0M
0M0M
0M0M
0M0M
,
0M0M
0M0M
0M0M
0M0M
0M0M
0M0M
0M0M
0M0M
0M0M
0000
0000
0000
0000
0000
0000
0000
,
0000
0100
0000
0000
,
2002
0000
0000
3003
,
0000
0000
0202
0000
,
0000
0303
0000
0000
,
2000
0000
3100
0002
0000
1003
0020
0000
,
0032
0000
0203
0000
0320
0000
0030
1000
,
0001
1000
0200
0000
0000
0000
0310
0000
,
1001
0000
0001
0100
0001
0010
0200
0000
,
2300
0000
3020
0000
2030
0000
0000
3002
,
0000
0000
0023
0000
0000
0230
0000
0000
,
2300
0000
3001
0010
0000
0001
0200
0000
,
0320
2030
3002
0000
,
2003
0000
3020
0000
0000
0000
0130
0001
,
0100
0010
1000
0001
0010
0100
0010
0001
,
1000
0010
1000
0001
0010
0000
0010
0001
,
0000
0000
0001
0000
0100
0000
0000
0010
0000
0000
0100
0000
0000
0001
0000
0000
,
2100
0000
0000
3020
,
0000
0000
0230
0000
,
0000
0302
0000
0103
,
0010
0011
0000
1000
1100
0000
1000
1001
,
0000
0010
0110
0100
0010
1000
0000
0001
,
0001
0000
1000
1010
0000
1000
1100
0000
,
0001
0101
0000
1000
0010
1000
0001
0010
,
0001
0000
0000
0011
0000
0000
1100
0000
,
1001
0000
0100
0001
0000
1000
0000
0001
,
0100
0000
1100
0000
1001
0000
0000
1010
,
0000
0000
0000
0000
0101
0000
0000
0000
0001
0000
1000
0100
1000
0000
0000
0000
,
0000
0000
1001
0000
0000
0000
1000
0100
1000
0000
0001
0100
0001
0000
0000
0000
,
0000
0000
0000
0000
,
0000
0000
0000
0000
,
0000
0000
0000
0000
,
0002
0000
0000
0000
,
0000
0000
2000
0000
,
0000
0000
0000
0000
,
3003
0000
0000
0000
;
