#VERSION:0.83;
#TITLE:Do It;
#SUBTITLE:;
#ARTIST:Stray Kids;
#TITLETRANSLIT:;
#SUBTITLETRANSLIT:;
#ARTISTTRANSLIT:;
#GENRE:;
#ORIGIN:;
#CREDIT:;
#BANNER:AV.avi;
#BACKGROUND:bg.png;
#PREVIEWVID:;
#JACKET:jacket.png;
#CDIMAGE:;
#DISCIMAGE:;
#LYRICSPATH:;
#CDTITLE:;
#MUSIC:audio.ogg;
#OFFSET:-0.223000;
#SAMPLESTART:45.800003;
#SAMPLELENGTH:15.000003;
#SELECTABLE:YES;
#BPMS:0.000=105.000;
#STOPS:;
#DELAYS:;
#WARPS:;
#TIMESIGNATURES:0.000=4=4;
#TICKCOUNTS:0.000=4;
#COMBOS:0.000=1;
#SPEEDS:0.000=1.000=0.000=0;
#SCROLLS:0.000=1.000;
#FAKES:;
#LABELS:0.000=Song Start;
#BGCHANGES:0.000=MV.avi=1.000=1=0=1===CrossFade==,
99999=-nosongbg-=1.000=0=0=0 // don't automatically add -songbackground-
;
#KEYSOUNDS:;
#ATTACKS:
;

//---------------dance-single - ----------------
#NOTEDATA:;
#CHARTNAME:;
#STEPSTYPE:dance-single;
#DESCRIPTION:;
#CHARTSTYLE:;
#DIFFICULTY:Challenge;
#METER:14;
#RADARVALUES:0.748776,0.781415,0.556782,0.086397,0.868772,546.000000,488.000000,58.000000,9.000000,0.000000,0.000000,0.000000,0.000000,0.000000,0.748776,0.781415,0.556782,0.086397,0.868772,546.000000,488.000000,58.000000,9.000000,0.000000,0.000000,0.000000,0.000000,0.000000;
#CREDIT:Musey;
#OFFSET:-0.223000;
#BPMS:0.000000=105.000000
;
#STOPS:;
#DELAYS:;
#WARPS:;
#TIMESIGNATURES:0.000000=4=4
;
#TICKCOUNTS:0.000000=4
;
#COMBOS:0.000000=1
;
#SPEEDS:0.000000=1.000000=0.000000=0
;
#SCROLLS:0.000000=1.000000
,80.000000=1.300000
,80.500000=0.900000
,81.000000=1.300000
,81.500000=0.900000
,82.000000=1.300000
,82.500000=0.900000
,83.000000=1.300000
,83.500000=0.900000
,84.000000=1.000000
,88.000000=1.300000
,88.500000=0.900000
,89.000000=1.300000
,89.500000=0.900000
,90.000000=1.300000
,90.500000=0.900000
,91.000000=1.300000
,91.500000=0.900000
,92.000000=1.000000
,104.000000=1.300000
,104.500000=0.900000
,105.000000=1.300000
,105.500000=0.900000
,106.000000=1.300000
,106.500000=0.900000
,107.000000=1.300000
,107.500000=0.900000
,108.000000=1.000000
,144.000000=1.300000
,144.500000=0.900000
,145.000000=1.300000
,145.500000=0.900000
,146.000000=1.300000
,146.500000=0.900000
,147.000000=1.300000
,147.500000=0.900000
,148.000000=1.000000
,152.000000=1.300000
,152.500000=0.900000
,153.000000=1.300000
,153.500000=0.900000
,154.000000=1.300000
,154.500000=0.900000
,155.000000=1.300000
,155.500000=0.900000
,156.000000=1.000000
,168.000000=1.300000
,168.500000=0.900000
,169.000000=1.300000
,169.500000=0.900000
,170.000000=1.300000
,170.500000=0.900000
,171.000000=1.300000
,171.500000=0.900000
,172.000000=1.000000
;
#FAKES:;
#LABELS:0.000000=Song Start
;
#NOTES:
0000
0000
0000
0000
,
0000
0000
0000
0000
,
0000
0000
0000
0000
,
0000
0000
0000
0000
0000
0000
0011
0011
,
1001
0000
0001
0000
0100
0000
0001
0010
0100
0010
0001
1000
0100
0000
1000
0000
,
1100
0000
0001
0000
1000
0100
1000
0001
0100
0010
0100
0010
1000
0001
0010
0000
,
0011
0000
0001
0000
1000
0100
1000
0010
0100
0001
0100
0010
1000
0000
0001
0000
,
0100
0001
0010
0001
1000
0010
1000
0001
0100
0010
1000
0001
0010
0100
0010
0100
,
1000
0000
0000
0000
0001
0000
1000
0000
0001
0000
0000
0100
0000
0000
0001
0000
1000
0000
0000
0010
0000
0000
1000
0000
0001
0000
0000
0000
0100
0000
0000
0000
,
1001
0000
0000
0000
0100
0000
0010
0000
0100
0000
0000
0001
0000
0000
0010
0000
0001
0000
1000
0000
0010
0000
1000
0000
0001
0000
0000
0000
0100
0000
0000
0000
,
1001
0000
0000
0000
0100
0000
0001
0000
0010
0000
0000
0001
0000
0000
1000
0000
0001
0000
1000
0000
0100
0000
0010
0000
0001
0000
0000
0000
1000
0000
0000
0000
,
0001
0100
1000
0000
0100
0010
1000
0100
1000
0001
0010
0001
1000
0000
0001
0000
,
1001
0000
1000
0100
0010
0000
0001
0010
0100
0000
1000
0001
0000
0001
0100
0000
,
0001
0010
1000
0010
0001
1000
0100
1000
0001
0000
0010
0100
0010
0001
1000
0000
,
0100
0000
1000
0001
1000
0010
0100
1000
0100
0000
0010
0100
0000
0100
0001
0000
,
1000
0001
0100
1000
0100
0001
1000
0010
0100
0000
0001
0100
0001
0000
0100
0000
,
1001
0000
1000
0000
0100
0010
0100
1000
0001
0000
0001
0100
0000
0100
0001
1000
,
0100
0010
0001
0100
0010
0001
0010
0100
0001
0000
0100
0001
0100
0000
0001
0000
,
1001
0000
0000
0000
0100
0000
0000
0000
0000
0001
0000
0000
0010
0000
0000
0000
0000
0000
0001
0000
0000
0000
0000
0000
1001
0000
0000
0000
0010
0000
0000
0000
0000
1000
0000
0000
0100
0000
0000
0000
0000
0000
1000
0000
0000
0000
0000
0000
,
0110
0000
0000
0000
0001
0000
0000
0000
0000
1000
0000
0000
0110
0000
0000
0000
0001
0000
0000
0000
0000
1000
0000
0000
0110
0000
0000
0000
0001
0000
0000
0000
0000
1000
0000
0000
0110
0000
0000
0000
0000
0000
0001
0000
0000
0000
0000
0000
,
1100
0001
0010
0000
1100
0001
0010
0000
1100
0001
0010
0000
1100
0001
0010
0000
,
1100
0000
0001
1000
0020
0000
1000
0000
0130
0000
1000
0100
1000
0010
0100
0001
,
0011
0100
1000
0000
0011
0100
1000
0000
0011
0100
1000
0000
0011
0100
1000
0000
,
0011
0000
0001
0100
0002
0000
0100
0000
1003
0000
1000
0100
0001
0100
1000
0010
,
0100
0001
0100
0010
0001
0010
0100
0001
1000
0000
0100
0010
0002
0000
1003
0000
,
0100
1000
0100
0001
1000
0100
0010
0001
0200
0000
0310
1000
0002
0000
0103
0000
,
0101
0010
1000
0000
0101
0010
1000
0000
0101
0010
1000
0000
0101
0010
1000
0000
,
0101
0000
0001
0010
0100
0000
0010
0000
0011
0000
0001
1000
0010
1000
0100
0010
,
0001
0000
0001
1000
0001
0000
0100
0001
0200
0000
0000
0301
0100
0000
0001
0000
,
1000
0000
0100
0010
0001
0000
0100
0010
2000
0000
0000
3001
1000
0000
0010
0000
,
1000
0000
0100
1000
0001
0000
0010
0001
0200
0000
0000
0301
0100
0000
0010
0000
,
1000
0000
0000
0000
0100
0000
0000
0000
0000
1000
0000
0000
0001
0000
0000
0000
0000
0000
0100
0000
0000
0010
0000
0000
0100
0000
0000
0001
0000
0000
0010
0000
0000
0100
0000
0000
1000
0000
0000
0000
0000
0000
1001
0000
0000
0000
0000
0000
,
0100
0000
0100
0000
0100
0000
0001
1000
0010
0000
0010
0000
0010
0000
0100
0001
,
1000
0000
1000
0000
1000
0000
0001
0010
0100
0000
0100
0000
0100
0000
0010
0100
,
1000
0000
1000
0000
1000
0000
0001
0100
0010
0000
0010
0000
0010
0000
0010
0000
,
1001
0000
0010
0000
1001
0000
0010
0000
1001
0000
0100
0001
0100
0000
0002
0003
,
1001
0010
0100
0001
1001
0010
0100
0001
1001
0010
0100
0001
1001
0010
0100
0001
,
1001
0000
0100
1000
0001
0000
1010
0000
1100
0000
0001
0010
0100
1000
0001
0010
,
0011
0100
1000
0001
0011
0100
1000
0001
0011
0100
1000
0001
0011
0100
1000
0001
,
0011
0000
0010
0001
1000
0000
0110
0000
1001
0000
0100
0010
0001
0010
0100
0001
,
1000
0100
0001
0100
0010
0001
0100
1000
0100
0000
0001
0010
0100
0000
1100
0000
,
0001
0010
0001
0010
0100
1000
0010
0100
1000
0000
0100
0010
1000
0000
0001
1000
,
1001
0001
0010
0100
1001
0001
0010
0100
1001
0001
0010
0100
1001
0001
0010
0100
,
1001
0000
0001
0100
0101
0000
0110
0000
1001
0000
1000
0100
1000
0010
0100
0001
,
0010
0000
0000
0000
;

//---------------dance-single - ----------------
#NOTEDATA:;
#CHARTNAME:;
#STEPSTYPE:dance-single;
#DESCRIPTION:;
#CHARTSTYLE:;
#DIFFICULTY:Hard;
#METER:11;
#RADARVALUES:0.625351,0.654699,0.163195,0.163195,0.643179,456.000000,439.000000,17.000000,17.000000,0.000000,0.000000,0.000000,0.000000,0.000000,0.625351,0.654699,0.163195,0.163195,0.643179,456.000000,439.000000,17.000000,17.000000,0.000000,0.000000,0.000000,0.000000,0.000000;
#CREDIT:Musey;
#NOTES:
0000
0000
0000
0000
,
0000
0000
0000
0000
,
0000
0000
0000
0000
,
0000
0000
0000
0000
0000
0000
1000
1000
,
0001
0000
0100
0000
0001
0010
0001
0000
1000
0100
1000
0001
1000
0000
0010
0000
,
0100
0000
0010
0000
1000
0000
0100
0000
1000
0001
0010
0001
1000
0000
0010
0000
,
0100
0000
0010
0000
1000
0100
0010
0100
1000
0000
0001
0100
0001
0000
0010
0000
,
0001
0010
0001
1000
0010
1000
0100
0010
0001
1000
0010
0100
0001
0000
0010
0000
,
0001
0000
0000
0000
0000
0000
1000
0000
0000
0001
0000
0000
0010
0000
0000
0000
0001
0000
0000
0000
0000
1000
0000
0000
0100
0000
0000
0000
1000
0000
0000
0000
0000
0001
0000
0000
0010
0000
0000
0000
0000
0000
0001
0000
0000
0000
0000
0000
,
1000
0000
0000
0000
0000
0000
0100
0000
0000
0010
0000
0000
0100
0000
0000
0000
1000
0000
0000
0000
0000
0001
0000
0000
0100
0000
0000
0001
0000
0000
0010
0000
0000
0100
0000
0000
1000
0000
0000
0000
0000
0000
0001
0000
0000
0000
0000
0000
,
1000
0000
0001
0000
0100
0010
0100
0000
0001
0010
0100
0010
0001
0000
0010
0000
,
0100
1000
0100
0000
0010
0100
0010
0000
0100
1000
0001
1000
0001
0000
0100
0000
,
0002
0000
0000
0000
0203
0000
0000
0000
0310
0000
0100
0001
0000
0001
0100
0000
,
0001
0010
0100
1000
0100
0010
0001
0100
0010
0000
0100
0010
0100
0000
0001
0000
,
2000
0000
0000
0000
3002
0000
0000
0000
1003
0000
0100
1000
0000
1000
0100
0000
,
1000
0100
0010
0001
0100
0010
0100
0001
0010
0000
0001
1000
0100
0000
1000
0000
,
0100
0000
1000
0000
0001
0000
1000
0010
1000
0000
0001
0100
0000
0100
0001
0000
,
0100
0001
0010
0001
0010
0100
0010
0001
1000
0000
0010
1000
0100
0000
1000
0000
,
0010
1000
1100
0000
1100
0001
1010
0000
,
1001
0100
1001
0100
1001
0100
1001
0000
,
1000
0001
0200
0000
0301
1000
0020
0000
1030
0001
0200
0000
0301
1000
0020
0000
,
0130
0000
0001
1000
0001
0000
1000
0000
0100
0000
1000
0100
0010
0001
0100
0000
,
0001
1000
0020
0000
1030
0001
0200
0000
0301
1000
0020
0000
1030
0001
0100
0000
,
0001
0000
1000
0100
0010
0000
0001
0000
0100
0000
0001
1000
0100
1000
0001
0100
,
0010
0100
0010
1000
0001
1000
0100
0010
0001
0000
1000
0010
1000
0000
0100
0000
,
1000
0001
0100
0001
0010
0100
1000
0001
1000
0000
0010
1000
0100
0000
1000
0000
,
0010
0100
2000
0000
3100
0010
0002
0000
0013
0100
2000
0000
3100
0010
0001
0000
,
0010
0000
1000
0000
0001
0000
0010
0000
0100
0000
1000
0100
1000
0001
0100
0001
,
1000
0000
0001
0000
0100
0000
0001
0100
0020
0000
0000
0000
0130
0000
0010
0000
,
1000
0000
0100
0000
0010
0000
0001
0100
0002
0000
0000
0000
0103
0000
0010
0000
,
1000
0000
0100
0000
0010
0000
0100
1000
0002
0000
0000
0000
0103
0000
0000
0000
,
0001
0100
0001
0100
0010
1000
0100
0000
,
1000
0000
0100
0000
1000
0000
0001
1000
0010
0000
0100
0000
0010
0000
0100
0001
,
0010
0000
0100
0000
1000
0000
0001
1000
0010
0000
0100
0000
0001
0000
0010
0100
,
1000
0000
0001
0000
0100
0000
0010
1000
0100
0000
0010
0000
0001
0000
0100
0000
,
1001
0010
1001
0100
1001
0010
1000
0001
,
1000
0100
1000
0100
0010
0001
0010
0001
1000
0100
1000
0100
0010
0001
0010
0001
,
1000
0001
0101
1100
1001
1000
0001
1000
,
0001
0010
0001
0010
0100
1000
0100
1000
0001
0010
0001
0010
0100
1000
0100
1000
,
0001
0000
1000
0000
1100
0000
0011
0000
1001
0000
1000
0100
1000
0100
0010
0001
,
0100
0001
0010
0100
1000
0001
0100
0010
0100
0000
0001
1000
0001
0000
0010
0000
,
0001
0010
0100
1000
0001
0100
0010
1000
0001
0000
0100
0010
1000
0000
0001
0000
,
1000
0010
1000
0010
1000
0010
0001
0010
0001
0010
1000
0010
1000
0010
0001
0010
,
0100
0000
0001
0010
0001
0000
1000
0000
1010
0000
0010
1000
0010
1000
0100
1000
,
0001
0000
0000
0000
;

//---------------dance-single - ----------------
#NOTEDATA:;
#CHARTNAME:;
#STEPSTYPE:dance-single;
#DESCRIPTION:;
#CHARTSTYLE:;
#DIFFICULTY:Medium;
#METER:7;
#RADARVALUES:0.442957,0.464625,0.067198,0.163195,0.201594,323.000000,316.000000,7.000000,17.000000,0.000000,0.000000,0.000000,0.000000,0.000000,0.442957,0.464625,0.067198,0.163195,0.201594,323.000000,316.000000,7.000000,17.000000,0.000000,0.000000,0.000000,0.000000,0.000000;
#CREDIT:Musey;
#NOTES:
0000
0000
0000
0000
,
0000
0000
0000
0000
,
0000
0000
0000
0000
,
0000
0000
0000
0000
0000
0000
1000
1000
,
0001
0000
0100
0000
0010
0000
0100
0001
0100
0000
0010
0000
1000
0000
0000
0000
,
0100
0000
1000
0000
0001
0000
0100
0001
0010
0000
0001
0000
1000
0000
0000
0000
,
0010
0000
1000
0000
0100
0000
1000
0001
1000
0000
0001
0000
0100
0000
0000
0000
,
0010
0100
0001
0000
0010
0100
1000
0000
0001
0000
0001
0000
0100
0000
0000
0000
,
0001
0000
1000
0000
0010
0000
1000
0000
0100
0010
0001
0000
1000
0000
1000
0000
,
0001
0000
0000
0000
0100
0000
0001
0000
0100
0001
0100
0000
0001
0000
1000
0000
,
1000
0000
0010
1000
0100
0010
0001
0001
,
0100
0001
0100
0000
0001
1000
0001
0000
1000
0000
0010
0000
1000
0000
0100
0000
,
0020
0130
0200
0310
,
0001
1000
0001
1000
0001
0000
0100
0000
0010
0000
0100
0000
0100
0000
0000
0000
,
0001
1000
0100
0000
1000
0100
1000
0000
,
0001
1000
0001
1000
0001
0000
0100
0000
0020
0000
1000
0000
1030
0000
0000
0000
,
1000
0100
0010
0001
0010
0100
1000
0001
,
0100
0001
0100
0001
1000
0100
1000
0100
,
1001
0001
0100
0000
1001
0001
0100
0000
,
1001
1100
1001
1001
,
0001
0200
0000
0000
0301
0020
0000
0000
0031
0200
0000
0000
0301
0020
0000
0000
,
0031
1000
0100
0100
1000
0001
0100
0010
,
1000
0200
0000
0000
0310
0200
0000
0000
1300
0200
0000
0000
0310
0200
0000
0000
,
1300
0001
0100
0001
0010
0100
1000
0001
,
1000
0100
1000
0000
0001
0100
0001
0000
1000
0000
0100
0000
0010
0000
0000
0000
,
0001
0100
0010
0000
0100
0001
0100
0000
0001
0000
1000
0000
1000
0000
0001
0000
,
0100
0020
0000
0000
0130
0002
0000
0000
0103
0020
0000
0000
0130
0002
0000
0000
,
0103
0001
1000
0100
1000
0001
0100
0001
,
0010
0000
0100
0000
0010
0100
0010
0000
,
0001
0000
1000
0000
0100
1000
0001
0000
,
1000
0000
0010
0000
0100
0001
0100
0000
,
0001
0010
0100
1000
0100
1000
0001
0000
,
0100
0001
0100
0001
1000
1000
0001
0000
,
0100
0001
0010
0100
1000
1000
0010
0000
,
0100
0010
0100
0010
0100
0100
0001
0000
,
0001
1000
0100
0010
0001
1000
0010
0000
,
1000
0100
0010
0000
0001
0100
0010
0000
1000
0100
0010
0000
0001
0100
0010
0000
,
1000
0001
0100
0100
0001
0010
0100
1000
,
0001
0100
0010
0000
1000
0100
0010
0000
0001
1000
0010
0000
1000
0100
0010
0000
,
0001
0100
0010
0010
1000
0100
0010
0001
,
0100
0001
0100
0000
0010
0000
1000
0000
0001
0000
0100
0000
0020
0000
0000
0000
,
1030
0000
0100
0000
0010
0000
0001
0000
1000
0000
0100
0000
2000
0000
0000
3000
,
0001
1000
0100
0000
1000
0001
0100
0000
0001
1000
0100
0000
1000
0001
0100
0000
,
0001
1000
0010
0010
1000
0001
0100
0001
,
1001
0000
0000
0000
;

//---------------dance-single - ----------------
#NOTEDATA:;
#CHARTNAME:;
#STEPSTYPE:dance-single;
#DESCRIPTION:;
#CHARTSTYLE:;
#DIFFICULTY:Easy;
#METER:4;
#RADARVALUES:0.268791,0.316790,0.239992,0.105597,0.000000,196.000000,171.000000,25.000000,11.000000,0.000000,0.000000,0.000000,0.000000,0.000000,0.268791,0.316790,0.239992,0.105597,0.000000,196.000000,171.000000,25.000000,11.000000,0.000000,0.000000,0.000000,0.000000,0.000000;
#CREDIT:Musey;
#NOTES:
0000
0000
0000
0000
,
0000
0000
0000
0000
,
0000
0000
0000
0000
,
0000
0000
0000
0000
,
1000
0001
0001
1000
,
1000
0100
1000
1000
,
0001
0100
0001
0001
,
0010
0100
1000
1000
,
0001
0000
0100
0000
0001
0100
0001
0000
,
1000
0000
0100
0000
1000
0100
1000
0000
,
0010
0000
0100
0000
0001
1000
0010
0000
,
1000
0000
0001
0000
0100
0001
0100
0000
,
0001
0001
1000
1000
,
0100
0010
0001
0000
1000
0001
0100
0000
,
0010
0010
0100
0100
,
0002
0000
1000
1003
,
0100
1000
0100
0000
1000
0001
0100
0000
,
0001
1000
0010
0000
1000
0001
0100
0000
,
0001
0001
1000
1000
,
0001
0001
0001
0001
,
0101
0101
0101
0101
,
1000
0100
0010
0100
,
1100
1100
1100
1100
,
0001
0100
0001
1000
,
0010
1000
0100
0000
2000
0000
3001
0000
,
0100
0001
0010
0000
0002
0000
1003
0000
,
1100
1100
1100
1100
,
0001
0000
0100
0000
0010
0100
0001
0000
,
1000
1000
0002
0000
,
0103
0100
0020
0000
,
1030
1000
0200
0000
,
1300
1000
0001
0001
,
1000
1000
2000
0000
,
3001
0001
0002
0000
,
0103
0100
0200
0000
,
0310
0010
0010
0000
,
1001
1001
1001
1001
,
0001
0000
0100
0000
0001
1000
0100
0000
,
1100
0011
1100
0011
,
1000
0000
0001
0000
1000
0010
0100
0000
,
0001
0010
0100
0000
2000
0000
3001
0000
,
0100
0001
1000
0000
0020
0000
0130
0000
,
0110
1001
0110
1001
,
1000
0000
0100
0000
1000
0001
0100
0000
,
0101
0000
0000
0000
;

//---------------dance-single - ----------------
#NOTEDATA:;
#CHARTNAME:;
#STEPSTYPE:dance-single;
#DESCRIPTION:;
#CHARTSTYLE:;
#DIFFICULTY:Beginner;
#METER:2;
#RADARVALUES:0.152224,0.211193,0.009600,0.009600,0.000000,111.000000,110.000000,1.000000,1.000000,0.000000,0.000000,0.000000,0.000000,0.000000,0.152224,0.211193,0.009600,0.009600,0.000000,111.000000,110.000000,1.000000,1.000000,0.000000,0.000000,0.000000,0.000000,0.000000;
#CREDIT:Musey;
#NOTES:
// measure 0
0000
0000
0000
0000
,  // measure 1
0000
0000
0000
0000
,  // measure 2
0000
0000
0000
0000
,  // measure 3
0000
0000
0000
0000
,  // measure 4
1000
0000
0000
0000
,  // measure 5
0001
0000
0000
0000
,  // measure 6
1000
0000
0000
0000
,  // measure 7
0010
0000
0000
0000
,  // measure 8
1000
0000
0000
0000
,  // measure 9
0001
0000
0000
0000
,  // measure 10
1000
0000
0000
0000
,  // measure 11
0010
0000
0000
0000
,  // measure 12
1000
0000
1000
0000
,  // measure 13
0001
0000
0001
0000
,  // measure 14
1000
0000
1000
0000
,  // measure 15
0002
0000
0003
0000
,  // measure 16
0010
0000
0010
0000
,  // measure 17
0100
0000
0100
0000
,  // measure 18
0001
0001
1000
1000
,  // measure 19
0100
0100
1000
0000
,  // measure 20
0001
0001
0001
0001
,  // measure 21
0100
0100
0010
0000
,  // measure 22
1000
1000
1000
1000
,  // measure 23
0100
0100
1000
0000
,  // measure 24
0001
0100
0001
0000
,  // measure 25
1000
0100
1000
0000
,  // measure 26
0001
0001
0001
0001
,  // measure 27
0100
0000
0001
0000
,  // measure 28
1000
0010
1000
0000
,  // measure 29
0100
1000
0001
0000
,  // measure 30
0100
0001
0010
0000
,  // measure 31
0001
0001
0001
0000
,  // measure 32
1000
0100
1000
0000
,  // measure 33
0001
0100
0010
0000
,  // measure 34
0100
0010
1000
0000
,  // measure 35
0001
0001
0001
0001
,  // measure 36
0100
0100
0100
0100
,  // measure 37
0010
0100
0010
1000
,  // measure 38
0100
0100
0100
0100
,  // measure 39
1000
0001
1000
0001
,  // measure 40
0100
0010
0100
0100
,  // measure 41
0001
1000
0100
0100
,  // measure 42
1000
1000
1000
1000
,  // measure 43
0001
0100
0001
0100
,  // measure 44
1001
0000
0000
0000
;
