#VERSION:0.83;
#TITLE:Diamond;
#SUBTITLE:;
#ARTIST:TRI.BE;
#TITLETRANSLIT:;
#SUBTITLETRANSLIT:;
#ARTISTTRANSLIT:;
#GENRE:;
#ORIGIN:;
#CREDIT:;
#BANNER:AV.avi;
#BACKGROUND:bg.png;
#PREVIEWVID:;
#JACKET:jacket.png;
#CDIMAGE:;
#DISCIMAGE:;
#LYRICSPATH:;
#CDTITLE:;
#MUSIC:Diamond.ogg;
#OFFSET:-0.468000;
#SAMPLESTART:72.571709;
#SAMPLELENGTH:15.000004;
#SELECTABLE:YES;
#BPMS:0.000=106.000;
#STOPS:;
#DELAYS:;
#WARPS:;
#TIMESIGNATURES:0.000=4=4;
#TICKCOUNTS:0.000=4;
#COMBOS:0.000=1;
#SPEEDS:0.000=1.000=0.000=0;
#SCROLLS:0.000=1.000,
172.500=0.800,
173.000=0.700,
173.500=0.600,
175.000=0.700,
175.500=0.800,
176.000=1.000;
#FAKES:;
#LABELS:0.000=Song Start;
#BGCHANGES:0.000=MV.avi=1.200=1=0=1===CrossFade==,
3.000=MV.avi=1.000=0=0=1=====,
99999=-nosongbg-=1.000=0=0=0 // don't automatically add -songbackground-
;
#KEYSOUNDS:;
#ATTACKS:
;

//---------------dance-single - ----------------
#NOTEDATA:;
#CHARTNAME:;
#STEPSTYPE:dance-single;
#DESCRIPTION:;
#CHARTSTYLE:;
#DIFFICULTY:Beginner;
#METER:2;
#RADARVALUES:0.173517,0.215932,0.053983,0.233927,0.000000,135.000000,129.000000,6.000000,26.000000,0.000000,0.000000,0.000000,0.000000,0.000000,0.173517,0.215932,0.053983,0.233927,0.000000,135.000000,129.000000,6.000000,26.000000,0.000000,0.000000,0.000000,0.000000,0.000000;
#CREDIT:;
#NOTES:
0000
0000
0000
0000
,
0000
0000
0000
0000
,
0000
0000
0000
0000
,
0000
0000
0000
0000
,
2000
0000
3001
0000
,
0200
0000
0310
0000
,
2000
0000
3001
0000
,
0002
0000
0103
0000
,
0100
0100
0010
0000
,
1000
0001
1000
0000
,
0200
0000
0310
0000
,
0002
0000
1003
0000
,
1000
1000
0010
0000
,
0100
0001
0100
0000
,
0020
0000
1030
0000
,
2000
0000
3001
0000
,
0100
0001
0100
0100
,
0010
0100
0010
0010
,
2000
0000
3001
0000
,
0002
0000
0103
0000
,
0100
0010
1000
0000
,
1000
0001
0100
0100
,
0001
0001
1000
0000
,
0010
1000
0002
0000
,
2003
0000
3010
0010
,
0020
0000
0130
0100
,
0200
0000
0310
0010
,
1000
0001
1000
1000
,
0002
0000
0103
0100
,
0200
0000
0310
0010
,
0020
0000
1030
1000
,
0001
1000
0002
0000
,
0103
0100
0100
0100
,
0120
0000
0130
0000
,
0010
0010
0010
0010
,
0120
0000
0130
0000
,
1000
1000
1000
1000
,
1002
0000
0103
0001
,
0200
0000
0310
0100
,
0001
1000
0001
1001
,
0100
0100
0100
0100
,
0020
0000
0130
0100
,
0001
0001
0001
0001
,
2000
0000
3001
0000
,
0100
0100
0100
0100
,
0020
0000
0130
0000
,
0110
0000
1001
0000
,
1000
0010
1000
2000
,
3000
0000
0000
0000
;

//---------------dance-single - ----------------
#NOTEDATA:;
#CHARTNAME:;
#STEPSTYPE:dance-single;
#DESCRIPTION:;
#CHARTSTYLE:;
#DIFFICULTY:Easy;
#METER:5;
#RADARVALUES:0.273771,0.302305,0.071977,0.206935,0.000000,213.000000,205.000000,8.000000,23.000000,0.000000,0.000000,0.000000,0.000000,0.000000,0.273771,0.302305,0.071977,0.206935,0.000000,213.000000,205.000000,8.000000,23.000000,0.000000,0.000000,0.000000,0.000000,0.000000;
#CREDIT:;
#NOTES:
0000
0000
0000
0000
,
0000
0000
0000
0000
,
0000
0000
0000
0000
,
0000
0000
0000
0000
,
2000
0000
3001
0100
,
0020
0000
0130
0001
,
2000
0000
3100
0010
,
0001
0001
0100
0100
,
0010
1000
0001
1000
,
0010
0000
1000
0000
0001
1000
0010
1000
,
0001
0000
0001
0000
0100
0000
0100
0001
,
0100
0000
0100
0000
0010
0000
0010
1000
,
0001
0000
0001
1000
0100
0000
0100
1000
,
0010
0000
0010
1000
0001
0000
0100
0000
,
0001
0001
1000
1000
,
0010
0000
1000
0000
0001
0100
0001
0000
,
0100
0000
0001
0000
0010
0100
0010
0000
,
0001
0000
1000
0000
0010
1000
0010
0000
,
2000
3001
1001
1000
,
0002
0103
0101
0100
,
0010
1000
0010
0000
1000
0000
1000
0000
,
0001
0100
0010
0000
0100
0000
0100
0000
,
0001
0001
1000
1000
,
0100
1000
0100
0000
1000
0100
1000
0000
,
0020
0000
1030
0000
0001
0000
0100
0001
,
0200
0310
1000
1000
,
0002
0103
0001
1000
,
0010
1000
0100
0000
2000
0000
3001
0000
,
0200
0000
0301
0100
0001
0000
0010
0000
,
0002
0000
0013
0001
0100
0000
0100
0000
,
0020
0000
1030
0001
1000
0000
1000
0000
,
0001
0001
0100
0100
,
0001
0000
0001
0000
0100
0001
0100
0001
,
0200
0301
0002
1003
,
0010
0000
0010
0000
0010
1000
0010
1000
,
0020
1030
0200
0301
,
1000
0000
1000
0000
0001
1000
0001
1000
,
0000
0002
0103
0010
,
0110
1000
1001
1000
,
0010
0100
0001
0000
0200
0000
0310
0000
,
1000
0000
1000
0000
0001
1000
0001
1000
,
0002
1003
2000
3001
,
0100
0000
0100
0000
0010
0100
0010
0100
,
0020
0000
1000
1030
,
1000
0000
1000
0000
0001
1000
0001
1000
,
0002
0103
0010
0100
,
0110
0110
1001
1001
,
0001
1000
0001
0000
0200
0000
0310
0000
,
0010
0000
0000
0000
;

//---------------dance-single - ----------------
#NOTEDATA:;
#CHARTNAME:;
#STEPSTYPE:dance-single;
#DESCRIPTION:;
#CHARTSTYLE:;
#DIFFICULTY:Medium;
#METER:9;
#RADARVALUES:0.393305,0.410271,0.026992,0.404873,0.098969,306.000000,303.000000,3.000000,45.000000,0.000000,0.000000,0.000000,0.000000,0.000000,0.393305,0.410271,0.026992,0.404873,0.098969,306.000000,303.000000,3.000000,45.000000,0.000000,0.000000,0.000000,0.000000,0.000000;
#CREDIT:;
#NOTES:
0000
0000
0000
0000
,
0000
0000
0000
0000
,
0000
0000
0000
0000
,
0000
0000
0000
0000
0000
0000
0000
1000
,
0020
0000
0130
0001
0200
0000
0301
0100
,
0002
0000
1003
0010
2000
0000
3020
0000
,
0230
0000
0301
0100
0002
0000
0023
0000
,
0031
0100
0001
0100
0010
0010
1000
0100
,
1000
1000
0001
0100
0001
0001
0010
0100
,
0010
0010
0001
0010
0001
1000
0010
0100
,
0020
0000
1030
0001
0200
0000
0301
0100
,
0020
0000
1030
0001
0200
0000
0301
1000
,
0100
0100
1000
0010
1000
1000
0001
0100
,
0001
0001
0010
0100
0010
0010
0001
1000
,
0020
0000
0130
0000
0001
0000
0100
0010
,
2000
0000
3002
0000
0103
0001
0100
0001
,
1000
0010
1000
0100
0010
0010
0001
0001
,
0100
0010
0100
0001
1000
1000
0001
0001
,
2000
0000
3001
1000
0001
0000
0101
0000
,
0020
0000
0130
0010
0100
0000
0110
0000
,
1000
0100
1000
0100
0010
0010
0100
0100
,
1000
0001
1000
0010
0100
0000
0100
0001
,
0200
0320
1030
1000
,
0001
1000
0010
1000
0001
0001
0100
0001
,
0200
0000
0310
0100
0020
0000
1030
0001
,
2000
0000
3100
1000
0002
0000
0203
0000
,
0320
0000
1030
0001
2000
0000
3002
0000
,
0103
0001
0100
0010
0100
0100
0010
0010
,
2000
0000
3001
0100
0002
0000
0013
0000
,
0002
0000
0103
0010
2000
0000
3010
0000
,
0000
0200
0000
0000
0000
0000
0301
0000
0200
0000
0000
0000
0310
0000
0000
0000
,
1000
0001
1000
1000
0010
0000
0100
0001
,
0100
0000
0100
0001
0010
0000
0010
0001
0100
0000
0100
0001
0010
0000
0001
0000
,
0200
0000
0000
0000
0310
0000
0000
0000
1000
0000
0000
0000
0001
0000
1000
0001
,
1000
0000
0001
1000
0001
0000
1000
0001
1000
0000
0001
1000
0001
0000
0100
0000
,
0020
0000
0000
0000
0130
0000
0000
0000
0002
0000
0000
0000
1003
0000
0001
0010
,
0100
0000
0100
0010
0001
0000
0001
0010
0100
0000
0100
0010
0001
0000
0010
0000
,
0002
0000
1003
0000
0010
1000
0010
0010
,
0100
0000
0001
0100
0001
0000
1000
0010
,
0100
0010
1000
0001
0020
0000
0031
0000
,
0100
0000
0010
0100
0010
0000
0100
0010
0100
0000
0010
0100
0010
0000
0100
0000
,
0002
0000
0000
0000
1003
0000
0000
0000
0020
0000
0000
0000
1030
0000
0010
1000
,
0010
0000
1000
0010
1000
0000
0010
1000
0010
0000
1000
0010
1000
0000
0010
0000
,
0200
0301
0000
0101
,
0001
0000
1000
0001
1000
0000
0001
1000
0001
0000
1000
0001
1000
0000
0001
0000
,
2000
0000
3010
0100
0010
0010
0100
0001
,
0200
0000
0301
1000
0020
0000
1030
0010
,
1000
1000
0001
0100
0001
0010
0002
0000
,
0003
0000
0000
0000
;

//---------------dance-single - ----------------
#NOTEDATA:;
#CHARTNAME:;
#STEPSTYPE:dance-single;
#DESCRIPTION:;
#CHARTSTYLE:Rajeious's Chart;
#DIFFICULTY:Hard;
#METER:12;
#RADARVALUES:0.537260,0.496644,0.008997,0.287910,0.418369,418.000000,417.000000,1.000000,32.000000,0.000000,0.000000,0.000000,0.000000,0.000000,0.537260,0.496644,0.008997,0.287910,0.418369,418.000000,417.000000,1.000000,32.000000,0.000000,0.000000,0.000000,0.000000,0.000000;
#CREDIT:Rajeious's Chart;
#NOTES:
0000
0000
0000
0000
,
0000
0000
0000
0000
,
0000
0000
0000
0000
,
0000
0000
0000
0000
0000
0000
0000
1000
,
0002
0000
0000
0000
1003
0000
0100
0000
0010
0000
1000
0010
0001
0000
0001
0000
,
2000
0000
0000
0000
3010
0000
0100
0000
0001
0000
0010
0100
1000
0000
0010
0000
,
0200
0000
0000
0000
0301
0000
1000
0000
0100
0000
0010
0001
1000
0000
0010
0000
,
0100
0010
0100
0000
0001
1000
0001
0000
0100
0000
0100
0000
0001
0010
0001
0000
,
0001
0000
1000
0000
0100
0010
0100
0000
0100
0000
1000
0000
0001
1000
0001
0000
,
0001
0000
0100
0001
1000
0000
0100
0000
0010
0000
0001
0000
0100
0000
0100
0000
,
0002
0000
1003
0100
1000
0000
0001
0000
0020
0000
0031
0010
0001
0000
0100
0000
,
0020
0000
1030
0100
1000
0000
0001
0000
0010
0000
0100
0000
0010
0001
1000
0000
,
0100
0000
0010
0000
0100
1000
0001
0000
0010
0000
0100
0000
1000
0001
0100
0000
,
0001
0000
1000
0100
1000
0000
0001
0010
0001
0000
0100
0000
0010
0000
1000
0000
,
2000
0000
3001
0010
0001
0000
0100
0000
0200
0000
0310
1000
0010
0000
0100
0000
,
0002
0000
0000
0103
0002
0000
0103
0000
0010
0000
1000
0000
0100
0000
0010
0000
,
0001
0100
0000
0100
0001
0000
1000
0000
0100
0010
0000
0001
0100
0000
0010
0000
,
1000
0100
0000
0100
1000
0000
0001
1000
0010
0000
1000
0100
0010
0000
0001
0000
,
2000
0000
0000
0000
3001
0000
0100
0000
0010
0000
1000
0100
0010
0000
0001
0000
,
0200
0000
0000
0000
0310
0000
0010
0000
1000
0000
0001
0010
0001
0000
0100
0000
,
0010
1000
0000
0100
1000
0000
0010
0000
0100
0001
0000
0001
0100
0000
0010
0000
,
1000
0100
0000
0100
0010
0000
0001
0000
0100
0000
0000
0010
1000
0000
0001
0000
,
0200
0000
0000
0301
0200
0000
0310
0000
1000
0000
0000
1000
0001
0000
0010
0000
,
0001
0100
0010
0000
1000
0100
0010
0000
0001
0000
0001
0000
0100
0000
0010
0000
,
2000
0000
0000
3001
0100
0000
0010
0000
0200
0000
0000
0310
1000
0000
1000
0000
,
0002
0000
0000
0103
0010
0000
1000
0000
0200
0000
0000
0310
0001
0000
0100
0000
,
0020
0000
0000
1030
0100
0000
0010
0000
0002
0000
0000
1003
0001
0000
0100
0000
,
0010
0000
1000
0100
1000
0000
0001
0000
0001
0000
0100
0010
0100
0000
0001
0000
,
2000
0000
0000
3001
0010
0000
0001
0000
0200
0000
0000
0310
1000
0000
0100
0000
,
2000
0000
0000
3001
0100
0000
0010
0000
2000
0000
0000
3100
0010
0000
0001
0000
,
0200
0000
0000
0310
1000
0000
0001
0000
0020
0000
0000
0031
1000
0000
0001
0000
,
0100
0010
1000
0100
0010
0001
0001
0100
,
0020
0000
1030
0001
0100
0000
0010
0000
2000
0000
3001
0010
0100
0000
1000
0000
,
0001
0000
0100
0010
0100
0000
0010
0000
1000
0000
0100
1000
0001
0000
0001
0000
,
0200
0000
0310
0100
0001
0000
1000
0000
0200
0000
0310
0001
0010
0000
0100
0000
,
1000
0000
0001
1000
0100
0000
0010
0000
0001
0000
1000
0100
1000
0000
0010
0000
,
0200
0000
0301
1000
0100
0000
1000
0000
0020
0000
0130
0001
1000
0000
0010
0000
,
1000
0000
0001
0000
0010
0000
0100
0000
1000
0000
0010
0000
0100
0000
0001
1000
,
0001
0000
0100
0000
0010
1000
0010
1000
0100
0000
1000
0000
0001
0010
0000
0010
,
0001
1000
0100
0000
1000
0000
1000
0000
0100
0000
0010
0001
0010
0000
0001
0000
,
0010
0000
0100
0010
0100
0000
0100
1000
0100
0000
0100
0010
0100
0000
1000
0000
,
0010
0000
0100
0000
1000
0000
0100
0000
0010
0000
0010
0100
0001
0000
0001
0000
,
0010
0000
0010
0100
0010
0000
0010
0001
0010
0000
0010
0100
0010
0000
0001
0000
,
1000
0000
0100
0000
1000
0000
1000
0001
0000
0001
0100
0010
1000
0000
0001
0000
,
0100
0000
0100
0001
0100
0000
0100
1000
0100
0000
0100
0001
0100
0000
0010
0000
,
1000
0000
0001
0010
1000
0000
0010
0000
0001
0000
1000
0000
0100
0000
0100
0010
,
0001
0000
0010
0000
0001
0100
0001
0100
0010
0000
1000
0000
0100
0010
0000
0010
,
0001
1000
0100
0000
1000
0000
1000
0000
0100
0000
0010
0100
1000
0000
1000
0000
,
0011
0000
0000
0000
;

//---------------dance-single - ----------------
#NOTEDATA:;
#CHARTNAME:;
#STEPSTYPE:dance-single;
#DESCRIPTION:;
#CHARTSTYLE:Rajeious's Chart;
#DIFFICULTY:Challenge;
#METER:14;
#RADARVALUES:0.623376,0.583017,0.125960,0.341893,0.629802,485.000000,471.000000,14.000000,38.000000,0.000000,0.000000,0.000000,0.000000,0.000000,0.623376,0.583017,0.125960,0.341893,0.629802,485.000000,471.000000,14.000000,38.000000,0.000000,0.000000,0.000000,0.000000,0.000000;
#CREDIT:Rajeious's Chart;
#NOTES:
// measure 0
0000
0000
0000
0000
,  // measure 1
0000
0000
0000
0000
,  // measure 2
0000
0000
0000
0000
,  // measure 3
0000
0000
0000
0000
0000
0000
0000
1000
,  // measure 4
0200
0000
0000
0310
0001
0000
1000
0000
0020
0000
0130
0010
1000
0000
0100
0000
,  // measure 5
0020
0000
0000
0031
1000
0000
0010
0000
0200
0000
0310
1000
0001
0000
0010
0000
,  // measure 6
0002
0000
0000
1003
0010
0000
0100
0000
0002
0000
0013
0001
1000
0000
0010
0000
,  // measure 7
1000
0001
1000
0000
0100
0010
0100
0000
1001
0000
1001
0000
0010
0100
0010
0100
,  // measure 8
0001
0000
0010
0000
0100
1000
0010
1000
0010
0000
0100
0000
0001
0010
0001
0010
,  // measure 9
0100
0000
1000
0010
1000
0000
0010
0100
0001
0000
0010
0000
0100
0000
0100
0000
,  // measure 10
2000
0000
3010
0100
0001
0000
0010
0000
0200
0000
1300
0100
0010
0000
0010
0000
,  // measure 11
0002
0000
1003
0010
0100
0000
0001
0000
0002
0000
0013
0000
0001
0100
1000
0100
,  // measure 12
0010
0000
0000
0000
0000
0000
0100
0000
0000
0000
0000
0000
0001
0000
0000
0010
0000
0000
0100
0000
0000
0010
0000
0000
0100
0000
0000
0000
0000
0000
1000
0000
0000
0000
0000
0000
0010
0000
0000
0000
1000
0000
0000
0000
0100
0000
0000
0000
,  // measure 13
0010
0000
0000
0000
0100
0000
0000
0000
1000
0000
0000
0000
0001
0000
0000
0000
0000
0000
0100
0000
0000
0010
0000
0000
0100
0000
0000
0000
0000
0000
0001
0000
0000
0000
0000
0000
1000
0000
0000
0000
0000
0000
0001
0000
0000
0000
0000
0000
,  // measure 14
2000
0000
3010
0100
0010
0000
1000
0000
2000
0000
3001
0010
0100
0000
1000
0000
,  // measure 15
0020
0000
0000
1030
0020
0000
1030
0000
0001
0010
1000
0010
0001
0000
0100
0000
,  // measure 16
0001
0010
0000
0010
0100
0000
1000
0000
0010
0100
1000
0100
0010
0000
1000
0000
,  // measure 17
0001
0100
1000
0100
0001
0000
0100
0001
0010
0000
0100
1000
0010
0000
0100
0000
,  // measure 18
0002
0000
1003
0010
0100
0000
0101
0000
1100
0000
0001
1000
0001
0010
0100
0000
,  // measure 19
2000
0000
3100
0010
0001
0000
1001
0000
0110
0000
1000
0010
0001
0000
1000
0000
,  // measure 20
0010
1000
0000
0100
0010
0000
0001
0000
1000
0100
0001
0100
0010
0000
0001
0000
,  // measure 21
0100
0010
0000
0010
1000
0100
0010
0000
0101
0000
0000
1000
0100
0000
0100
0000
,  // measure 22
0020
0000
0000
0031
0020
0000
0031
0000
0001
0000
0000
1000
0100
0000
1000
0000
,  // measure 23
0010
0100
0001
0000
0100
0010
0100
0000
1010
0000
1010
0000
0001
0000
0010
0000
,  // measure 24
0002
0000
0000
0103
0002
0000
0103
0000
1000
0100
0010
0001
0100
0000
0010
0000
,  // measure 25
2000
0000
0000
3010
2000
0000
3001
0000
0010
0100
1000
0001
0100
0000
0010
0000
,  // measure 26
2000
0000
0000
3010
2000
0000
3001
0000
0100
0010
0001
0010
0100
0000
0100
0000
,  // measure 27
0001
1000
0000
1000
0010
0000
0100
0000
0001
0010
0001
0010
0100
0000
1000
0000
,  // measure 28
0002
0000
0000
1003
0002
0000
1003
0000
0100
1000
0010
0100
0001
0000
0010
0000
,  // measure 29
0020
0000
0000
0031
0020
0000
0130
0000
1000
0010
0100
1000
0100
0000
0001
0000
,  // measure 30
0020
0000
0000
0031
0020
0000
0031
0000
1000
0100
0001
0100
1000
0000
0001
0000
,  // measure 31
0010
0100
0000
1000
0010
0000
0100
0000
0001
0010
0001
0010
0100
0000
1000
0000
,  // measure 32
1100
0000
0001
0010
0100
0000
0001
0010
0100
0000
0001
0010
0100
0000
0001
0000
,  // measure 33
1000
0000
0010
0100
2000
0000
3100
0000
0010
0100
0010
0100
0002
0000
0010
0000
,  // measure 34
0013
0000
1000
0100
0010
0000
1000
0100
0010
0000
1000
0100
0010
0000
0001
0000
,  // measure 35
0010
0000
0100
1000
0020
0000
0130
0000
0001
0010
0001
0010
0200
0000
1000
0000
,  // measure 36
0310
0000
1000
0100
0010
0000
1000
0100
0010
0000
1000
0100
0010
0000
1000
0000
,  // measure 37
0001
0000
0010
0000
0100
0000
1000
0000
0100
0000
1000
0010
0100
0000
0001
0000
,  // measure 38
0011
0000
0001
0000
1000
0010
0001
1000
0200
0000
0301
0000
1000
0100
0000
0100
,  // measure 39
1000
0010
0100
0010
0001
0000
0010
0000
0100
0000
0010
0100
0001
0000
0100
0000
,  // measure 40
0001
0010
1000
0010
0001
0010
1000
0010
0001
0010
1000
0010
0001
0000
1000
0000
,  // measure 41
0001
0000
0001
0010
0200
0000
0310
0000
0001
0100
1000
0100
0020
0000
1030
0000
,  // measure 42
1000
0100
0001
0100
1000
0100
0001
0100
1000
0100
0001
0100
1000
0000
0001
0000
,  // measure 43
1000
0000
0010
0000
0100
0000
0001
0010
0000
0010
0001
0100
0010
0000
1000
0000
,  // measure 44
0010
1000
0100
1000
0010
1000
0100
1000
0010
1000
0100
1000
0010
0000
1000
0000
,  // measure 45
0001
0000
0010
0100
1000
0000
0010
0000
0100
0000
0001
0010
0001
0000
1000
0000
,  // measure 46
1100
0000
0010
0000
1000
0100
1000
0100
0020
0000
0031
0000
0100
0010
0000
0010
,  // measure 47
1000
0100
0010
0001
0100
0000
0010
0000
1000
0000
0001
0010
0100
0000
1001
0000
,  // measure 48
0110
0000
0000
0000
;
