#TITLE:Delulu;
#SUBTITLE:;
#ARTIST:Lexie Liu;
#TITLETRANSLIT:;
#SUBTITLETRANSLIT:;
#ARTISTTRANSLIT:;
#GENRE:;
#CREDIT:;
#BANNER:AV.avi;
#BACKGROUND:bg.png;
#LYRICSPATH:;
#CDTITLE:;
#MUSIC:audio.ogg;
#OFFSET:0.000000;
#SAMPLESTART:44.520374;
#SAMPLELENGTH:14.999997;
#SELECTABLE:YES;
#BPMS:0.000000=172.000000
;
#STOPS:
;
#BGCHANGES:0.000=MV.avi=1.000=1=0=1===CrossFade==,
99999=-nosongbg-=1.000=0=0=0 // don't automatically add -songbackground-
;
#KEYSOUNDS:;
#ATTACKS:;

//---------------dance-single - ----------------
#NOTES:
     dance-single:
     :
     Challenge:
     16:
     0.692100,0.987035,0.043000,0.229335,0.290252,676.000000,670.000000,6.000000,32.000000,88.000000,0.000000,0.692100,0.987035,0.043000,0.229335,0.290252,676.000000,670.000000,6.000000,32.000000,88.000000,0.000000:
M000
0000
0000
M000
0000
0000
00M0
0000
,
000M
0000
0000
0000
,
M000
0000
0000
M000
0000
0000
00M0
0000
,
000M
0000
0000
00M0
0000
0000
0M00
0000
,
M000
0000
0000
M000
0000
0000
00M0
0000
,
000M
0000
0000
0000
,
0M00
0000
0000
0M00
0000
0000
00M0
0000
,
M000
0000
0000
M000
0000
M000
0M00
0000
,
1000
0000
0001
0010
0100
1000
0010
0100
,
0001
0100
0010
1000
0001
0000
1000
0000
,
0010
0000
1000
0100
1000
0010
0100
0001
,
0100
0010
1000
0001
0010
0000
0100
0000
,
0101
0000
1000
0100
0010
0001
0010
1000
,
0010
0001
0010
0100
1000
0000
0010
0000
,
1100
0000
0100
1000
0010
0100
0001
0100
,
1000
0100
0001
1000
0010
0000
0100
0000
,
1001
0000
1000
0001
0100
0010
2000
0000
,
3010
0000
000M
0M00
00M0
0001
0010
0100
,
1000
0001
0100
0010
0M00
0001
0010
0100
,
00M0
0M01
1000
0010
2000
0000
3001
0000
,
10M0
0000
M001
010M
0010
100M
0001
0000
,
100M
0001
0100
001M
M010
0000
10M0
0000
,
M001
010M
M010
0000
10M0
M001
010M
0010
,
0010
1000
1000
0001
0001
0100
0200
0000
,
0320
0000
0130
1000
0100
0001
0010
0001
,
2000
0000
3001
0100
M000
0M00
000M
M000
,
00M0
00M0
01M0
0001
0010
1000
0010
0001
,
0200
0000
0310
1000
0001
00M0
M000
00M0
,
000M
000M
100M
0010
1000
0001
0100
0010
,
0200
0000
0301
1000
0010
0001
0010
1000
,
00M2
00M0
10M3
0001
0010
0001
1000
0010
,
0200
0000
0310
0100
0001
1000
0100
0000
,
2100
0000
3001
0100
0010
0000
0120
0000
,
1030
0100
0010
0001
1000
0000
1020
0000
,
0130
0010
1000
0010
0002
0000
0013
1000
,
1000
0001
0001
0010
0010
0100
0200
0000
,
1300
0010
0100
0010
2000
0000
3100
0010
,
0001
0100
0010
1000
0200
0000
0320
0000
,
0031
1000
0100
1000
0002
0000
0103
0001
,
0001
1000
1000
0010
0010
0100
0200
0000
,
0310
0000
1000
0000
0001
0000
0010
0001
1000
0000
0100
0000
2000
0000
0000
0000
,
3010
0000
0100
0000
0001
0000
0010
0100
1000
0000
0001
0000
0200
0000
0000
0000
,
0310
0000
0100
0000
0001
0000
0010
0100
1000
0000
0010
0000
0100
0000
0001
0000
,
0001
0100
0100
0010
0010
1000
2000
0000
,
3010
0000
0100
0000
0010
0000
1000
0100
0010
0000
0100
0000
1000
0000
0001
0000
,
0100
0010
1000
0001
0M00
000M
M000
00M0
,
0M00
0000
0001
0000
0010
0000
0001
1000
0010
0000
1000
0000
0001
0000
0100
0000
,
0100
0010
0010
1000
1000
0001
0002
0000
,
1003
0100
0001
0100
1000
0001
0010
1000
,
0010
0000
0001
0000
0100
0000
1000
0000
0100
0010
0100
0010
0100
0000
0000
0000
,
0001
0010
1000
0010
0001
0100
1000
0100
,
0001
0000
0010
0000
1000
0000
0010
0000
0001
0010
0001
0010
0001
0000
0000
0000
,
1000
0010
0001
1000
0100
0001
0010
1000
,
0010
0000
0001
0000
0100
0000
0010
0000
0100
0001
0100
0001
0100
0000
0000
0000
,
0001
0100
1000
0001
0010
1000
0100
0001
,
0100
0000
1000
0000
0010
0000
0100
0000
0010
0100
0010
0100
0010
0000
0000
0000
,
0M00
0000
0000
0M00
0000
0000
00M0
0000
,
000M
0000
0000
0000
,
1000
0001
1000
0001
1000
0000
1000
0000
,
0001
1000
0001
1000
0001
0000
0001
0000
,
0010
0001
0010
0001
0010
0000
0010
0000
,
0100
0010
0001
1000
0000
1000
0001
0000
,
0010
0100
0010
0100
0010
0000
0010
0000
,
0100
0010
0100
0010
0100
0000
0100
0000
,
0001
1000
0001
1000
0001
0000
1000
0010
,
0010
0100
0100
0001
0001
1000
2000
0000
,
3001
0000
0000
0000
0100
0000
0001
1000
0010
0000
0100
0000
0001
0000
0010
0000
,
0200
0000
030M
M000
00M0
0001
1000
0010
,
0100
0000
0010
1000
0001
0000
1000
0000
00M0
0000
1000
0010
0100
0000
0100
0000
,
00M0
M000
0001
0100
0020
0000
1030
0000
,
1000
0000
0001
0000
0100
0000
1000
0000
0100
0000
0001
0010
0001
0000
100M
0000
,
0100
0000
1000
0010
1000
0000
M001
0000
0100
0000
0001
0010
0001
0000
0010
0000
,
010M
0000
1000
0100
1000
0000
M001
0000
0100
0000
0010
0100
0010
0000
1000
0000
,
1000
0001
0001
0100
0100
0010
0020
0000
,
1030
0000
0001
0000
0100
0000
0010
0100
0001
0100
0010
0000
1000
0000
0001
0000
,
0010
1000
0010
0001
M000
000M
00M0
M000
,
000M
0000
1000
0000
0010
0000
0100
0001
0100
0001
1000
0000
0010
0000
0100
0000
,
0001
0000
1000
0000
0100
0000
0010
0001
1000
0000
0M00
0000
00M0
0000
M000
0000
,
000M
0000
1000
0000
0001
0000
0100
0010
1000
0010
0100
0000
0001
0000
0010
0000
,
0100
0000
1000
0000
0010
0000
0100
0010
1000
0000
0001
0000
0100
0000
0010
0000
,
M000
M000
M000
0001
0100
1000
0100
0001
,
0020
0000
0130
0020
0000
0031
1000
0000
,
1000
0000
0001
0000
0100
0000
0010
0000
0100
0001
0100
0010
1000
0000
0100
0000
,
1000
0000
0010
0000
0100
0000
0001
0000
0010
0001
0010
0001
1000
0000
0001
0000
,
0100
0000
0010
0000
1000
0000
0001
0000
0010
0100
1000
0100
0010
0000
0001
0000
,
0001
0000
0010
0000
0010
0000
0001
0000
0001
0000
0100
1000
0100
0000
0001
0000
,
0010
0001
0100
0000
0010
0000
0001
0000
0010
0000
0100
0000
0001
0000
1000
0000
,
0001
0000
0010
0100
0010
0000
0001
0000
1000
0000
0100
1000
0100
0000
0010
0000
,
0001
0000
0010
0000
1000
0000
0010
0000
0001
0000
1000
0100
0010
0000
0001
0000
,
0001
1000
1000
0010
0010
0100
0200
0000
,
0301
1000
0001
1000
0010
0100
0001
0100
0010
1000
0100
1000
0010
0100
0001
0010
,
0001
0010
0100
1000
0010
0100
0001
0000
1000
0000
1000
0000
0001
0000
0000
0000
,
1000
0001
1000
0001
0100
0010
1000
0010
0100
0001
0010
0001
0100
0010
1000
0100
,
1000
0100
0010
0001
0100
0010
1000
0000
0001
0000
0100
0000
0010
0000
0000
0000
,
0001
0010
0001
0010
0100
1000
0100
0010
0001
0010
0001
0010
0100
1000
0100
0010
,
0100
1000
0100
1000
0001
0010
0100
1000
0010
0000
1000
0000
0001
0000
0000
0000
,
1000
0100
1000
0100
0010
0001
0010
0100
1000
0100
1000
0100
0010
0001
0010
0000
,
0010
0001
0001
0100
0100
0001
0002
0000
,
2003
0000
0000
3000
0000
0000
0000
0000
;

//---------------dance-single - ----------------
#NOTES:
     dance-single:
     :
     Hard:
     12:
     0.600980,0.633716,0.265168,0.136168,0.050167,587.000000,550.000000,37.000000,19.000000,65.000000,0.000000,0.600980,0.633716,0.265168,0.136168,0.050167,587.000000,550.000000,37.000000,19.000000,65.000000,0.000000:
// measure 0
0M00
0000
0000
0M00
0000
0000
M000
0000
,  // measure 1
00M0
0000
0000
0000
,  // measure 2
0M00
0000
0000
0M00
0000
0000
M000
0000
,  // measure 3
00M0
0000
0000
M000
0000
0000
000M
0000
,  // measure 4
0M00
0000
0000
0M00
0000
0000
M000
0000
,  // measure 5
00M0
0000
0000
0000
,  // measure 6
000M
0000
0000
000M
0000
0000
M000
0000
,  // measure 7
0M00
0000
0000
0M00
0000
0M00
M000
0000
,  // measure 8
1000
0000
0001
0100
0010
0100
0001
0000
,  // measure 9
1000
0100
0010
1001
,  // measure 10
0010
0000
1000
0001
0100
0001
1000
0000
,  // measure 11
0010
1000
0001
0000
0010
0000
0011
0000
,  // measure 12
1100
0000
0001
0100
0010
0100
0001
1000
,  // measure 13
0100
0010
0001
1100
,  // measure 14
1001
0000
0010
0100
0001
1000
0100
0010
,  // measure 15
0001
0000
1000
0100
1000
0000
0101
0000
,  // measure 16
1100
0000
0001
0100
0010
1000
0002
0000
,  // measure 17
1003
0000
000M
0M00
00M0
0000
0010
0100
,  // measure 18
0001
0000
0010
0100
00M0
0000
0001
1000
,  // measure 19
00M0
0000
1000
0010
2000
0000
3001
0000
,  // measure 20
0100
0001
0100
0010
1000
0100
2000
0000
,  // measure 21
3001
0010
0100
1000
0001
0100
0020
0000
,  // measure 22
1030
0010
0100
0010
1000
0001
0100
0010
,  // measure 23
0010
1000
0010
1000
0010
0000
0200
0000
,  // measure 24
0301
0000
0100
0010
0100
0000
1001
0000
,  // measure 25
0110
0000
0000
0000
0001
0000
0010
0000
0000
0M00
0000
0000
000M
0000
M000
0000
,  // measure 26
00M0
0000
0001
0100
0001
0000
1000
0000
,  // measure 27
1001
0000
0010
0100
0001
00M0
M000
00M0
,  // measure 28
0000
0000
0100
0001
0100
0010
1000
0000
,  // measure 29
1100
0000
0001
0010
0100
0010
0001
0000
,  // measure 30
M00M
0000
M000
00M0
M000
0001
0100
0010
,  // measure 31
1000
0001
0010
0100
0010
0000
0110
0000
,  // measure 32
1000
0001
0100
0001
1000
0000
0101
0000
,  // measure 33
1000
0100
0001
0100
1000
0000
1100
0000
,  // measure 34
0010
0100
0010
1000
0010
0000
0110
0000
,  // measure 35
1000
0010
1000
0010
0100
0001
0100
0000
,  // measure 36
0001
0010
0001
0010
0100
0000
0110
0000
,  // measure 37
1000
0100
1000
0100
0010
0000
1100
0000
,  // measure 38
1000
0001
0010
0001
2000
0000
3010
1000
,  // measure 39
1000
0001
0001
0100
0100
0010
0020
0000
,  // measure 40
1030
0001
0010
0001
0100
0000
0011
0000
,  // measure 41
0001
1000
0010
1000
0001
0000
1001
0000
,  // measure 42
0100
0010
0100
0001
0010
0100
0010
0001
,  // measure 43
0001
0010
0001
0010
0100
0000
0110
0000
,  // measure 44
0001
0010
1000
0010
0001
0000
1010
0000
,  // measure 45
1000
0100
0001
0100
M000
0000
M0M0
0000
,  // measure 46
0M00
M000
0010
1000
0100
0000
1100
0000
,  // measure 47
0001
0010
0100
0010
0001
0010
0001
0000
,  // measure 48
1000
0100
0010
0001
0010
0100
1000
0010
,  // measure 49
0100
0001
0010
1000
0010
0001
1001
0000
,  // measure 50
0001
0010
0100
1000
0001
0100
0010
0100
,  // measure 51
0001
1000
0100
1000
0001
0000
0110
0000
,  // measure 52
0001
0010
1000
0010
0001
1000
0010
1000
,  // measure 53
0001
0100
0010
1000
0100
0000
1100
0000
,  // measure 54
1000
0010
0100
0001
0010
0100
0010
0001
,  // measure 55
1000
0010
1000
0100
0010
0000
0110
0000
,  // measure 56
0M00
0000
0000
0M00
0000
0000
00M0
0000
,  // measure 57
000M
0000
0000
0000
,  // measure 58
0010
0100
0010
0100
0010
0000
0010
0000
,  // measure 59
0100
0010
0100
0010
0100
0000
0100
0000
,  // measure 60
0001
0100
0001
0100
0001
0000
0001
0000
,  // measure 61
1000
0001
0010
1100
,  // measure 62
0001
1000
0001
1000
0001
0000
0001
0000
,  // measure 63
1000
0001
1000
0001
1000
0000
1000
0000
,  // measure 64
0100
0010
0100
0010
0100
0000
0010
0000
,  // measure 65
0100
0001
0100
0001
0100
0001
0200
0000
,  // measure 66
0310
0000
1000
0100
1000
0001
0020
0000
,  // measure 67
0031
0000
0M00
000M
0M00
0010
1000
0001
,  // measure 68
0010
1000
0010
0001
0M00
0010
0100
0010
,  // measure 69
M000
0001
0010
0100
0010
0000
0110
0000
,  // measure 70
1000
0010
1000
0001
0100
0001
1000
0100
,  // measure 71
0001
0100
1000
0010
0100
0010
1000
0001
,  // measure 72
0010
0001
1000
0100
0010
0100
1000
0100
,  // measure 73
0100
0010
0010
0100
0100
1000
2000
0000
,  // measure 74
3100
0000
0010
0000
0100
0000
1000
0000
0100
0000
1000
0010
1000
0000
0000
0000
,  // measure 75
0001
0000
0100
0000
0001
0000
M000
0000
00M0
0000
0M00
000M
0M00
0000
0000
0000
,  // measure 76
00M0
0000
1000
0000
0100
0000
0010
0000
0100
0000
1000
0100
1000
0000
0000
0000
,  // measure 77
0001
0000
0100
0000
0001
0000
0010
0000
0001
0000
M000
0M00
M000
0000
0000
0000
,  // measure 78
000M
0000
1000
0000
0010
0000
0100
0000
0001
0000
0010
0001
0010
0000
0000
0000
,  // measure 79
0001
0000
1000
0000
0010
0000
0100
0000
0010
0000
1000
0100
1000
0000
0000
0000
,  // measure 80
000M
0000
0M00
0000
000M
0000
1000
0001
1000
0000
0010
0000
0100
0000
0001
0000
,  // measure 81
1000
0001
0100
0001
2000
0000
3010
0000
,  // measure 82
0010
0100
0001
0100
0011
0000
2100
0000
,  // measure 83
3001
0100
0010
0100
1100
0000
0012
0000
,  // measure 84
0013
0001
0100
0010
1100
0000
0011
0000
,  // measure 85
2000
0001
3001
1000
0010
1000
0020
0000
,  // measure 86
1030
0001
0010
0100
0110
0000
1001
0010
,  // measure 87
1000
0001
0100
0010
1000
0000
2100
0000
,  // measure 88
3001
0010
0100
0010
0001
0000
1000
0001
,  // measure 89
0001
1000
0001
0100
0010
0010
2000
0000
,  // measure 90
3001
0100
0010
1000
0001
0010
0100
1000
,  // measure 91
0001
0000
0100
0000
0010
0000
1000
0000
0001
1000
0001
1000
0001
0000
0000
0000
,  // measure 92
0100
0010
1000
0100
0010
0001
1000
0010
,  // measure 93
1000
0000
0001
0000
0100
0000
0010
0000
1000
0010
1000
0010
1000
0000
0000
0000
,  // measure 94
1000
0100
0010
0100
1000
0001
0100
0001
,  // measure 95
1000
0000
0100
0000
0001
0000
0100
0000
1000
0010
1000
0010
1000
0000
0000
0000
,  // measure 96
0001
0100
0001
0010
0100
0001
0100
1000
,  // measure 97
1000
0001
0001
0100
0100
0010
0020
0000
,  // measure 98
2030
3000
0000
0000
;

//---------------dance-single - ----------------
#NOTES:
     dance-single:
     :
     Medium:
     9:
     0.456622,0.564737,0.143334,0.236502,0.000000,446.000000,426.000000,20.000000,33.000000,15.000000,0.000000,0.456622,0.564737,0.143334,0.236502,0.000000,446.000000,426.000000,20.000000,33.000000,15.000000,0.000000:
0000
0000
0000
0000
,
0000
0000
0000
0000
,
0000
0000
0000
0000
,
0000
0000
0000
0000
,
0000
0000
0000
0000
,
0000
0000
0000
0000
,
0000
0000
0000
0000
,
0000
0000
0000
0000
,
1000
0000
0001
0100
0001
0000
0010
0000
,
0001
1000
0020
0130
,
0001
0000
1000
0100
1000
0000
0001
0000
,
0100
0000
0010
0100
0001
0000
0010
0000
,
0002
0000
1003
0001
1000
0000
0010
0000
,
0100
0100
0002
0013
,
0001
0000
1000
0010
1000
0000
0001
0000
,
0100
0000
0001
0010
0100
0000
1000
0000
,
0002
0000
1003
0001
0100
0000
0010
0000
,
2000
0000
30M0
0000
0M00
0000
0001
0010
,
0100
0000
0100
0010
000M
0000
0001
1000
,
00M0
0000
1000
0001
0200
0000
0310
0000
,
1000
0000
1000
0001
0100
0000
0001
1000
,
0010
0000
1000
0001
0020
0000
0031
0000
,
0100
0001
0100
0000
0010
1000
0010
0000
,
1000
1000
0001
0001
,
0200
0001
0001
0010
,
0301
0000
1000
0000
0001
0010
0100
0010
,
0002
1000
1003
0010
,
0200
0000
0310
0000
1000
0000
0001
1000
,
0002
0010
0103
0010
,
2000
0100
3010
0001
,
0200
0301
0002
0013
,
0002
0103
2000
3010
,
0100
0001
0100
0001
0010
0000
0011
0000
,
0100
1000
0100
1000
0100
0000
1100
0000
,
0001
1000
0010
0000
1000
0000
0001
0000
,
0200
0301
0020
0031
,
1000
0001
1000
0010
0100
0000
0110
0000
,
0001
0010
0100
0010
0001
0000
0011
0000
,
0001
1000
0010
1000
0001
0000
1001
0000
,
0010
0010
2000
0000
,
3001
0000
0100
0001
0100
0000
0010
0000
,
1000
0001
1000
0000
0010
0000
0110
0000
,
1000
0001
0100
0000
0001
0000
0001
0000
,
0010
0100
0010
0000
0001
0000
1001
0000
,
1000
0010
1000
0001
0100
0000
0100
0000
,
0001
1000
0010
1000
0001
0000
0001
0000
,
1000
0010
0001
0010
1000
0000
1000
0000
,
0010
0000
0010
1000
0100
0000
1000
0000
,
0001
1000
0010
1000
0100
0000
0100
0000
,
1000
0001
0100
0000
0010
0000
0010
0000
,
0001
1000
0100
1000
0001
0000
0001
0000
,
0010
0100
0010
0000
0001
0000
1001
0000
,
0010
1000
0001
0100
0010
0000
0010
0000
,
0001
0010
1000
0010
0001
0000
0001
0000
,
1000
0100
1000
0100
1000
0000
1000
0000
,
1000
0010
0100
0010
1000
0000
1000
0000
,
0001
0000
0000
0000
,
0000
0000
0000
0000
,
1000
0010
1000
1000
,
0001
0100
0001
0001
,
0100
0010
1000
1000
,
0002
0000
1003
0000
,
0010
1000
0001
0001
,
0100
0010
0100
0100
,
0010
1000
0001
0001
,
2000
0000
3001
0000
,
0100
0001
0010
0200
,
1300
00M0
0M00
0001
,
0100
0000
0010
0100
000M
0000
1000
0100
,
M000
0000
0001
0100
0002
0000
0013
0000
,
0100
0000
1000
0001
1000
0000
0010
0000
,
1000
0001
1000
0001
0100
0000
0010
0000
,
1000
0001
0010
0000
0001
1000
0010
0000
,
1000
0001
0200
0000
0310
0000
1000
0000
,
0200
1000
1300
0001
,
0020
0001
0031
0M00
,
00M0
1000
1000
0001
,
0200
0001
0301
00M0
,
000M
1000
1000
0010
,
0100
0001
1000
0010
,
0M00
00M0
00M0
1000
,
0002
0010
0013
1001
,
0010
1000
0001
0100
0010
0000
0110
0000
,
0001
0010
0100
0010
0001
0000
0011
0000
,
0001
1000
0010
1000
0001
0000
0100
0000
,
0020
1000
2030
0001
,
3001
0100
0010
0100
0001
0000
0011
0000
,
0100
1000
0001
1000
0010
0000
1010
0000
,
0001
0100
0010
0100
0001
0000
1000
0000
,
0200
1000
1300
0010
,
1000
0001
1000
0010
0100
0000
0110
0000
,
0010
1000
0001
0010
0100
0000
0110
0000
,
0001
1000
0010
1000
0001
0000
1001
0000
,
1000
0010
1000
0001
1000
0000
1001
0000
,
0010
1000
0001
0010
0001
0000
0101
0000
,
0001
1000
0010
1000
0001
0000
0101
0000
,
0100
0010
1000
0001
0010
0000
0010
0000
,
1000
0100
1000
0100
1000
0000
1000
0000
,
2200
0000
3300
0000
;

//---------------dance-single - ----------------
#NOTES:
     dance-single:
     :
     Easy:
     5:
     0.271311,0.317261,0.000000,0.379836,0.000000,265.000000,265.000000,0.000000,53.000000,0.000000,0.000000,0.271311,0.317261,0.000000,0.379836,0.000000,265.000000,265.000000,0.000000,53.000000,0.000000,0.000000:
0000
0000
0000
0000
,
0000
0000
0000
0000
,
0000
0000
0000
0000
,
0000
0000
0000
0000
,
0000
0000
0000
0000
,
0000
0000
0000
0000
,
0000
0000
0000
0000
,
0000
0000
0000
0000
,
1000
0001
1000
0000
,
0020
0000
0130
0000
,
0001
0010
0001
0000
,
2000
0000
3001
0000
,
0100
0001
0010
0000
,
0002
0000
1003
0000
,
0010
1000
0010
0000
,
0200
0000
0301
0000
,
1000
0001
0010
0001
,
2000
0000
3010
0100
,
0002
0000
0013
0100
,
2000
0000
3010
0100
,
0001
0010
0100
0010
,
0002
0000
2003
0000
,
3010
0100
0020
0000
,
1030
0000
1000
0000
,
0001
0100
0001
0100
,
0002
0000
0013
0000
,
1000
0100
1000
0100
,
2000
0000
3010
0000
,
0100
0001
0100
0001
,
0200
0000
0301
0000
,
0020
0000
0031
0000
,
2000
0000
3001
0000
,
0100
0001
0100
0100
,
0001
0100
0001
0001
,
1000
0010
1000
0001
,
0020
0000
0031
0000
,
1000
0010
1000
0001
,
0100
0010
1000
1000
,
0001
0100
0010
1000
,
0002
0000
0013
0000
,
0001
1000
0001
1000
,
0020
0000
1030
0000
,
1000
0001
0100
0010
,
2000
0000
3001
0000
,
0010
0100
0010
0001
,
2000
0000
3010
0000
,
0100
0001
1000
0010
,
0200
0000
0301
0000
,
1000
0001
1000
0010
,
1000
1000
0002
0000
,
0103
0010
1000
0001
,
0010
0010
0002
0000
,
1003
0010
1000
0001
,
0010
0010
0002
0000
,
0013
0001
1000
0010
,
2000
0000
3020
0000
,
0130
0000
0000
0000
,
0000
0000
0000
0000
,
1000
0000
1000
0000
,
0001
0000
0001
0000
,
0100
0001
0100
0010
,
2000
0000
3001
0000
,
0010
0000
0010
0000
,
0001
0000
0001
0000
,
1000
0001
1000
0010
,
0200
0000
0301
0000
,
1000
0001
0010
0001
,
2000
0000
3010
0100
,
0002
0000
0013
0100
,
2000
0000
3002
0000
,
0103
0001
0200
0000
,
0310
1000
0020
0000
,
1030
0001
0200
0000
,
0302
0000
0013
0000
,
0100
1000
0001
1000
,
0020
0000
1030
0000
,
0001
0100
0010
0100
,
0002
0000
1003
0000
,
0010
1000
0001
0010
,
0200
0000
0310
0000
,
2000
0000
3001
0000
,
0200
0000
0310
0000
,
1000
0001
0020
0000
,
0031
1000
0020
0000
,
1030
0001
0100
0001
,
0020
0000
0230
0000
,
1300
0001
2000
0000
,
3010
0100
0002
0000
,
0013
0100
0010
0001
,
2000
0000
3020
0000
,
1030
0001
1000
0010
,
1000
1000
0002
0000
,
0103
0001
0010
0100
,
0010
0001
2000
0000
,
3010
1000
0100
1000
,
0001
0100
0020
0000
,
1030
0001
0100
0010
,
1000
1000
0001
0001
,
0200
0000
0000
0300
0000
0000
0000
0000
;

//---------------dance-single - ----------------
#NOTES:
     dance-single:
     :
     Beginner:
     2:
     0.154596,0.176480,0.000000,0.143334,0.000000,151.000000,151.000000,0.000000,20.000000,0.000000,0.000000,0.154596,0.176480,0.000000,0.143334,0.000000,151.000000,151.000000,0.000000,20.000000,0.000000,0.000000:
0000
0000
0000
0000
,
0000
0000
0000
0000
,
0000
0000
0000
0000
,
0000
0000
0000
0000
,
0000
0000
0000
0000
,
0000
0000
0000
0000
,
0000
0000
0000
0000
,
0000
0000
0000
0000
,
1000
0000
0000
0000
,
0001
0000
0000
0000
,
0010
0000
0000
0000
,
1000
0000
0000
0000
,
0100
0000
0000
0000
,
1000
0000
0000
0000
,
0010
0000
0000
0000
,
0010
0000
0000
0000
,
1000
0000
1000
0000
,
0002
0000
0000
0000
,
1003
0000
1000
0000
,
0020
0000
0000
0000
,
1030
0000
1000
0000
,
0002
0000
0000
0000
,
0013
0000
0010
0000
,
0002
0000
0000
0003
,
1000
0000
0001
0000
,
0010
0000
0001
0000
,
0200
0000
0000
0000
,
0301
0000
0001
0000
,
0020
0000
0000
0000
,
0031
0000
0001
0000
,
2000
0000
0000
0000
,
3010
0000
0010
0000
,
0100
0000
0100
0000
,
0001
0000
0001
0000
,
1000
0000
1000
0000
,
0020
0000
0000
0000
,
1030
0000
1000
0000
,
0001
0000
0001
0000
,
0100
0000
0100
0000
,
0002
0000
0000
0000
,
1003
0000
1000
0000
,
0010
0000
0010
0000
,
1000
0000
1000
0000
,
0001
0000
0001
0000
,
0100
0000
0100
0000
,
0010
0000
0010
0000
,
1000
0000
1000
0000
,
0001
0000
0001
0000
,
1000
0000
1000
0000
,
0002
0000
0000
0000
,
1003
0000
1000
0000
,
0020
0000
0000
0000
,
1030
0000
1000
0000
,
0002
0000
0000
0000
,
1003
0000
1000
0000
,
0020
0000
0000
0000
,
1030
0000
0000
0000
,
0000
0000
0000
0000
,
0001
0000
0001
0000
,
1000
0000
1000
0000
,
0010
0000
0010
0000
,
0200
0000
0000
0000
,
0301
0000
0001
0000
,
1000
0000
1000
0000
,
0010
0000
0010
0000
,
2000
0000
0000
0000
,
3001
0000
0001
0000
,
0001
0000
0000
0000
,
1000
0000
1000
0000
,
1000
0000
0000
0000
,
0010
0000
0010
0000
,
0010
0000
0000
0000
,
1000
0000
1000
0000
,
0002
0000
0000
0000
,
1003
0000
1000
0000
,
0010
0000
0010
0000
,
0100
0000
0100
0000
,
0001
0000
0001
0000
,
1000
0000
1000
0000
,
0010
0000
0010
0000
,
0100
0000
0100
0000
,
0002
0000
1003
0000
,
1000
0000
0010
0000
,
1000
0000
1000
0000
,
0001
0000
0001
0000
,
0200
0000
0301
0000
,
1000
0000
1000
0000
,
0010
0000
0010
0000
,
0100
0000
0100
0000
,
0002
0000
1003
0000
,
1000
0000
0010
0000
,
1000
0000
1000
0000
,
0001
0000
1000
0000
,
0010
0000
0010
0000
,
1000
0000
1000
0000
,
0001
0000
0001
0000
,
0100
0000
0100
0000
,
0010
0000
0010
0000
,
2000
0000
3000
0000
;
