#VERSION:0.83;
#TITLE:Classified;
#SUBTITLE:;
#ARTIST:OH MY GIRL;
#TITLETRANSLIT:;
#SUBTITLETRANSLIT:;
#ARTISTTRANSLIT:;
#GENRE:;
#ORIGIN:;
#CREDIT:;
#BANNER:AV.avi;
#BACKGROUND:bg.png;
#PREVIEWVID:;
#JACKET:jacket.png;
#CDIMAGE:;
#DISCIMAGE:;
#LYRICSPATH:;
#CDTITLE:;
#MUSIC:audio.ogg;
#OFFSET:-0.046000;
#SAMPLESTART:68.334076;
#SAMPLELENGTH:15.000003;
#SELECTABLE:YES;
#BPMS:0.000=140.000;
#STOPS:;
#DELAYS:;
#WARPS:;
#TIMESIGNATURES:0.000=4=4;
#TICKCOUNTS:0.000=4;
#COMBOS:0.000=1;
#SPEEDS:0.000=1.000=0.000=0;
#SCROLLS:0.000=1.000,
223.000=0.500,
256.000=0.700,
257.000=1.000;
#FAKES:;
#LABELS:0.000=Song Start;
#BGCHANGES:0.000=MV.avi=1.000=1=0=1===CrossFade==,
99999=-nosongbg-=1.000=0=0=0 // don't automatically add -songbackground-
;
#KEYSOUNDS:;
#ATTACKS:
;

//---------------dance-single - ----------------
#NOTEDATA:;
#CHARTNAME:;
#STEPSTYPE:dance-single;
#DESCRIPTION:;
#CHARTSTYLE:;
#DIFFICULTY:Challenge;
#METER:14;
#RADARVALUES:0.535756,0.747559,0.257163,0.650051,0.264306,525.000000,489.000000,36.000000,91.000000,0.000000,0.000000,0.000000,0.000000,0.000000,0.535756,0.747559,0.257163,0.650051,0.264306,525.000000,489.000000,36.000000,91.000000,0.000000,0.000000,0.000000,0.000000,0.000000;
#CREDIT:Musey;
#NOTES:
0000
0000
0000
0000
,
0000
0000
0000
0000
,
0000
0000
0000
0000
,
0000
0000
0000
0000
,
0000
0000
0000
0000
,
0000
0000
0000
0000
,
0000
0000
0000
0000
,
0000
0000
0000
0000
,
0000
0000
0001
0100
0001
0100
0010
1000
,
0010
1000
0001
0100
1000
0100
0002
0000
,
2003
3020
0100
0230
,
0302
0023
0001
0230
,
1300
0000
0100
1000
0100
1000
0001
0010
,
0001
0010
0001
0100
1000
0100
0001
0010
,
1000
0010
0002
0000
0100
0000
0203
0000
,
0010
0000
0000
0000
0320
0000
0000
0000
0000
0000
0000
0000
1030
0000
0000
0001
,
0000
0000
0100
0000
0010
0000
0000
0000
0010
0000
1000
0100
0010
0000
0010
0100
,
0000
1000
0001
0000
0100
0000
0000
0000
0100
0000
0001
0010
0100
0000
0100
1000
,
0000
0001
1000
0000
0020
0000
0000
0230
0000
0000
0301
0000
0020
0000
0000
0230
,
0000
0000
1300
0000
0200
0000
0000
0000
1300
0000
0000
0000
0010
0000
0000
0100
,
0000
0000
0001
0000
1000
0000
0000
0000
1001
0000
0000
0000
0010
0100
0001
0000
,
0010
0000
0100
0000
1000
0000
0000
0000
1001
0000
0001
0000
0100
0000
0000
0010
,
0000
0000
1000
0000
0100
0000
0000
1000
0000
0000
0001
0000
0100
0000
0000
0001
,
0000
1000
0000
0000
0002
0000
2003
0000
,
3100
0000
0000
0000
0110
0000
0000
0000
1001
0000
0000
0000
0010
0000
1000
0100
,
1000
0000
0010
0000
0100
0000
0001
0000
0010
0000
0000
0000
0001
0000
0010
0100
,
0010
0000
0100
0000
1000
0000
0000
0000
1001
0000
0000
0000
0010
0000
1000
0001
,
0010
0000
0100
0000
1000
0000
0001
0100
0001
0000
0100
0000
0010
0000
1000
0000
,
0100
0000
0010
0000
0001
0000
0000
0000
0001
0000
1000
0000
0010
0000
0100
1000
,
0100
0000
0010
0000
0100
0000
0000
0000
0010
0000
0000
0000
0100
0000
0010
0100
,
0001
0000
0010
0000
0200
0000
0000
0000
1000
0000
0000
0000
0010
0000
0000
1300
,
0000
0100
0001
0000
0001
0000
0100
1000
,
0020
0030
0010
0100
0010
0100
0001
1000
,
0001
1000
0010
0100
0001
0100
2000
0000
,
3200
0000
0000
0000
0320
0000
0000
0000
1030
0000
0001
0000
0010
0000
0000
0001
,
0000
0000
0100
0000
0010
0000
0100
0000
0001
0000
1000
0000
0100
0000
0000
0010
,
0000
0000
1000
0100
1000
0100
0010
0001
,
0010
0001
1000
0100
0001
0100
2000
0000
,
3002
0000
0000
0000
0203
0000
0000
0000
0310
0000
0000
0000
0020
0000
0000
0100
,
0000
0130
2000
0000
0000
3000
0000
0001
,
0100
0000
0001
0000
0020
0000
0030
0000
0100
1000
0100
1000
0010
0000
0100
0000
,
0001
0000
1000
0000
0200
0000
0300
0000
0100
0010
0100
0010
0001
0000
1000
0000
,
0100
0000
1000
0000
0010
0000
0100
0001
1000
0000
0100
0000
0010
0000
0001
0100
,
0010
0000
1000
0000
0001
0000
0100
0010
0001
0000
0010
0000
0100
0000
0001
1000
,
0010
0000
1000
0000
0200
0000
0300
0000
0010
0001
0010
0001
1000
0000
0001
0000
,
0100
0000
0010
0000
2000
0000
3000
0000
0010
1000
0010
1000
0001
0000
0100
0000
,
0010
0000
1000
0000
0001
0000
1000
0100
0010
0000
0001
0000
0100
0000
0010
1000
,
0001
0000
0010
0000
0100
0000
0010
0001
0100
0000
0010
0000
1000
0000
0100
0010
,
0001
0000
1000
0000
0020
0000
0000
0030
0100
0001
0100
0000
0020
0000
0030
0000
,
0110
0000
0000
0000
0001
0000
0000
0000
1000
0001
1000
0000
0100
0000
0000
0010
,
0000
0001
0200
0300
0110
1000
0002
0003
,
1001
0000
0010
0000
0200
0000
0000
0302
0000
0000
2003
0000
3020
0000
0000
0000
,
1030
0000
0000
0000
2200
3300
0000
0000
0202
0303
0000
0000
0022
0033
0000
0000
,
2020
3030
0000
0000
0022
0033
0000
0000
0202
0303
0000
0000
2200
3300
0000
0000
,
2020
3030
0000
0000
0011
0000
0000
0000
0011
0000
0000
0000
1100
0000
0000
0000
,
1100
2002
0000
3003
,
0020
0030
1000
0100
1000
0002
0003
0000
,
0000
0000
0100
0001
0100
0001
0010
0001
,
1000
0100
1000
0100
0010
0002
0003
0000
,
0000
0000
1000
0001
1000
0001
0010
0100
,
1000
0100
2000
0000
3002
0000
0203
0000
,
0320
0000
1030
0001
1000
0001
0010
0100
,
1000
0000
0001
0000
0200
0000
0000
0000
0302
0000
0000
0000
1003
0000
0000
1000
,
0000
0000
0100
0000
0010
0001
0100
0000
0001
0000
1000
0001
1000
0000
0000
0000
,
0010
0000
0000
0000
0100
0010
0100
0010
1000
0010
0100
0010
0100
0000
0001
0000
,
0010
0000
0100
0000
1000
0100
1000
0100
0010
0100
1000
0100
1000
0000
0001
0000
,
0100
0000
0001
0000
0010
0000
0100
1000
0001
0000
1000
0000
0010
0000
0100
0001
,
0010
0000
0100
0000
1000
0000
0001
1000
0100
0000
0010
0000
0001
0000
1000
0001
,
0100
0000
0001
0000
0010
0100
0010
0100
1000
0100
0010
0100
0010
0000
1000
0000
,
0100
0000
0010
0000
0001
1000
0001
1000
0010
1000
0001
1000
0001
0000
0100
0000
,
0010
0000
1000
0000
0010
0000
0100
1000
0100
0000
0001
0000
1000
0000
0100
0010
,
0001
0000
0100
0000
0010
0000
1000
0100
0010
0000
0001
0000
0100
0000
1000
0100
,
0010
1000
0002
0000
0103
0010
2002
3003
,
0010
0000
0100
0000
0001
0000
0000
1000
0000
0000
0100
0000
0010
0000
0000
0001
,
0000
1000
0020
0030
0100
0001
2002
3003
,
0100
0000
0001
0000
1000
0000
0000
0010
0000
0000
0100
0000
0020
0000
0000
0000
,
1030
0000
0000
0000
2020
3030
0000
0000
0220
0330
0000
0000
2002
3003
0000
0000
,
0022
0033
0000
0000
2020
3030
0000
0000
0022
0033
0000
0000
0202
0303
0000
0000
,
2020
3030
0000
0000
1001
0000
0000
0000
1001
0000
0000
0000
0110
0000
0000
0000
,
0110
2020
0000
0030
,
0000
0000
3000
0000
;

//---------------dance-single - ----------------
#NOTEDATA:;
#CHARTNAME:;
#STEPSTYPE:dance-single;
#DESCRIPTION:;
#CHARTSTYLE:;
#DIFFICULTY:Hard;
#METER:9;
#RADARVALUES:0.392888,0.488788,0.078578,0.442892,0.075006,385.000000,374.000000,11.000000,62.000000,0.000000,0.000000,0.000000,0.000000,0.000000,0.392888,0.488788,0.078578,0.442892,0.075006,385.000000,374.000000,11.000000,62.000000,0.000000,0.000000,0.000000,0.000000,0.000000;
#CREDIT:Musey;
#NOTES:
0000
0000
0000
0000
,
0000
0000
0000
0000
,
0000
0000
0000
0000
,
0000
0000
0000
0000
,
0000
0000
0000
0000
,
0000
0000
0000
0000
,
0000
0000
0000
0000
,
0000
0000
0000
0000
,
0000
0000
1000
0100
1000
0100
0010
0001
,
0010
0001
1000
0001
1000
0001
0200
0000
,
0320
2030
0000
3002
,
0203
0302
0000
0013
,
0010
0000
0100
0010
0100
0010
0001
1000
,
0001
1000
0010
1000
0100
1000
0001
0100
,
0001
0100
0020
0000
1000
0000
2030
0000
,
0001
0000
0000
0000
3002
0000
0000
0000
0000
0000
0000
0000
0103
0000
0000
0001
,
0000
0000
1000
0000
0010
0000
0000
0000
0010
0000
0100
0000
0001
0000
0000
1000
,
0000
0000
1000
0000
0100
0000
0000
0000
0100
0000
0010
0000
0001
0000
0000
1000
,
0000
0000
0001
0000
0100
0000
0000
0001
0000
0000
1000
0000
0100
0000
0000
1000
,
0000
0000
0001
0000
0200
0000
0000
0000
0310
0000
0000
0000
1000
0000
0000
0100
,
0000
0000
1000
0000
0010
0000
0000
0000
0010
0000
0100
0000
0001
0000
0000
0001
,
0000
0000
0010
0000
0100
0000
0000
0000
0100
0000
1000
0000
0001
0000
0000
1000
,
0000
0000
0010
0000
0100
0000
0000
0001
0000
0000
1000
0000
0100
0000
0000
0010
,
0000
0001
0000
0000
2000
0000
3002
0000
,
0103
0000
0110
0000
1001
0000
1000
0100
,
1000
0010
0100
0001
0010
0000
0001
0100
,
0001
1000
0020
0000
1030
0000
1000
0100
,
0010
0001
0200
0000
0310
0000
0100
0001
,
1000
0000
0001
0000
0010
0000
0000
0000
0010
0000
0000
0000
0001
0000
0000
0100
,
0000
0000
0010
0000
0100
0000
0000
0000
0100
0000
0000
0000
0010
0000
0000
1000
,
0000
0000
1000
0000
0002
0000
0000
0000
0203
0000
0000
0000
0302
0000
0000
0013
,
0000
0010
0001
0000
1000
0000
0100
1000
,
0020
0000
1030
0100
1000
0100
0010
0001
,
0010
0001
0100
0001
0010
0001
2000
0000
,
3020
0230
0010
0301
,
0001
0000
1000
0100
1000
0100
0020
0000
,
0031
0000
1000
0001
1000
0001
0100
0010
,
0100
0010
1000
0100
1000
0100
0020
0000
,
0032
0203
0010
0320
,
1000
0000
2030
0000
0000
0000
3001
0100
,
0001
0100
0020
0000
1000
0000
1030
0100
,
0010
0001
0200
0000
0010
0000
0310
1000
,
0100
0010
0001
0100
0010
1000
0001
0010
,
0100
0000
0010
0000
0002
0000
0000
0000
1000
0000
0000
0000
1003
0000
0000
0010
,
0000
0100
0002
0000
1000
0000
1003
0100
,
1000
0010
0200
0000
0010
0000
0310
1000
,
0100
1000
0010
0100
0001
1000
0010
1000
,
0100
0010
0002
0000
0203
0000
0320
0000
,
2030
3002
0100
0203
,
0310
0000
0000
0000
0100
0000
0000
0010
0000
0000
0100
0000
0001
0000
0000
1000
,
0000
0001
0200
0000
0310
0000
2000
0000
,
3100
0000
0010
0000
0001
0000
0000
0100
0000
0000
0010
0000
2000
0000
0000
0000
,
3010
1000
1010
0001
,
0101
0100
0110
1000
,
1001
0010
0010
0100
,
0100
0002
0000
0003
,
0000
1000
0001
1000
,
0000
0010
0100
0010
,
0010
1000
0100
1000
,
0000
0001
0100
0001
,
0010
0100
1000
0010
,
1000
0001
0001
0200
,
0000
0310
0010
1000
,
1000
0002
0000
0103
,
0010
0000
1010
0000
0010
0000
0100
0001
,
0010
0001
2000
0000
3010
0000
0100
0001
,
0100
0001
0010
0100
1000
0001
0100
0010
,
1000
0000
0100
0000
0020
0000
0000
0000
0130
0000
0000
0000
0010
0000
0000
0100
,
0000
1000
0020
0000
0100
0000
0130
0001
,
0010
0001
0200
0000
0010
0000
0310
1000
,
0001
0010
0001
0100
0010
1000
0001
0010
,
0100
1000
0002
0000
0203
0000
0320
0000
,
2030
0000
3200
0000
1300
0010
0200
0000
,
0301
0000
0010
0000
0100
0000
0000
1000
0000
0000
0100
0000
1000
0000
0000
0010
,
0000
0100
0002
0000
0103
0000
0020
0000
,
1030
0000
0100
0000
0010
0000
0000
0100
0000
0000
1000
0000
0002
0000
0000
0000
,
0103
0001
0101
0100
,
1001
1000
1100
0010
,
0110
0002
2003
3020
,
0230
0302
0000
0000
,
0000
0000
0003
0000
;

//---------------dance-single - ----------------
#NOTEDATA:;
#CHARTNAME:;
#STEPSTYPE:dance-single;
#DESCRIPTION:;
#CHARTSTYLE:;
#DIFFICULTY:Medium;
#METER:7;
#RADARVALUES:0.336761,0.427266,0.057147,0.478609,0.000000,330.000000,322.000000,8.000000,67.000000,0.000000,0.000000,0.000000,0.000000,0.000000,0.336761,0.427266,0.057147,0.478609,0.000000,330.000000,322.000000,8.000000,67.000000,0.000000,0.000000,0.000000,0.000000,0.000000;
#CREDIT:Musey;
#NOTES:
0000
0000
0000
0000
,
0000
0000
0000
0000
,
0000
0000
0000
0000
,
0000
0000
0000
0000
,
0000
0000
0000
0000
,
0000
0000
0000
0000
,
0000
0000
0000
0000
,
0000
0000
0000
0000
,
0000
1000
1000
0001
,
0001
0000
0100
0001
0100
0001
0020
0000
,
0032
0203
0000
0320
,
2030
3002
0000
0103
,
0100
0010
0010
1000
,
1000
0000
0001
1000
0001
1000
0010
0100
,
0010
0100
0002
0000
0100
0000
0203
0000
,
0010
0320
0000
1030
,
0000
0000
1000
0000
0001
0000
1000
0001
,
0100
0010
1000
0000
1000
0000
0100
0010
,
0001
0100
0010
0000
0010
1000
0100
0000
,
0100
0010
0001
0000
0001
0000
1000
0000
,
0010
0000
0110
0000
0110
0000
0001
1000
,
0100
0000
0110
0000
0110
0000
0001
1000
,
0010
0000
1000
0100
1000
0000
0001
0100
,
0001
2000
0000
0000
,
0000
0000
3001
0000
0001
0000
0100
0001
,
0100
0001
0020
0000
0130
0000
1000
0010
,
0100
0001
2000
0000
3001
0000
0100
0001
,
0100
0001
0020
0000
0130
0000
0010
0100
,
1000
0010
0100
0000
0100
0000
0001
1000
,
0100
1000
0002
0000
0103
0000
0001
0010
,
0100
1000
0002
0000
0100
0000
0203
0000
,
0010
0320
0000
1000
,
1030
0000
0001
1000
0001
1000
0010
0100
,
0010
0100
0001
0010
0100
0010
0002
0000
,
2003
3020
0000
0130
,
0100
0000
0001
1000
0001
0000
0020
0000
,
0000
0000
0130
0010
0100
0010
0100
1000
,
0100
1000
0001
1000
0001
1000
0020
0000
,
0230
0000
0302
0000
0000
0000
0020
0003
,
0000
0230
0000
0000
,
0000
0000
1300
0000
1000
0000
0001
0100
,
0010
0000
2000
0000
0010
0000
3010
0100
,
0001
0000
0010
0100
0010
0000
0001
1000
,
0010
0000
2000
0000
3001
0000
0001
0100
,
0010
0100
0002
0000
0010
0000
0013
0100
,
0010
0000
0002
0000
1000
0000
1003
0010
,
1000
0000
0010
0100
0001
0000
1000
0100
,
0010
0002
2003
3020
,
0230
0302
0000
0023
,
0031
0000
0100
0000
0001
0000
1000
0100
,
1000
0020
0130
0200
,
0310
0000
1000
0100
1000
0000
0002
0000
,
0013
0001
0001
0100
,
0110
1000
1000
0100
,
1100
0002
0203
0320
,
2030
3002
0000
0003
,
0000
1000
1000
0100
,
0000
1000
0001
1000
,
0000
0010
0010
0100
,
0000
0001
0010
0100
,
1000
0002
0000
0203
,
0000
0310
0010
1000
,
0000
0200
0320
0032
,
2003
3020
0000
0130
,
0100
0000
0010
0000
1000
0000
0001
0100
,
0010
0000
1000
0000
1000
0000
0100
0010
,
0001
0000
1000
0010
1000
0000
0001
0100
,
0001
0000
0020
0000
0130
0000
1000
0001
,
1000
0010
0200
0000
0310
0000
0010
1000
,
0100
0000
0020
0000
0001
0000
0031
0100
,
0010
0000
1000
0100
1000
0100
0010
0001
,
0010
0001
0200
0000
0320
0000
2030
0000
,
3200
0320
0000
0032
,
0000
0000
1003
0000
0010
0000
1000
0100
,
0010
0002
0000
1003
,
1000
0000
0010
0100
0001
0000
2000
0000
,
0000
3100
0100
0010
,
0110
0001
0100
0001
,
1001
0020
0230
0320
,
2030
3002
0000
0003
;

//---------------dance-single - ----------------
#NOTEDATA:;
#CHARTNAME:;
#STEPSTYPE:dance-single;
#DESCRIPTION:;
#CHARTSTYLE:;
#DIFFICULTY:Easy;
#METER:4;
#RADARVALUES:0.215323,0.284844,0.000000,0.285737,0.000000,211.000000,211.000000,0.000000,40.000000,0.000000,0.000000,0.000000,0.000000,0.000000,0.215323,0.284844,0.000000,0.285737,0.000000,211.000000,211.000000,0.000000,40.000000,0.000000,0.000000,0.000000,0.000000,0.000000;
#CREDIT:Musey;
#NOTES:
0000
0000
0000
0000
,
0000
0000
0000
0000
,
0000
0000
0000
0000
,
0000
0000
0000
0000
,
0000
0000
0000
0000
,
0000
0000
0000
0000
,
0000
0000
0000
0000
,
0000
0000
0000
0000
,
0000
1000
1000
0001
,
0001
0000
0100
0001
0100
0000
0010
0000
,
0010
2000
0000
3100
,
0000
0002
0000
0103
,
0000
0010
0010
1000
,
1000
0000
0001
1000
0001
0000
0100
0000
,
0100
0020
0000
1030
,
0000
0000
2000
0000
0000
0000
0000
3000
,
0000
0001
1000
0001
,
0000
0100
0010
0100
,
0000
0001
1000
0100
,
0010
0001
0000
1000
,
1000
0010
0000
0100
,
0100
0001
0000
1000
,
0001
1000
0010
1000
,
0100
0020
0000
0000
,
0000
0031
0000
0001
,
0100
0010
0010
1000
,
0100
0010
0000
0001
,
0100
0001
0000
1000
,
0100
1000
1000
0010
,
0010
0100
0100
0001
,
1000
0002
0000
0013
,
0000
0020
0000
0130
,
0000
1000
0010
0100
,
0001
0000
1000
0001
1000
0000
0010
0000
,
0010
0200
0000
0310
,
0000
0020
0000
0130
,
0000
1000
0100
1000
,
0100
0000
0010
0001
0010
0000
0001
0000
,
0001
2000
0000
3020
,
0000
0230
0000
0000
,
0000
0301
0001
2000
,
0000
3001
0010
0200
,
0000
0310
0010
0001
,
0001
2000
0000
3010
,
0100
0001
0001
0200
,
0000
0310
1000
0200
,
0000
0310
0001
0010
,
0100
1000
1000
0001
,
0001
0200
0000
0320
,
0000
1030
0100
1000
,
0001
0200
0000
0320
,
0000
1030
0001
0200
,
0000
0301
0001
0010
,
0010
0100
0100
1000
,
1000
0001
1000
0001
,
0100
0020
0000
0030
,
0000
2000
0000
0000
,
0000
3002
0000
0000
,
0000
0203
0000
0000
,
0000
0320
0000
0000
,
0000
1030
0000
1000
,
0000
0002
0000
0103
,
0000
0010
0000
0010
,
0000
2000
0000
3100
,
0000
2000
0000
3100
,
0000
0020
0000
0031
,
0000
0100
0001
0100
,
0010
2000
0000
3100
,
0010
0002
0000
1003
,
0010
0200
0000
0310
,
1000
0100
1000
0010
,
0100
0001
1000
0001
,
0010
0200
0000
2300
,
0000
3001
0100
0010
,
0100
0002
0000
2003
,
0000
3100
0010
0002
,
0000
1003
1000
0010
,
0010
0100
0100
0001
,
0001
1000
0001
1000
,
0010
0200
0000
0300
;

//---------------dance-single - ----------------
#NOTEDATA:;
#CHARTNAME:;
#STEPSTYPE:dance-single;
#DESCRIPTION:;
#CHARTSTYLE:;
#DIFFICULTY:Beginner;
#METER:1;
#RADARVALUES:0.117356,0.199391,0.000000,0.185729,0.000000,115.000000,115.000000,0.000000,26.000000,0.000000,0.000000,0.000000,0.000000,0.000000,0.117356,0.199391,0.000000,0.185729,0.000000,115.000000,115.000000,0.000000,26.000000,0.000000,0.000000,0.000000,0.000000,0.000000;
#CREDIT:Musey;
#NOTES:
// measure 0
0000
0000
0000
0000
,  // measure 1
0000
0000
0000
0000
,  // measure 2
0000
0000
0000
0000
,  // measure 3
0000
0000
0000
0000
,  // measure 4
0000
0000
0000
0000
,  // measure 5
0000
0000
0000
0000
,  // measure 6
0000
0000
0000
0000
,  // measure 7
0000
0000
0000
0000
,  // measure 8
0000
1000
0000
1000
,  // measure 9
0000
0001
0000
0001
,  // measure 10
0000
0200
0000
0000
,  // measure 11
0000
0320
0000
0000
,  // measure 12
0000
1030
0000
1000
,  // measure 13
0000
0001
0000
0001
,  // measure 14
0000
0200
0000
0000
,  // measure 15
0000
0301
0000
0000
,  // measure 16
0000
1000
0000
1000
,  // measure 17
0000
1000
0000
1000
,  // measure 18
0000
0001
0000
0001
,  // measure 19
0000
0001
0000
0000
,  // measure 20
0000
0200
0000
0000
,  // measure 21
0000
0310
0000
0010
,  // measure 22
0000
0100
0000
0010
,  // measure 23
0000
0000
0000
0000
,  // measure 24
0000
1000
0000
0001
,  // measure 25
0000
1000
0000
0100
,  // measure 26
0000
1000
0000
1000
,  // measure 27
0000
0010
0000
0010
,  // measure 28
0000
0100
0000
0100
,  // measure 29
0000
0001
0000
0001
,  // measure 30
0000
2000
0000
0000
,  // measure 31
0000
3010
0000
0000
,  // measure 32
0000
0200
0000
0000
,  // measure 33
0000
0302
0000
0000
,  // measure 34
0000
2003
0000
0000
,  // measure 35
0000
3020
0000
0000
,  // measure 36
0000
0230
0000
0000
,  // measure 37
0000
0302
0000
0000
,  // measure 38
0000
0023
0000
0000
,  // measure 39
0000
0130
0000
0000
,  // measure 40
0000
1000
0000
1000
,  // measure 41
0000
0001
0000
0001
,  // measure 42
0000
0100
0001
0100
,  // measure 43
0000
0010
1000
0010
,  // measure 44
0000
1000
0000
1000
,  // measure 45
0000
0100
0000
0100
,  // measure 46
0000
1000
0100
0010
,  // measure 47
0000
0001
0010
0100
,  // measure 48
0000
2000
0000
3001
,  // measure 49
0000
0002
0000
0103
,  // measure 50
0000
0200
0000
0310
,  // measure 51
0000
1000
0000
1000
,  // measure 52
0000
0001
0000
0001
,  // measure 53
0000
1000
0000
1000
,  // measure 54
0000
0020
0000
0000
,  // measure 55
0000
0230
0000
0300
,  // measure 56
0000
0010
0000
0000
,  // measure 57
0000
0010
0000
0000
,  // measure 58
0000
0100
0000
0000
,  // measure 59
0000
0100
0000
0000
,  // measure 60
0000
0002
0000
0000
,  // measure 61
0000
1003
0000
0000
,  // measure 62
0000
2000
0000
0000
,  // measure 63
0000
3001
0000
0000
,  // measure 64
0000
0200
0000
0000
,  // measure 65
0000
0302
0000
0000
,  // measure 66
0000
1003
0000
1000
,  // measure 67
0000
0010
0000
1000
,  // measure 68
0000
2000
0000
0000
,  // measure 69
0000
3020
0000
0000
,  // measure 70
0000
0130
0000
0001
,  // measure 71
0000
0100
0000
0001
,  // measure 72
0000
0002
0000
0013
,  // measure 73
0000
0010
0000
0100
,  // measure 74
0000
2000
0000
3010
,  // measure 75
0000
0100
0000
0100
,  // measure 76
0000
0001
0000
0001
,  // measure 77
0000
1000
0000
1000
,  // measure 78
0000
0010
0000
0010
,  // measure 79
0000
0020
0000
0030
;
