#TITLE:CBZ;
#SUBTITLE:(Prime Time);
#ARTIST:BSS (SEVENTEEN);
#TITLETRANSLIT:;
#SUBTITLETRANSLIT:;
#ARTISTTRANSLIT:;
#GENRE:;
#CREDIT:Musey;
#BANNER:AV.avi;
#BACKGROUND:bg.png;
#LYRICSPATH:;
#CDTITLE:;
#MUSIC:audio.ogg;
#OFFSET:-0.064000;
#SAMPLESTART:43.620113;
#SAMPLELENGTH:14.999990;
#SELECTABLE:YES;
#BPMS:0.000000=220.000000
;
#STOPS:
;
#BGCHANGES:0.000=MV.avi=1.000=1=0=1===CrossFade==,
99999=-nosongbg-=1.000=0=0=0 // don't automatically add -songbackground-
;
#KEYSOUNDS:;
#ATTACKS:;

//---------------dance-single - ----------------
#NOTES:
     dance-single:
     :
     Challenge:
     15:
     0.698318,0.762171,0.506706,0.357675,0.000000,492.000000,441.000000,51.000000,36.000000,0.000000,0.000000,0.698318,0.762171,0.506706,0.357675,0.000000,492.000000,441.000000,51.000000,36.000000,0.000000,0.000000:
0000
0000
0000
0000
,
0000
0000
0000
0000
,
0000
0000
0000
0000
,
0000
0000
0000
0000
,
0000
0000
0000
0000
,
0000
0000
0000
0000
,
0000
0000
0000
0000
,
0000
0000
0000
1000
,
1010
0000
1000
0100
0010
0001
0100
0010
,
1000
0001
0100
0001
,
0011
0000
0001
0010
0100
1000
0010
1000
,
0001
0000
0100
0000
0100
0001
0010
0000
,
0101
0000
1000
0001
0010
0001
0100
0010
,
1000
0000
0001
0000
0100
0010
1000
0000
,
0001
0000
0100
0010
0001
0010
0100
0001
,
1000
0000
0001
0000
0100
0010
0100
0000
,
0001
0000
1000
0010
0000
0100
0001
0100
,
0010
0000
0100
0000
0001
0010
0001
0000
,
1001
0000
0100
0010
0000
0010
1000
0001
,
0100
0000
0001
0000
0010
0100
0010
0000
,
0001
0000
0001
1000
0000
0001
0100
0001
,
0010
0000
0001
0000
1000
0100
1000
0000
,
0001
0000
0100
0010
0000
0010
0100
0001
,
1000
0000
0100
0000
0010
0001
1000
0000
,
0020
0000
1030
0001
2000
0000
3010
0100
,
0002
0000
0103
0010
1000
0010
2000
0000
,
3002
0023
0230
2300
,
3010
0000
0100
0001
0100
0001
1000
0000
,
0020
0000
1030
0100
2000
0000
3001
0000
,
0200
0000
0310
0100
0001
0010
0100
0000
,
1001
0000
1000
0100
0001
0100
1000
0001
,
0100
0001
0000
1001
,
0101
0001
0010
0100
,
1000
0000
0001
1000
0010
1000
0001
0000
,
0100
0000
0202
0303
0001
0000
0010
0000
,
0001
0100
0001
1000
0100
0010
0001
1000
,
0010
0000
1000
0000
0001
1000
0010
0000
,
0100
0000
0010
0100
0000
0100
0001
0000
,
0000
0000
2000
0000
,
3002
0000
0000
0000
0203
0000
0000
0300
,
1001
0000
1000
0010
0100
0001
0010
0100
,
1000
0000
0002
0000
1000
0000
1003
0010
,
0100
0000
0100
0001
1000
0100
1000
0001
,
0010
0001
0100
0010
,
1001
0000
0001
0100
0020
0000
1030
0000
,
0110
0000
0100
0001
1000
0100
0001
0100
,
2000
0000
3001
0010
0001
1000
0010
1000
,
0100
1000
0010
0100
,
1001
0000
0001
0100
0010
0100
0001
0010
,
0100
0000
0020
0000
0031
0000
1000
0010
,
1000
0000
1000
0010
0001
0010
1000
0001
,
0010
0000
0001
0000
0100
0001
0100
0000
,
0011
0000
0001
1000
0100
1000
0001
0000
,
1010
0000
1000
0010
0100
0001
0010
0000
,
1001
0000
0010
0000
1000
0000
0100
1000
,
0001
0000
0001
0010
0100
0000
0100
0000
,
1001
0000
1000
0100
1000
0001
0100
0010
,
0000
0100
0101
0100
,
1001
0000
0010
0100
0001
0010
0100
1000
,
0000
0001
0101
0001
,
0110
0000
0010
0100
0001
0100
0010
1000
,
0000
0010
1010
0010
,
1001
0000
0010
1000
0100
0001
0100
1000
,
0000
0011
1100
0011
,
1100
0000
1000
0010
1000
0001
0010
0001
,
0100
1100
0101
1100
,
0101
0000
1000
0010
0001
0010
1000
0001
,
0100
0011
0110
0011
,
0110
0000
1000
0001
1000
0010
0100
0001
,
0010
0011
1100
0011
,
0000
0000
2000
0000
,
3002
0000
0000
0000
0023
0000
0000
0030
,
0101
0000
0010
1000
0001
0010
0001
1000
,
0100
0000
2001
0000
3010
0000
1000
0001
,
0100
0010
0100
0001
0010
1000
0010
0100
,
1000
0002
0203
0310
,
1002
0000
1003
0100
0020
0030
0011
0000
,
1001
0000
0100
0010
0001
0010
0100
0001
,
0010
0000
0001
0010
1000
0010
0100
1000
,
0001
0000
0100
0000
0010
1000
0010
0000
,
1002
0000
0013
0001
1000
0001
0010
0100
,
1000
0002
0000
0013
0200
0000
0310
0001
,
1000
0010
0001
0010
1000
0100
0001
0100
,
1000
0001
0100
0010
1000
0001
0010
0000
,
0210
0000
0310
0001
2000
0000
3001
0000
,
0102
0000
0013
0100
2000
0000
3001
0000
,
1100
0010
0100
0001
,
0011
0010
0100
1000
,
1100
0001
0011
1000
,
1100
0000
0001
0000
0011
0000
0001
0200
,
0000
0300
0000
0000
;

//---------------dance-single - ----------------
#NOTES:
     dance-single:
     :
     Hard:
     12:
     0.583351,0.628540,0.149031,0.178838,0.000000,411.000000,396.000000,15.000000,18.000000,0.000000,0.000000,0.583351,0.628540,0.149031,0.178838,0.000000,411.000000,396.000000,15.000000,18.000000,0.000000,0.000000:
0000
0000
0000
0000
,
0000
0000
0000
0000
,
0000
0000
0000
0000
,
0000
0000
0000
0000
,
0000
0000
0000
0000
,
0000
0000
0000
0000
,
0000
0000
0000
0000
,
0000
0000
0000
0002
,
1003
0000
0001
0000
1000
0100
0010
0000
,
0001
0100
0010
2000
,
3010
0000
1000
0000
0001
1000
0010
0000
,
0100
0001
0010
0002
,
1003
0000
0001
0000
0100
0010
1000
0000
,
0001
1000
0100
0010
,
0001
0000
1000
0000
0010
1000
0001
0000
,
0100
0001
0010
0100
,
1000
0000
0001
1000
0000
0001
1000
0001
,
0100
0010
0100
0001
,
0010
0000
0100
0010
0000
0001
1000
0001
,
1000
0010
0100
0001
,
0010
0000
0100
1000
0000
1000
0001
1000
,
0010
0100
0001
0010
,
0100
0000
0010
0001
0000
1000
0100
1000
,
0100
0010
0001
1000
,
0020
0000
1030
0001
0200
0000
0301
0000
,
0010
0001
1000
0010
,
0100
0001
1000
0010
,
0100
0000
0001
0010
0001
0000
1000
0000
,
0020
1030
0002
0103
,
0010
0000
0100
0001
2000
0000
3100
0000
,
0010
0000
0001
0000
1000
0001
1000
0000
,
0010
0100
0000
0000
,
1001
0001
0100
0010
,
0100
0000
0001
1000
0001
1000
0010
0000
,
0100
0010
1000
0001
,
0100
0000
0010
0100
0010
0100
0001
0000
,
0010
0100
1000
0001
,
1000
0000
0010
1000
0010
1000
0001
0000
,
0010
0000
0002
0000
,
2003
0000
3200
0300
,
1010
0000
1000
0000
0001
1000
0010
0000
,
0100
0000
0001
0000
0010
0000
0100
1000
,
0010
0000
1000
0100
0010
0001
0010
0100
,
1000
0001
0010
0001
,
1000
0000
0010
1000
0100
0000
1000
0000
,
0010
0000
0100
0010
0001
0000
0001
0010
,
0100
0000
0010
0100
0001
0010
0100
1000
,
0001
1000
0001
1000
,
0010
0000
0100
0000
0001
0100
0010
0000
,
1000
0000
0100
0000
1000
0000
0100
0010
,
0001
0000
1000
0010
1000
0000
0001
0000
,
0100
0001
0010
0100
,
1000
0000
0001
1000
0020
0000
0130
0000
,
0001
0000
1000
0100
2000
0000
3001
0000
,
1001
0000
0010
0000
0100
0000
0001
0010
,
0100
0000
0010
0001
1000
0000
0010
0000
,
1001
0000
0001
0100
0001
0010
0100
0010
,
0001
1000
1000
0010
,
1000
0000
1000
0010
1000
0010
0100
0010
,
1000
0001
0001
0100
,
0010
0000
0010
0100
0010
0100
0001
0100
,
0010
1000
1000
1000
,
1000
0000
1000
0100
1000
0100
0010
0100
,
1000
0001
0100
0001
,
0101
0000
0001
0010
0100
1000
0001
1000
,
0010
0100
0100
0010
,
0110
0000
1000
0100
0010
0001
0010
0100
,
1000
0001
0001
0001
,
0101
0000
0001
0010
0100
1000
0100
0010
,
0001
0001
0001
0001
,
0000
0000
2000
0000
,
3002
0000
0000
0000
0203
0000
0000
0300
,
0110
0000
0001
0000
0100
0001
0100
0000
,
0010
0000
1000
0000
0100
0000
1000
0001
,
1000
0000
0010
0000
1000
0010
0100
0000
,
0001
1000
0100
0010
,
0001
0000
1000
0001
2000
0000
3010
0000
,
0100
0000
0001
0100
0001
0000
0010
0100
,
0010
0000
0001
1000
0010
0100
0001
0010
,
0001
0100
0010
0100
,
0001
0000
0010
0100
1000
0000
0001
0000
,
1000
0000
0010
0000
0100
0000
0001
1000
,
0100
0000
1000
0100
1000
0000
0001
0100
,
0010
0000
0100
0001
0010
0000
0100
0000
,
1100
0000
0001
1000
0010
0000
0100
0000
,
0011
0000
0100
0010
0001
0000
1000
0000
,
1001
0010
0100
0001
,
0011
0100
1000
0001
,
1001
0010
1001
0010
,
1001
0000
0010
0000
1000
0000
0001
0200
,
0000
0000
0000
0300
0000
0000
0000
0000
;

//---------------dance-single - ----------------
#NOTES:
     dance-single:
     :
     Medium:
     9:
     0.454191,0.494536,0.000000,0.198708,0.000000,320.000000,320.000000,0.000000,20.000000,0.000000,0.000000,0.454191,0.494536,0.000000,0.198708,0.000000,320.000000,320.000000,0.000000,20.000000,0.000000,0.000000:
0000
0000
0000
0000
,
0000
0000
0000
0000
,
0000
0000
0000
0000
,
0000
0000
0000
0000
,
0000
0000
0000
0000
,
0000
0000
0000
0000
,
0000
0000
0000
0000
,
0000
0000
0000
2000
,
3001
0000
0100
0000
0001
0010
0001
0000
,
1000
0001
0100
0000
,
0001
0000
1000
0000
0100
1000
0100
0000
,
1000
0001
0100
0000
,
0010
0000
0100
0000
0001
0010
0001
0000
,
1000
0001
0100
0000
,
0001
0000
1000
0000
0010
1000
0010
0000
,
0100
0001
0100
0000
,
0002
0000
1003
0000
,
0010
1000
0100
1000
,
0020
0000
0130
0000
,
0100
0001
0100
0001
,
0020
0000
0031
0000
,
1000
0001
1000
0010
,
0200
0000
0310
0000
,
1000
0001
1000
0001
,
0020
0000
0032
0000
,
0103
0001
1000
0010
,
1000
0100
0010
0001
,
1000
0010
0100
0000
,
0002
0000
0023
0000
,
0130
0010
0002
0000
,
1003
1000
0010
1000
,
0001
0100
0000
0001
,
0010
0100
0010
0100
,
1000
0100
1000
0100
,
1000
0001
1000
0001
,
0100
0010
0100
0001
,
0010
0001
0010
0001
,
1000
0100
1000
0100
,
0000
0000
0002
0000
,
2003
0000
3002
0000
,
0103
0000
0010
0000
0100
0010
0100
0000
,
0001
1000
0001
0010
,
0100
0000
1000
0000
0001
1000
0001
0000
,
0100
0001
0010
0100
,
1000
0001
0200
0310
,
0100
0001
0010
0001
,
1000
0010
1000
0100
,
0010
0001
1000
0010
,
0100
0000
0001
0000
1000
0001
1000
0000
,
0010
0100
0001
0010
,
0100
0000
1000
0000
0001
1000
0001
0000
,
0100
0010
1000
0001
,
0010
0100
2000
3001
,
0100
0010
0200
0301
,
0010
0100
1000
0001
,
0010
0100
1000
0001
,
1000
1000
0010
0010
,
1000
0100
0010
0001
,
1000
1000
0010
0010
,
0100
0001
0010
0100
,
1000
1000
0001
0001
,
0100
0010
1000
0001
,
1000
1000
0001
0001
,
0010
0100
1000
0001
,
1000
0000
1000
0000
0010
1000
0010
0000
,
1000
0001
0001
0001
,
0001
0000
1000
0000
0010
1000
0010
0000
,
0100
0001
0001
0001
,
0001
0000
1000
0000
0100
1000
0100
0000
,
1000
0001
0001
0001
,
0000
0000
2000
0000
,
3020
0000
0230
0000
,
0310
0000
1000
0000
0100
1000
0100
0000
,
1000
0001
0100
0010
,
1000
0000
0001
0000
0010
0001
0010
0000
,
0001
0100
0010
1000
,
0100
0000
0010
0100
0010
0000
0100
0000
,
1000
0000
0001
1000
0001
0000
0100
0000
,
0010
0000
1000
0000
0001
1000
0001
0000
,
0100
0010
1000
0100
,
0010
0000
0001
0000
1000
0001
1000
0000
,
0010
0100
0001
0010
,
0100
0000
0010
0000
0001
0010
0001
0000
,
1000
0010
0100
0001
,
1000
0000
0010
1000
0010
0000
0100
0000
,
0001
0000
0010
0001
0010
0000
0100
0000
,
1000
0001
1000
0001
,
0100
0010
0100
0010
,
1000
0100
0001
0100
,
1000
0100
0001
0200
,
0000
0000
0300
0000
;

//---------------dance-single - ----------------
#NOTES:
     dance-single:
     :
     Easy:
     5:
     0.266837,0.400149,0.039742,0.496771,0.000000,188.000000,184.000000,4.000000,50.000000,0.000000,0.000000,0.266837,0.400149,0.039742,0.496771,0.000000,188.000000,184.000000,4.000000,50.000000,0.000000,0.000000:
0000
0000
0000
0000
,
0000
0000
0000
0000
,
0000
0000
0000
0000
,
0000
0000
0000
0000
,
0000
0000
0000
0000
,
0000
0000
0000
0000
,
0000
0000
0000
0000
,
0000
0000
0000
0000
,
1000
0001
2000
0000
,
3010
0000
0010
0000
,
0100
0001
0200
0000
,
0301
0000
0001
0000
,
0010
0100
2000
0000
,
3010
0000
0010
0000
,
0100
0001
0100
0000
,
0010
0000
0010
0000
,
1000
0100
1000
0000
,
0002
0000
0103
0000
,
0001
1000
0100
0000
,
2000
0000
3100
0000
,
1000
0010
0100
0000
,
0020
0000
0130
0000
,
0001
0010
0100
0000
,
2000
0000
3001
0000
,
0002
0000
0203
0000
,
0320
0000
2030
0000
,
3002
0000
0023
0000
,
0230
0000
2300
0000
,
3001
0000
0001
0000
,
0100
0000
0100
0000
,
0010
0000
0010
0000
,
1000
0000
0000
0000
,
2000
0000
3001
0000
,
0002
0000
1003
0000
,
0100
0010
0001
0000
,
0001
0010
0100
0000
,
2000
0000
3010
0000
,
0020
0000
1030
0000
,
0000
0000
0000
0000
,
0000
0000
0000
0000
,
2000
0000
3001
0000
,
0100
0001
0100
0000
,
0020
0000
1030
0000
,
0100
0010
0001
0000
,
2000
0000
3010
0000
,
0020
0000
0130
0000
,
0002
0000
0013
0000
,
0100
0010
0001
0000
,
2000
0000
3010
0000
,
1000
0100
0010
0000
,
0002
0000
1003
0000
,
2000
0000
3010
0000
,
0100
0001
0200
0000
,
0301
0010
0200
0000
,
1300
0000
1000
0000
,
0001
0000
0001
0000
,
2000
0000
3001
0000
,
0002
0000
0103
0000
,
0200
0000
0310
0000
,
0020
0000
1030
0000
,
2000
0000
3001
0000
,
0002
0000
1003
0000
,
2000
0000
3100
0000
,
1000
0001
1000
0000
,
0020
0000
0130
0000
,
0001
0100
0001
0000
,
0020
0000
0031
0000
,
1000
0001
1000
0000
,
0020
0000
0130
0000
,
0001
1000
0100
0000
,
0000
0000
0000
0000
,
0000
0000
0000
0000
,
2000
0000
3001
0000
,
0100
0001
0010
0100
,
2000
0000
3001
0000
,
0100
0010
0100
0000
,
0020
0000
1030
0000
,
2000
0000
3001
0000
,
0010
0100
1000
0000
,
0001
1000
0010
1000
,
0020
0000
0130
0000
,
0001
0010
0100
0000
,
2000
0000
3002
0000
,
0203
0000
0320
0000
,
1030
0001
0020
0000
,
0031
1000
0200
0000
,
1300
0000
1000
0000
,
0001
0000
0001
0000
,
1001
0000
1001
0000
,
1001
0000
1001
0000
;

//---------------dance-single - ----------------
#NOTES:
     dance-single:
     :
     Beginner:
     3:
     0.161805,0.266766,0.009935,0.139096,0.000000,114.000000,113.000000,1.000000,14.000000,0.000000,0.000000,0.161805,0.266766,0.009935,0.139096,0.000000,114.000000,113.000000,1.000000,14.000000,0.000000,0.000000:
// measure 0
0000
0000
0000
0000
,  // measure 1
0000
0000
0000
0000
,  // measure 2
0000
0000
0000
0000
,  // measure 3
0000
0000
0000
0000
,  // measure 4
0000
0000
0000
0000
,  // measure 5
0000
0000
0000
0000
,  // measure 6
0000
0000
0000
0000
,  // measure 7
0000
0000
0000
0000
,  // measure 8
1000
0000
0000
0000
,  // measure 9
1000
0000
0000
0000
,  // measure 10
0001
0000
0000
0000
,  // measure 11
0001
0000
0000
0000
,  // measure 12
0100
0000
0000
0000
,  // measure 13
0100
0000
0000
0000
,  // measure 14
0010
0000
0000
0000
,  // measure 15
0010
0000
0000
0000
,  // measure 16
1000
0000
0000
0000
,  // measure 17
1000
0000
0000
0000
,  // measure 18
0001
0000
0000
0000
,  // measure 19
0001
0000
0000
0000
,  // measure 20
0100
0000
0000
0000
,  // measure 21
0100
0000
0000
0000
,  // measure 22
0010
0000
0000
0000
,  // measure 23
0010
0000
0000
0000
,  // measure 24
1000
0000
0000
0000
,  // measure 25
0001
0000
0000
0000
,  // measure 26
1000
0000
0000
0000
,  // measure 27
0001
0000
0000
0000
,  // measure 28
0100
0000
0000
0000
,  // measure 29
0100
0000
0000
0000
,  // measure 30
0020
0000
0000
0000
,  // measure 31
0130
0000
0000
0000
,  // measure 32
1000
0000
1000
0000
,  // measure 33
1000
0000
0000
0000
,  // measure 34
0001
0000
0001
0000
,  // measure 35
0001
0000
0000
0000
,  // measure 36
0100
0000
0100
0000
,  // measure 37
0100
0000
0000
0000
,  // measure 38
0010
0000
0000
0000
,  // measure 39
0000
0000
0000
0000
,  // measure 40
2000
0000
0000
0000
,  // measure 41
3001
0000
0001
0000
,  // measure 42
0100
0000
0100
0000
,  // measure 43
0001
0000
0010
0000
,  // measure 44
0200
0000
0000
0000
,  // measure 45
0320
0000
0000
0000
,  // measure 46
0031
0000
0001
0000
,  // measure 47
1000
0000
1000
0000
,  // measure 48
0020
0000
0000
0000
,  // measure 49
1030
0000
1000
0000
,  // measure 50
0200
0000
0000
0000
,  // measure 51
1300
0000
1000
0000
,  // measure 52
0002
0000
0000
0000
,  // measure 53
0203
0000
0000
0000
,  // measure 54
0301
0000
0001
0000
,  // measure 55
1000
0000
1000
0000
,  // measure 56
0010
0000
1000
0000
,  // measure 57
0010
0000
0000
0000
,  // measure 58
0100
0000
0001
0000
,  // measure 59
0100
0000
0000
0000
,  // measure 60
1000
0000
0001
0000
,  // measure 61
1000
0000
0000
0000
,  // measure 62
0010
0000
1000
0000
,  // measure 63
0010
0000
0000
0000
,  // measure 64
0100
0000
0100
0000
,  // measure 65
0001
0000
0001
0000
,  // measure 66
0100
0000
0100
0000
,  // measure 67
0010
0000
0010
0000
,  // measure 68
1000
0000
1000
0000
,  // measure 69
0001
0000
0001
0000
,  // measure 70
0000
0000
0000
0000
,  // measure 71
0000
0000
0000
0000
,  // measure 72
2000
0000
0000
0000
,  // measure 73
3001
0000
0001
0000
,  // measure 74
0200
0000
0000
0000
,  // measure 75
0310
0000
0010
0000
,  // measure 76
1000
0000
0001
0000
,  // measure 77
1000
0000
0010
0000
,  // measure 78
0200
0000
0000
0000
,  // measure 79
0301
0000
0010
0000
,  // measure 80
0002
0000
0000
0000
,  // measure 81
0103
0000
0100
0000
,  // measure 82
0010
0000
1000
0000
,  // measure 83
0010
0000
1000
0000
,  // measure 84
0002
0000
0000
0000
,  // measure 85
0203
0000
0000
0000
,  // measure 86
0310
0000
0010
0000
,  // measure 87
1000
0000
1000
0000
,  // measure 88
0001
0000
0001
0000
,  // measure 89
0001
0000
1001
0000
;
