#TITLE:CALYPSO;
#SUBTITLE:;
#ARTIST:ero808 x NXSTY;
#TITLETRANSLIT:;
#SUBTITLETRANSLIT:;
#ARTISTTRANSLIT:;
#GENRE:;
#CREDIT:;
#BANNER:bn.png;
#BACKGROUND:bg.png;
#LYRICSPATH:;
#CDTITLE:;
#MUSIC:audio.mp3;
#OFFSET:-0.072000;
#SAMPLESTART:112.217613;
#SAMPLELENGTH:14.999991;
#SELECTABLE:YES;
#BPMS:0.000000=120.000000
;
#STOPS:
;
#BGCHANGES:;
#KEYSOUNDS:;
#ATTACKS:;

//---------------dance-single - ----------------
#NOTES:
     dance-single:
     :
     Challenge:
     14:
     0.690587,0.681442,0.293380,0.213367,0.620099,725.000000,681.000000,44.000000,32.000000,0.000000,0.000000,0.690587,0.681442,0.293380,0.213367,0.620099,725.000000,681.000000,44.000000,32.000000,0.000000,0.000000:
// measure 0
0000
0000
0000
0000
,  // measure 1
0001
0000
0000
0100
0010
0000
1000
0000
0100
0000
0000
0000
2010
0000
3000
0000
,  // measure 2
0001
0000
0000
0001
0100
0010
1000
0001
1000
0000
0010
0100
1000
0100
0010
0000
,  // measure 3
0100
0000
0000
0001
0100
0000
0100
0000
0010
0000
0000
0000
2001
0000
3000
0000
,  // measure 4
0100
0000
0000
0000
1000
0000
1000
0100
0010
0000
0100
0010
0001
0000
0001
0000
,  // measure 5
0010
0000
0000
0001
0100
0000
0100
0000
0001
0000
0000
0000
1002
0000
0003
0000
,  // measure 6
0100
0000
0000
1000
0100
0001
0100
1000
0001
0000
0100
0010
1000
0000
1000
0000
,  // measure 7
0100
0000
0000
1000
0010
1000
0010
0100
0001
0000
1000
0100
1000
0000
0010
0000
,  // measure 8
0100
0000
0000
0001
1000
0100
1000
0000
0001
0000
0010
0100
0010
0000
0001
0000
,  // measure 9
1001
0000
0100
0001
0100
0000
0010
0100
0010
0000
1000
0000
0001
0100
1000
0100
,  // measure 10
0010
0000
1000
0000
0001
0000
0001
0010
1000
0000
0010
0000
0001
0010
1000
0010
,  // measure 11
0001
0000
1000
0000
0100
0000
1000
0001
1000
0000
0001
0000
1000
0010
0100
0001
,  // measure 12
0010
0000
0001
0000
1000
0000
0001
0010
0001
0000
1000
0000
0001
0010
0100
1000
,  // measure 13
0001
0000
1000
0100
0001
0000
0100
0000
1000
0000
0010
0000
0200
0000
0000
0000
,  // measure 14
0301
0000
1000
0001
1000
0000
0001
1000
0001
0000
1000
0000
0001
0010
0100
1000
,  // measure 15
0001
0000
0100
0001
0010
0000
0001
1000
0010
0000
1000
0000
0100
1000
0100
0010
,  // measure 16
0001
0000
1000
0100
0010
1000
0001
0000
0100
0000
1000
0100
0010
0001
0010
0001
,  // measure 17
1000
0000
0000
0000
0001
0000
1000
0000
0010
0000
0010
0100
0010
0000
1000
0000
,  // measure 18
1001
0000
0000
0000
0100
0001
1000
0000
0010
0000
0100
0001
0010
0000
0100
0000
,  // measure 19
1100
0000
0000
0000
1000
0100
0001
0000
0100
0000
0001
0100
1000
0000
0001
0000
,  // measure 20
1010
0000
0000
0000
0001
0100
1000
0000
0100
0000
0001
1000
0001
0000
0100
0000
,  // measure 21
1001
0000
0000
0000
0001
0010
1000
0000
0010
0000
0100
1000
0100
1000
0001
0000
,  // measure 22
0100
0000
0010
0000
1000
0001
0100
0000
0001
0000
0100
0010
0100
0001
1000
0000
,  // measure 23
0200
0000
0000
0000
,  // measure 24
0300
0000
0000
0000
,  // measure 25
1001
0000
0000
1000
0100
0000
0001
0000
0100
0000
1000
0000
0002
0000
0003
0000
,  // measure 26
0101
0000
0000
1000
0010
0000
0100
0000
0001
0000
0010
0100
2000
0000
3002
0000
,  // measure 27
2003
0000
3000
0100
0010
0000
0001
0000
0010
0000
1000
0000
0020
0000
0030
0000
,  // measure 28
1001
0000
0000
0100
0001
0100
0010
1000
0001
0000
1000
0010
0001
0010
0100
0000
,  // measure 29
1001
0000
1000
0010
1000
0000
0001
0000
0010
0000
0100
0010
0001
1000
0001
1000
,  // measure 30
0100
0000
1000
0100
0001
0000
0100
0000
0010
0000
0010
0001
1000
0000
0011
0000
,  // measure 31
2010
0000
3001
0100
0001
0000
0010
0000
0100
0000
1000
0001
0100
0010
0100
0010
,  // measure 32
1000
0000
0001
1000
0100
0000
0010
0000
0001
0000
1000
0100
1000
0000
0101
0000
,  // measure 33
1200
0000
1300
0001
1000
0000
0100
0000
0010
0000
0100
0000
2001
0000
0000
0000
,  // measure 34
3010
0000
0000
1000
0001
0100
0010
1000
0100
0000
1000
0010
0001
0010
0100
0000
,  // measure 35
0001
0000
0010
0001
0010
0000
0100
0000
1000
0000
0010
0000
1002
0000
0000
0000
,  // measure 36
1003
0000
0000
0000
0010
0100
0010
1000
0001
0000
1000
0001
0010
0100
1000
0000
,  // measure 37
0001
0000
0010
0100
0010
0000
0001
0000
0100
0000
0001
0000
0021
0000
0000
0000
,  // measure 38
0031
0000
0000
0100
0001
1000
0001
0010
0100
0000
1000
0001
0010
0001
0100
0000
,  // measure 39
0100
0000
0001
0000
0010
0001
0010
0001
0100
0000
0010
1000
0100
0000
0010
0000
,  // measure 40
0100
0000
0000
1000
0001
1000
0100
0000
0010
0000
0001
0010
0100
0000
0100
0000
,  // measure 41
1001
0000
0001
0100
0001
0000
0010
0000
1000
0000
0010
0000
0011
0000
1000
0000
,  // measure 42
0002
0000
0000
0000
0000
0000
0000
0000
0000
0000
0000
0000
0000
0000
0000
0000
0000
0000
0000
0000
0000
0000
0000
0000
0000
0000
0000
0000
0000
0000
0000
0000
0000
0000
0000
0000
0000
0000
0000
0000
0000
0000
0000
0000
0000
0000
0000
0003
0101
0000
0000
0000
0000
0000
0000
0000
0000
0000
0000
0000
0000
0000
0000
0000
0000
0000
0000
0000
0000
0000
0000
0000
0001
0000
0000
0000
0000
0000
0000
0000
0000
0000
0000
0000
0000
0000
0000
0000
0000
0000
0000
0000
0000
0000
0000
0000
2000
0000
0000
0000
0000
0000
0000
0000
0000
0000
0000
0000
0000
0000
0000
0000
0000
0000
0000
0000
0000
0000
0000
0000
0000
0000
0000
0000
0000
0000
0000
0000
0000
0000
0000
0000
0000
0000
0000
0000
0000
0000
0000
0000
0000
0000
0000
3000
1100
0000
0000
0000
0000
0000
0000
0000
0000
0000
0000
0000
0000
0000
0000
0000
0000
0000
0000
0000
0000
0000
0000
0000
0100
0000
0000
0000
0000
0000
0000
0000
0000
0000
0000
0000
0000
0000
0000
0000
0000
0000
0000
0000
0000
0000
0000
0000
,  // measure 43
1000
0000
0100
0010
0100
0000
1000
0000
0010
0000
0100
0000
1001
0000
0010
0000
,  // measure 44
0002
0000
0000
0000
0000
0000
0000
0000
0000
0000
0000
0000
0000
0000
0000
0000
0000
0000
0000
0000
0000
0000
0000
0000
0000
0000
0000
0000
0000
0000
0000
0000
0000
0000
0000
0000
0000
0000
0000
0000
0000
0000
0000
0000
0000
0000
0000
0003
0011
0000
0000
0000
0000
0000
0000
0000
0000
0000
0000
0000
0000
0000
0000
0000
0000
0000
0000
0000
0000
0000
0000
0000
0001
0000
0000
0000
0000
0000
0000
0000
0000
0000
0000
0000
0000
0000
0000
0000
0000
0000
0000
0000
0000
0000
0000
0000
2000
0000
0000
0000
0000
0000
0000
0000
0000
0000
0000
0000
0000
0000
0000
0000
0000
0000
0000
0000
0000
0000
0000
0000
0000
0000
0000
0000
0000
0000
0000
0000
0000
0000
0000
0000
0000
0000
0000
0000
0000
0000
0000
0000
0000
0000
0000
3000
1010
0000
0000
0000
0000
0000
0000
0000
0000
0000
0000
0000
0000
0000
0000
0000
0000
0000
0000
0000
0000
0000
0000
0000
0010
0000
0000
0000
0000
0000
0000
0000
0000
0000
0000
0000
0000
0000
0000
0000
0000
0000
0000
0000
0000
0000
0000
0000
,  // measure 45
0100
0000
0010
1000
0001
0000
0010
0000
0100
0000
0010
0000
1001
0000
0100
0000
,  // measure 46
0010
0000
0000
0000
0000
0000
0000
0000
0000
0000
0000
0000
0000
0000
0000
0000
0000
0000
0000
0000
0000
0000
0000
0000
0100
0000
0000
0000
0000
0000
0000
0000
0000
0000
0000
0000
0000
0000
0000
0000
0000
0000
0000
0000
0000
0000
0000
0000
1100
0000
0000
0000
0000
0000
0000
0000
0000
0000
0000
0000
0000
0000
0000
0000
0000
0000
0000
0000
0000
0000
0000
0000
1000
0000
0000
0000
0000
0000
0000
0000
0000
0000
0000
0000
0000
0000
0000
0000
0000
0000
0000
0000
0000
0000
0000
0000
0020
0000
0000
0000
0000
0000
0000
0000
0000
0000
0000
0000
0000
0000
0000
0000
0000
0000
0000
0000
0000
0000
0000
0000
0000
0000
0000
0000
0000
0000
0000
0000
0000
0000
0000
0000
0000
0000
0000
0000
0000
0000
0000
0000
0000
0000
0000
0030
0110
0000
0000
0000
0000
0000
0000
0000
0000
0000
0000
0000
0000
0000
0000
0000
0000
0000
0000
0000
0000
0000
0000
0000
0001
0000
0000
0000
0000
0000
0000
0000
0000
0000
0000
0000
0000
0000
0000
0000
0000
0000
0000
0000
0000
0000
0000
0000
,  // measure 47
1000
0000
0000
0000
0000
0000
0000
0000
0000
0000
0000
0000
0000
0000
0000
0000
0000
0000
0000
0000
0000
0000
0000
0000
0010
0000
0000
0000
0000
0000
0000
0000
0000
0000
0000
0000
0100
0000
0000
0000
0000
0000
0000
0000
0000
0000
0000
0000
0010
0000
0000
0000
0000
0000
0000
0000
0000
0000
0000
0000
0000
0000
0000
0000
0000
0000
0000
0000
0000
0000
0000
0000
1000
0000
0000
0000
0000
0000
0000
0000
0000
0000
0000
0000
0000
0000
0000
0000
0000
0000
0000
0000
0000
0000
0000
0000
0200
0000
0000
0000
0000
0000
0000
0000
0000
0000
0000
0000
0000
0000
0000
0000
0000
0000
0000
0000
0000
0000
0000
0000
0000
0000
0000
0000
0000
0000
0000
0000
0000
0000
0000
0000
0000
0000
0000
0000
0000
0000
0000
0000
0000
0000
0000
0300
1100
0000
0000
0000
0000
0000
0000
0000
0000
0000
0000
0000
0000
0000
0000
0000
0000
0000
0000
0000
0000
0000
0000
0000
0000
0000
0000
0000
0000
0000
0000
0000
0000
0000
0000
0000
0000
0000
0000
0000
0000
0000
0000
0000
0000
0000
0000
0000
,  // measure 48
0001
0010
0100
0010
0001
1000
0001
1000
0100
0010
0100
1000
0001
0100
0001
0100
,  // measure 49
0010
0000
0000
0000
1000
0100
1000
0000
0001
0000
1000
0100
0001
0000
0000
0000
,  // measure 50
0001
1000
0010
1000
0100
0000
0010
0000
0100
0000
1000
0100
0010
0000
0001
0000
,  // measure 51
0101
0000
0000
0000
0001
1000
0100
0000
0010
0000
0100
1000
0001
0000
0000
0000
,  // measure 52
1000
0001
0010
0100
1000
0000
0010
0100
0010
0000
0100
0010
0100
0000
0001
0000
,  // measure 53
1001
0000
0000
0000
1000
0100
0010
0000
0001
0000
0010
0100
1000
0100
0010
0000
,  // measure 54
0001
0000
0100
0010
1000
0000
0001
0000
1000
0100
0010
0001
1000
0000
0001
0000
,  // measure 55
0200
0000
0000
0000
,  // measure 56
0300
0000
0000
0000
,  // measure 57
1001
0000
1000
0010
1000
0000
0001
0000
0010
0000
0100
0010
0001
1000
0001
1000
,  // measure 58
0100
0000
1000
0100
0001
0000
0100
0000
0010
0000
0010
0001
1000
0000
0011
0000
,  // measure 59
2010
0000
3001
0100
0001
0000
0010
0000
0100
0000
1000
0001
0100
0010
0100
0010
,  // measure 60
1000
0000
0001
1000
0100
0000
0010
0000
0001
0000
1000
0100
1000
0000
0101
0000
,  // measure 61
2100
0000
3001
1000
0001
0100
0010
0000
2000
0000
3010
0100
0001
1000
0001
1000
,  // measure 62
0100
0000
1000
0100
0010
0100
1000
0000
0002
0000
0103
0010
0100
0000
1001
0000
,  // measure 63
2010
0000
3001
0010
1000
0010
0001
0000
2000
0000
3001
0010
0100
1000
0100
1000
,  // measure 64
0001
0000
0100
0010
1000
0000
1000
0001
0200
0000
0310
0100
0010
0001
0010
0000
,  // measure 65
1001
0000
1000
0001
1000
0000
0100
0000
0010
0000
0100
0000
2001
0000
0000
0000
,  // measure 66
3001
0000
0000
1000
0001
0100
0010
1000
0100
0000
1000
0010
0001
0010
0100
0000
,  // measure 67
0001
0000
0010
0001
0010
0000
0100
0000
1000
0000
0010
0000
1002
0000
0000
0000
,  // measure 68
1003
0000
0000
0000
0010
0100
0010
1000
0001
0000
1000
0001
0010
0100
1000
0000
,  // measure 69
0001
0000
0010
0100
0010
0000
0001
0000
0100
0000
0001
0000
0021
0000
0000
0000
,  // measure 70
0031
0000
0000
0100
0001
1000
0001
0010
0100
0000
1000
0001
0010
0001
0100
0000
,  // measure 71
0100
0000
0001
0000
0010
0001
0010
0001
0100
0000
0010
1000
0100
0000
0010
0000
,  // measure 72
0100
0000
0000
1000
0001
1000
0100
0000
0010
0000
0001
0010
0100
0000
1000
0000
,  // measure 73
1001
0000
0000
0000
;

//---------------dance-single - ----------------
#NOTES:
     dance-single:
     :
     Hard:
     11:
     0.519131,0.534502,0.213367,0.053342,0.186697,545.000000,513.000000,32.000000,8.000000,0.000000,0.000000,0.519131,0.534502,0.213367,0.053342,0.186697,545.000000,513.000000,32.000000,8.000000,0.000000,0.000000:
0000
0000
0000
0000
,
1000
0000
0010
1000
0010
0000
0101
0000
,
1000
0000
0010
1000
0100
1000
0001
0010
,
0100
0000
1000
0100
0010
0000
0101
0000
,
1000
0000
0010
0100
1000
0100
0010
1000
,
0001
0000
0100
0010
1000
0000
1100
0000
,
0001
0000
0100
0010
1000
0100
1000
0010
,
0100
0000
0001
0010
0001
0010
0100
0010
,
0000
0000
1000
0001
1000
0010
1000
0001
,
0100
0010
0100
0000
0010
1000
0001
0000
,
0100
0010
1000
0001
0100
0001
0010
0100
,
1000
0010
0100
0000
0001
1000
0100
0000
,
1000
0001
1000
0100
0010
0100
1000
0001
,
0010
0001
1000
0001
0010
0000
1100
0000
,
0100
0000
0001
1000
0001
0000
1000
0100
,
0010
0000
0001
0100
0010
1000
0100
1000
,
0010
0000
0010
0000
1000
0000
0001
0000
0100
0000
0010
0000
1000
0010
1000
0010
,
1000
0000
0000
0000
0100
0000
0001
0000
1000
0000
0010
0100
0010
0000
0000
0000
,
0101
0000
0000
0000
0001
0000
0010
0000
0001
0000
1000
0010
1000
0000
0010
0000
,
0110
0000
0000
0000
1000
0000
0010
0000
1000
0000
0100
0010
0100
0000
1000
0000
,
1001
0000
0000
0000
0001
0000
0010
0000
0100
0000
1000
0001
1000
0000
0001
0000
,
0101
0000
0000
0000
0001
1000
0001
0000
0100
0000
0010
0000
1000
0000
0100
0000
,
1000
0000
0000
0000
0010
0100
0010
0000
1000
0000
0100
0000
0010
0000
0100
0000
,
2000
0000
0000
0000
,
3000
0000
0000
0000
,
1000
0000
0000
0001
0010
0000
0001
0000
0200
0000
0300
0000
0110
0000
0000
0000
,
1001
0000
0000
1000
0010
0000
1000
0000
0100
0000
0010
0001
0010
0000
0010
0000
,
0002
0000
0000
1003
0100
0000
1000
0000
0010
0000
0000
0000
1001
0000
0000
0000
,
0110
0000
0000
0010
1000
0000
0010
0000
0100
0000
0001
0010
0001
0000
1000
0000
,
0100
0000
1000
0001
1000
0000
0100
0000
0010
0000
0001
0010
0001
0000
0010
0000
,
0100
0000
1000
0010
1000
0000
0001
0000
0100
0000
0010
0100
0010
0000
1000
0000
,
0001
0000
0100
0001
0100
0000
0010
0000
1000
0000
0001
0010
0001
0000
1000
0000
,
0100
0000
1000
0001
1000
0000
0001
0000
0001
0000
0100
0010
0100
0000
0010
0000
,
0010
0000
1000
0001
0010
0000
0001
0000
1000
0000
0000
0000
0110
0000
0000
0000
,
1001
0000
1000
0010
0001
0010
1000
0001
,
1000
0000
0010
0100
0010
0000
1000
0000
0100
0000
0000
0000
1001
0000
0000
0000
,
0110
0000
0001
0010
0001
0100
0010
1000
,
0100
0000
1000
0001
1000
0000
0001
0000
0100
0000
0000
0000
0110
0000
0000
0000
,
1010
0000
1000
0010
0100
0001
0100
1000
,
0100
0000
0001
1000
0010
1000
0001
0100
,
0010
0000
0000
1000
0100
1000
0100
0000
0100
0000
0010
0001
0010
0000
1000
0000
,
0001
0001
0010
0010
0100
0100
1000
1000
,
0002
0000
0103
0010
1000
0000
1100
0000
,
0001
0001
1000
1000
0100
0100
0010
0010
,
0002
0000
1003
0010
1000
0000
1100
0000
,
0001
0001
0010
0010
1000
1000
0010
0010
,
0001
0001
0100
0001
1000
0000
1100
0000
,
0010
1000
0001
1000
0001
0000
0110
0000
,
1000
0000
1000
0001
0010
0100
1000
0000
,
1001
0000
0000
0000
0100
0010
0001
0000
1000
0000
0000
0000
0001
0000
0000
0000
,
1000
0010
1000
0000
0001
0000
0000
0000
0100
0000
0000
0000
1000
0000
0001
0000
,
1001
0000
0000
0000
0100
1000
0100
0000
1000
0000
0000
0000
0001
0000
0000
0000
,
0010
1000
0010
0000
1000
0000
0000
0000
0001
0000
0000
0000
0010
0000
0100
0000
,
0101
0000
0000
0000
1000
0010
1000
0000
0001
0000
0100
0001
0100
0000
0010
0000
,
0100
0001
1000
0000
0010
0000
0100
0010
0100
0000
0001
0000
0010
0000
0100
0000
,
0020
0000
0000
0000
,
0030
0000
0000
0000
,
1001
0000
0000
0001
0100
0000
0100
0000
0010
0000
1000
0000
0002
0000
0000
0000
,
1003
0000
0000
0010
0100
0000
0010
0000
1000
0000
0001
0100
0001
0000
1000
0000
,
0001
0000
0000
1000
0100
0000
1000
0000
0010
0000
0100
0000
0020
0000
0000
0000
,
1030
0000
0001
0000
0100
0010
1000
0000
1000
0000
0100
0010
0001
0000
1000
0000
,
0100
0000
1000
0001
1000
0000
0100
0000
0010
0000
0001
0010
0001
0000
0010
0000
,
0100
0000
1000
0010
1000
0000
0001
0000
0100
0000
0010
0100
0010
0000
1000
0000
,
0001
0000
0100
0001
0100
0000
0010
0000
1000
0000
0001
0010
0001
0000
1000
0000
,
0100
0000
1000
0001
1000
0000
0001
0000
0001
0000
0100
0010
0100
0000
0010
0000
,
0010
0000
1000
0001
0010
0000
0001
0000
1000
0000
0000
0000
0110
0000
0000
0000
,
1001
0000
1000
0010
0001
0010
1000
0001
,
1000
0000
0010
0100
0010
0000
1000
0000
0100
0000
0000
0000
1001
0000
0000
0000
,
0110
0000
0001
0010
0001
0100
0010
1000
,
0100
0000
1000
0001
1000
0000
0001
0000
0100
0000
0000
0000
0110
0000
0000
0000
,
1010
0000
1000
0010
0100
0001
0100
1000
,
0100
0000
0001
1000
0010
1000
0001
0100
,
0010
0000
0000
1000
0100
1000
0100
0000
0100
0000
0010
0001
0010
0000
1000
0000
;

//---------------dance-single - ----------------
#NOTES:
     dance-single:
     :
     Medium:
     9:
     0.395301,0.365058,0.133355,0.180029,0.000000,415.000000,395.000000,20.000000,27.000000,0.000000,0.000000,0.395301,0.365058,0.133355,0.180029,0.000000,415.000000,395.000000,20.000000,27.000000,0.000000,0.000000:
0000
0000
0000
0000
,
1000
0000
0001
0100
0001
0000
1010
0000
,
0101
0000
2000
0000
3010
0000
1000
0100
,
1000
0000
0010
0100
0010
0000
1001
0000
,
1100
0000
0020
0000
0130
0000
1000
0010
,
0100
0000
0001
0010
0001
0000
1001
0000
,
1010
0000
0002
0000
1003
0000
0100
1000
,
0010
0000
2000
0000
3100
0000
0001
0010
,
0001
0000
1000
0100
1000
0010
0100
0001
,
1000
0000
0001
0100
0001
0000
1000
0100
,
1000
0000
0010
0001
1000
0000
0010
0100
,
0001
0000
0001
1000
0100
0000
0100
1000
,
0010
0000
0001
0010
0100
0000
0001
1000
,
0001
0000
1000
0100
1000
0010
0100
0000
,
0001
0000
1000
0100
1000
0000
0001
0010
,
0001
0000
1000
0100
0010
0000
1000
0010
,
0100
0000
0001
1000
0001
0000
0100
1000
,
0010
0000
1000
0100
0010
0000
1000
0000
,
0101
0000
0100
0001
1000
0000
0100
0000
,
0011
0000
0100
1000
0001
0000
0001
0000
,
1100
0000
0010
0100
0010
0000
1000
0000
,
1010
0000
0100
0000
0010
1000
0001
1000
,
0100
0000
0010
0000
1000
0001
0100
0010
,
2000
0000
0000
0000
,
3000
0000
0000
0000
,
0010
0000
1000
0001
1000
0000
0002
0000
,
1003
0000
0010
0100
0010
0000
1000
0100
,
0001
0000
1000
0010
1000
0000
0002
0000
,
0103
0000
1000
0010
1000
0000
0100
0001
,
0010
0000
0001
0100
0001
0100
0020
0000
,
1030
0000
1000
0001
0010
0100
1000
0001
,
0100
0000
0010
0001
0010
0001
0200
0000
,
0301
0000
1000
0001
1000
0100
0010
0001
,
1000
0000
0001
1000
0100
0000
0020
0000
,
0031
0000
1000
0100
0001
0100
1000
0001
,
0010
0000
1000
0001
0100
0000
2000
0000
,
3010
0000
0001
0010
0001
0000
1000
0100
,
1000
0000
0010
0100
0001
0000
2000
0000
,
3100
0000
0001
0010
0100
1000
0100
0010
,
0001
0000
1000
0100
1000
0100
1000
0010
,
0100
0000
0001
1000
0001
0000
1000
0010
,
0100
0100
0001
0001
1000
0000
0001
1000
,
0020
0000
1030
0001
0200
0000
0301
0000
,
1000
1000
0100
0100
0010
0000
0001
0100
,
2000
0000
3001
0010
2000
0000
3001
0000
,
0010
0100
0010
1000
0001
0000
0010
0100
,
2000
0000
3001
0010
0002
0000
1003
0000
,
0001
0000
1000
0100
2000
0000
3010
0000
,
2000
0000
3001
0100
0002
0000
1003
0000
,
1010
0000
1000
0001
0100
0000
1000
0000
,
1100
0000
0001
0100
0010
0000
1000
0000
,
1010
0000
0100
0010
0001
0000
1000
0000
,
1100
0000
0001
0010
0100
0000
0001
0000
,
1001
0000
1000
0100
1000
0000
0010
0100
,
0010
0000
1000
0001
1000
0000
0100
1000
,
0200
0000
0000
0000
,
0300
0000
0000
0000
,
1001
0000
0100
1000
0100
0000
1010
0000
,
1001
0000
0100
0010
0001
0000
1000
1000
,
0010
0000
0001
0010
0100
0000
1001
0000
,
0110
0000
1000
0100
0010
0000
0001
0001
,
0010
0000
0001
0100
0001
0100
0020
0000
,
1030
0000
1000
0001
0010
0100
1000
0001
,
0100
0000
0010
0001
0010
0001
0200
0000
,
0301
0000
1000
0001
1000
0100
0010
0001
,
1000
0000
0001
1000
0100
0000
0020
0000
,
0031
0000
1000
0100
0001
0100
1000
0001
,
0010
0000
1000
0001
0100
0000
2000
0000
,
3010
0000
0001
0010
0001
0000
1000
0100
,
1000
0000
0010
0100
0001
0000
2000
0000
,
3100
0000
0001
0010
0100
1000
0100
0010
,
0001
0000
1000
0100
1000
0100
1000
0010
,
0100
0000
0001
1000
0001
0000
1000
0010
,
0100
0000
0000
0000
;

//---------------dance-single - ----------------
#NOTES:
     dance-single:
     :
     Easy:
     5:
     0.240038,0.243372,0.133355,0.120019,0.000000,252.000000,232.000000,20.000000,18.000000,0.000000,0.000000,0.240038,0.243372,0.133355,0.120019,0.000000,252.000000,232.000000,20.000000,18.000000,0.000000,0.000000:
0000
0000
0000
0000
,
0001
1000
0100
1001
,
0000
0010
1000
0100
,
0010
0001
1000
1010
,
0000
0001
0010
0100
,
1000
0100
0010
1001
,
0000
0001
0100
0001
,
1000
0100
1000
0100
,
1000
0010
0100
0010
,
0100
0001
1000
1000
,
0100
0100
0010
0001
,
1000
1000
0100
0100
,
1000
0001
0100
0001
,
1000
0001
0200
0301
,
1000
0001
1000
0100
,
0020
0031
2000
3010
,
0100
0001
1000
0010
,
1001
0000
0100
0000
,
1010
0000
0100
0000
,
0101
0000
0010
0000
,
1010
0000
0001
0000
,
0101
0010
0100
1000
,
0100
0010
0001
1000
,
0020
0000
0000
0000
,
0030
0000
0000
0000
,
0001
1000
0100
0000
,
0001
1000
0010
0100
,
0001
1000
0100
0000
,
1000
0010
0100
0001
,
1000
1000
0100
0020
,
0031
1000
0010
0100
,
0001
1000
0200
1300
,
0001
1000
0010
0100
,
0001
0001
1000
1001
,
0000
0010
1000
0100
,
0010
0001
1000
1010
,
0000
0001
0010
0100
,
1000
0100
0010
1001
,
0000
0001
0100
0001
,
1000
0100
1000
0010
,
0100
0000
1000
0000
,
0001
1000
0100
0010
,
0002
0000
0023
0000
,
0031
0001
0010
0100
,
2000
0000
3020
0000
,
1030
0001
0010
0100
,
2000
0000
3002
0000
,
2003
0000
3020
0000
,
0032
0000
0013
0000
,
0110
0000
0001
0000
,
1100
0000
0010
0000
,
0110
0000
0001
0000
,
1100
0000
0001
0000
,
0110
1000
0001
0010
,
0100
1000
0100
0010
,
0002
0000
0000
0000
,
0003
0000
0000
0000
,
0001
1000
0100
0000
,
0001
1000
0010
0100
,
0001
1000
0100
0000
,
1000
0010
0100
0001
,
1000
0001
2000
0010
,
3100
0001
1000
0100
,
0010
0001
0020
0100
,
0031
1000
0001
1000
,
0001
0001
1000
1001
,
0000
0010
1000
0100
,
0010
0001
1000
1010
,
0000
0001
0010
0100
,
1000
0100
0010
1001
,
0000
0001
0100
0001
,
1000
0100
1000
0010
,
0100
0000
1000
0000
,
1001
0000
0000
0000
;

//---------------dance-single - ----------------
#NOTES:
     dance-single:
     :
     Beginner:
     3:
     0.158121,0.194698,0.100016,0.053342,0.000000,166.000000,151.000000,15.000000,8.000000,0.000000,0.000000,0.158121,0.194698,0.100016,0.053342,0.000000,166.000000,151.000000,15.000000,8.000000,0.000000,0.000000:
0000
0000
0000
0000
,
1000
0000
0001
0000
,
1000
0000
0010
0000
,
1000
0000
0001
0000
,
1000
0000
0010
0000
,
1000
0000
0001
0000
,
1000
0000
0001
0000
,
0010
0000
0100
0000
,
1000
0000
0000
0000
,
0001
0000
0001
0000
,
1000
0100
1000
0000
,
0010
0000
0010
0000
,
1000
0100
1000
0000
,
0001
0000
0001
0000
,
0100
0010
0100
0000
,
1000
0000
1000
0000
,
0001
1000
0001
0000
,
1001
0000
0000
0000
,
1010
0000
0000
0000
,
0110
0000
0000
0000
,
1001
0000
0000
0000
,
0001
0000
0001
0000
,
1000
0000
1000
0000
,
0020
0000
0000
0000
,
0030
0000
0000
0000
,
1001
0000
0100
0000
,
0010
0000
1000
0000
,
1001
0000
0010
0000
,
1000
0000
0100
0000
,
1100
0000
1000
0001
,
1000
0000
0001
0010
,
0001
0000
1000
0100
,
1000
0000
0010
0100
,
0010
0000
1000
0000
,
0001
0000
1000
0010
,
1000
0000
0100
0000
,
1000
0000
0001
0010
,
0001
0000
1000
0000
,
0001
0000
0100
0010
,
0100
0000
0001
1000
,
0001
0000
1000
0001
,
1000
0000
0010
0000
,
2000
0000
3002
0000
,
1003
0000
0100
0000
,
2000
0000
3002
0000
,
0013
0000
0001
0000
,
1000
0000
0200
0000
,
1300
0000
0002
0000
,
1003
0000
0001
0000
,
1001
0000
0000
0000
,
0110
0000
0000
0000
,
1010
0000
0000
0000
,
0101
0000
0000
0000
,
1000
0000
1000
0000
,
0001
0000
0001
0000
,
2000
0000
0000
0000
,
3000
0000
0000
0000
,
1001
0000
0010
0000
,
1000
0000
0001
0000
,
1010
0000
0001
0000
,
0010
0000
0100
0000
,
1010
0000
0001
0100
,
0001
0000
1000
0100
,
1000
0000
0010
0100
,
0010
0000
1000
0001
,
1000
0000
0001
0000
,
1000
0000
0010
0100
,
0010
0000
1000
0000
,
0001
0000
1000
0100
,
1000
0000
0010
0000
,
1000
0000
0001
0010
,
0001
0000
1000
0100
,
1000
0000
0001
0000
,
1001
0000
0000
0000
;
