#VERSION:0.83;
#TITLE:Blue Valentine;
#SUBTITLE:;
#ARTIST:NMIXX;
#TITLETRANSLIT:;
#SUBTITLETRANSLIT:;
#ARTISTTRANSLIT:;
#GENRE:;
#ORIGIN:;
#CREDIT:Musey;
#BANNER:AV.avi;
#BACKGROUND:bg.png;
#PREVIEWVID:;
#JACKET:jacket.png;
#CDIMAGE:;
#DISCIMAGE:;
#LYRICSPATH:;
#CDTITLE:;
#MUSIC:audio.ogg;
#OFFSET:-0.469000;
#SAMPLESTART:51.731152;
#SAMPLELENGTH:15.000008;
#SELECTABLE:YES;
#BPMS:0.000=80.000,
49.000=81.000,
51.000=88.500,
53.000=99.000,
55.000=110.000,
57.000=119.500,
59.000=128.000,
61.000=136.000,
63.000=147.500,
65.000=151.000,
67.000=154.000,
69.000=153.000,
73.000=156.000,
75.000=162.000,
77.000=160.500,
81.000=160.000;
#STOPS:;
#DELAYS:;
#WARPS:;
#TIMESIGNATURES:0.000=4=4;
#TICKCOUNTS:0.000=4;
#COMBOS:0.000=1;
#SPEEDS:0.000=1.000=0.000=0;
#SCROLLS:0.000=1.000,
145.000=0.500,
161.000=1.000,
257.000=0.500;
#FAKES:;
#LABELS:0.000=Song Start;
#BGCHANGES:0.000=MV.avi=1.400=1=0=1===CrossFade==,
1.750=MV.avi=1.000=0=0=1=====,
99999=-nosongbg-=1.000=0=0=0 // don't automatically add -songbackground-
;
#KEYSOUNDS:;
#ATTACKS:
;

//---------------dance-single - ----------------
#NOTEDATA:;
#CHARTNAME:;
#STEPSTYPE:dance-single;
#DESCRIPTION:;
#CHARTSTYLE:;
#DIFFICULTY:Challenge;
#METER:13;
#RADARVALUES:0.493902,0.687780,0.077518,0.325576,0.147285,446.000000,436.000000,10.000000,42.000000,0.000000,0.000000,0.000000,0.000000,0.000000,0.493902,0.687780,0.077518,0.325576,0.147285,446.000000,436.000000,10.000000,42.000000,0.000000,0.000000,0.000000,0.000000,0.000000;
#CREDIT:Musey;
#OFFSET:-0.469000;
#BPMS:0.000000=80.000000
,49.000000=81.000000
,51.000000=88.500000
,53.000000=99.000000
,55.000000=110.000000
,57.000000=119.500000
,59.000000=128.000000
,61.000000=136.000000
,63.000000=147.500000
,65.000000=151.000000
,67.000000=154.000000
,69.000000=153.000000
,73.000000=156.000000
,75.000000=162.000000
,77.000000=160.500000
,81.000000=160.000000
;
#STOPS:;
#DELAYS:;
#WARPS:;
#TIMESIGNATURES:0.000000=4=4
;
#TICKCOUNTS:0.000000=4
;
#COMBOS:0.000000=1
;
#SPEEDS:0.000000=1.000000=0.000000=0
;
#SCROLLS:0.000000=1.000000
,114.000000=1.500000
,114.750000=0.250000
,115.000000=1.500000
,115.750000=0.250000
,116.000000=1.500000
,116.750000=0.250000
,117.000000=1.500000
,117.750000=0.250000
,118.000000=1.500000
,118.750000=0.250000
,119.000000=1.000000
,130.000000=1.500000
,130.750000=0.250000
,131.000000=1.500000
,131.750000=0.250000
,132.000000=1.500000
,132.750000=0.250000
,133.000000=1.500000
,133.750000=0.250000
,134.000000=1.500000
,134.750000=0.250000
,135.000000=1.000000
,143.000000=0.800000
,143.500000=0.700000
,144.500000=0.600000
,145.000000=0.500000
,161.000000=1.000000
,257.000000=0.200000
;
#FAKES:;
#LABELS:0.000000=Song Start
;
#NOTES:
// measure 0
0000
0000
0000
0000
,  // measure 1
0000
0000
0000
0000
,  // measure 2
0000
0000
0000
0000
,  // measure 3
0000
0000
0000
0000
,  // measure 4
0000
0000
0000
0000
1000
0000
0001
0010
0001
0000
0100
0010
0100
0000
0001
0000
,  // measure 5
2000
0000
0000
0000
3001
0000
0100
0001
0010
0001
1000
0010
0100
0000
0010
0000
,  // measure 6
2000
0000
0000
0000
3001
0000
0001
0100
0001
0000
1000
0010
1000
0000
1000
0000
,  // measure 7
0020
0000
0000
0000
0000
0000
0000
0000
1030
0000
0000
0001
0000
0000
1000
0000
0010
0000
0000
0100
0000
0000
0001
0000
0010
0000
0000
0001
0000
0000
1000
0000
,  // measure 8
0010
0000
2000
0000
3001
0000
0001
1000
0010
0000
1000
0001
0100
0000
0001
0100
,  // measure 9
1000
0000
1000
0100
0001
0100
0010
1000
0010
0100
0001
0010
0001
0000
0100
0000
,  // measure 10
0010
0000
0100
0001
1000
0000
1000
0100
0001
0000
0100
1000
0001
0000
0100
0010
,  // measure 11
0001
0000
0010
0100
0001
0010
1000
0010
0001
1000
0010
0100
0001
0000
0100
0000
,  // measure 12
0002
0000
0103
0010
1000
0001
0100
0010
,  // measure 13
1000
0100
1000
0001
0200
0000
0301
0100
,  // measure 14
1000
0100
0001
1000
0100
0010
0001
0100
,  // measure 15
0020
0100
0130
0000
0001
0100
0010
0100
,  // measure 16
0002
0000
0103
0000
0001
1000
0010
0100
,  // measure 17
0001
1000
0020
0000
0130
0001
2000
0000
,  // measure 18
3100
0010
1000
0010
0001
0100
0010
1000
,  // measure 19
0010
0100
0001
0100
0001
2000
0000
0000
,  // measure 20
3002
0000
0013
0001
0100
0000
0001
0010
,  // measure 21
0100
0010
0001
1000
0100
0010
0200
0000
,  // measure 22
1300
0000
0002
0000
0103
0010
0100
0001
,  // measure 23
0010
0001
1000
0010
0100
0000
0010
0100
,  // measure 24
0001
1000
0200
0000
1300
0100
0001
0100
,  // measure 25
0010
0001
0200
0000
0310
0100
1000
0100
,  // measure 26
0001
1000
0200
0000
0310
0001
1000
0001
,  // measure 27
0010
0100
1000
0001
1000
0010
0100
1000
,  // measure 28
0100
0001
1000
0001
0010
0000
0011
0000
,  // measure 29
1100
0000
0011
0000
1100
0000
0010
0001
,  // measure 30
0100
0001
1000
0100
0001
0000
0001
0100
,  // measure 31
1000
0010
0100
0001
1000
0010
0001
0010
,  // measure 32
1000
0001
0010
0000
0110
0000
1001
0000
,  // measure 33
0110
0000
1001
0000
0110
0000
0010
0001
,  // measure 34
1000
0001
0100
0010
1000
0000
0001
0100
,  // measure 35
1000
0001
0010
1000
0001
0000
0000
0000
,  // measure 36
0000
1000
0000
0001
,  // measure 37
0100
0020
0000
0130
,  // measure 38
0000
0001
0000
1000
,  // measure 39
0100
2000
0000
3001
,  // measure 40
0000
0100
0100
0001
,  // measure 41
0001
1000
1000
0010
,  // measure 42
0010
0000
1000
1000
0001
0001
0100
0100
,  // measure 43
0010
0010
2000
0000
0000
0000
3100
0000
,  // measure 44
0000
0000
0001
0100
1000
0100
0001
1000
,  // measure 45
0100
0010
1000
0010
0001
0100
0020
0000
,  // measure 46
1030
0000
0102
0000
1003
0001
0010
0001
,  // measure 47
0100
0010
1000
0001
0100
0000
0010
1000
,  // measure 48
0001
0010
1000
0010
0100
1000
0001
0010
,  // measure 49
0100
0010
0002
0000
1003
0010
1000
0001
,  // measure 50
0100
0010
2000
0000
3001
0100
0010
0100
,  // measure 51
0001
1000
0010
1000
0100
0001
0100
0010
,  // measure 52
0001
0010
0001
0100
2000
3100
0002
0103
,  // measure 53
0020
0130
0002
0103
2000
3100
0001
1000
,  // measure 54
0100
0010
0100
0010
0001
0000
1000
0010
,  // measure 55
1000
0100
0001
0100
1000
0010
0100
0001
,  // measure 56
0010
0100
1000
0100
0020
0130
2000
3100
,  // measure 57
0002
0103
2000
3100
0020
0130
1000
0001
,  // measure 58
0100
0010
0100
0001
0010
0000
0001
0010
,  // measure 59
0100
0000
1000
0000
0001
0010
0001
0010
0100
1000
0100
1000
0010
0000
0100
0000
,  // measure 60
0001
0010
0002
0000
1003
0100
2000
0000
,  // measure 61
3001
0100
0001
0010
0200
0000
0310
0001
,  // measure 62
1000
0010
1000
0100
0010
0001
0010
0001
,  // measure 63
0100
0000
0010
0000
0100
0001
0100
0001
1000
0010
1000
0010
0100
0000
0010
0000
,  // measure 64
0100
0001
2000
0000
0000
0000
3002
0000
,  // measure 65
0000
2003
0000
0000
,  // measure 66
0000
3001
0000
0200
,  // measure 67
0000
0320
0000
0030
,  // measure 68
0000
1000
0000
0000
;

//---------------dance-single - ----------------
#NOTEDATA:;
#CHARTNAME:;
#STEPSTYPE:dance-single;
#DESCRIPTION:;
#CHARTSTYLE:;
#DIFFICULTY:Hard;
#METER:9;
#RADARVALUES:0.405309,0.555515,0.147285,0.294569,0.042635,366.000000,347.000000,19.000000,38.000000,0.000000,0.000000,0.000000,0.000000,0.000000,0.405309,0.555515,0.147285,0.294569,0.042635,366.000000,347.000000,19.000000,38.000000,0.000000,0.000000,0.000000,0.000000,0.000000;
#CREDIT:Musey;
#NOTES:
0000
0000
0000
0000
,
0000
0000
0000
0000
,
0000
0000
0000
0000
,
0000
0000
0000
0000
,
0000
0000
0000
0000
0001
0000
0100
0001
0010
0000
0001
0000
2000
0000
0000
0000
,
3100
0000
0000
0000
0001
0000
0100
0000
0010
0100
0001
0000
0020
0000
0000
0000
,
0031
0000
0000
0000
1000
0000
0100
0000
1000
0001
1000
0000
0020
0000
0000
0000
,
0130
0000
0000
0000
0001
0100
0001
0000
0200
0000
0000
0000
0301
0010
0001
0000
,
1000
0000
0001
0000
0100
0000
0001
0100
0001
0000
1000
0100
1000
0000
0001
0100
,
0001
0010
0001
0001
0100
0010
2000
0000
,
3100
0000
0000
0000
1000
0000
0001
1000
0001
0000
0100
0001
0100
0000
0001
0010
,
0001
0100
0010
1000
0100
1000
0002
0000
,
0203
0000
0301
0000
0100
0000
0001
0100
,
0001
0000
1000
0000
0010
0000
1000
0100
,
0010
0001
0100
0000
0100
0000
0001
1000
,
0010
0000
1000
0000
1000
0000
0001
0100
,
0010
0000
0100
0000
0001
0010
0100
0000
,
1000
0100
1000
0000
0001
0100
0010
0000
,
0100
0000
0001
0010
0001
0000
1000
0001
,
1000
0020
0000
0130
,
0000
0000
0001
0100
0001
0000
1000
0010
,
1000
0100
0010
0001
0100
0000
0010
1000
,
0001
0000
0200
0000
0301
0000
0100
0001
,
0010
0100
2000
0000
3010
0000
0100
0010
,
0100
0000
0002
0000
0013
0000
0001
1000
,
0100
1000
0020
0000
0130
0000
0010
1000
,
0100
0010
0002
0000
0103
0000
0001
0100
,
0010
0100
0002
0000
1003
0000
0100
1000
,
0001
0010
0100
0010
0001
0000
0011
0000
,
0011
0000
1100
0000
1100
0000
0001
1000
,
0020
0000
0130
0001
0100
0000
0010
1000
,
0100
0010
0001
0010
0100
1000
0001
0100
,
0010
0100
0001
0010
0100
0000
1100
0000
,
0101
0000
1100
0000
0101
0000
0010
1000
,
0001
0100
0010
0100
0001
0000
0010
0100
,
0010
0001
2000
0000
0000
0000
3001
0000
,
0000
0200
0000
0301
,
0000
0002
0000
0103
,
0000
0020
0000
1030
,
0000
2000
0000
3001
,
0000
0001
0100
0001
,
0100
0010
1000
0010
,
1000
0000
0010
1000
0010
1000
0001
0100
,
0001
0100
0020
0000
0000
0000
0130
0000
,
0000
0000
0001
1000
0100
0000
1000
0001
,
0100
0010
1000
0001
0010
0000
0001
0100
,
0010
0000
0200
0000
0301
0010
0100
0010
,
0001
1000
0010
0100
0020
0000
0130
0001
,
1000
0000
0200
0000
0310
0001
0100
0001
,
1000
0000
0020
0000
1030
0000
0100
1000
,
0001
0000
0200
0000
0310
1000
0100
0010
,
0001
0100
0020
0000
1030
0001
0100
0010
,
0100
0001
0010
0100
0010
0000
0110
0000
,
1001
0000
0110
0000
1001
0000
1000
0100
,
1000
0010
0100
0001
0010
0000
0001
0010
,
0100
0010
0001
0100
0010
0100
0001
1000
,
0100
0010
0001
0100
0010
0000
1010
0000
,
0101
0000
1010
0000
0101
0000
1000
0010
,
1000
0100
0010
0001
1000
0000
0010
0100
,
1000
0100
0002
0000
0000
0000
0103
0000
,
0001
0000
0002
0000
1003
0100
2000
0000
,
3001
0100
0002
0000
0023
0000
0100
0000
,
0130
0000
0001
0010
0001
0010
0200
0000
,
1300
0110
1001
0110
,
0000
0002
0000
2003
,
0000
3002
0000
0000
,
0000
0103
0000
0200
,
0000
0000
0320
0000
0000
0030
0000
0000
,
0000
0100
0000
0000
;

//---------------dance-single - ----------------
#NOTEDATA:;
#CHARTNAME:;
#STEPSTYPE:dance-single;
#DESCRIPTION:;
#CHARTSTYLE:;
#DIFFICULTY:Medium;
#METER:6;
#RADARVALUES:0.306751,0.343890,0.000000,0.341080,0.000000,277.000000,277.000000,0.000000,44.000000,0.000000,0.000000,0.000000,0.000000,0.000000,0.306751,0.343890,0.000000,0.341080,0.000000,277.000000,277.000000,0.000000,44.000000,0.000000,0.000000,0.000000,0.000000,0.000000;
#CREDIT:Musey;
#NOTES:
0000
0000
0000
0000
,
0000
0000
0000
0000
,
0000
0000
0000
0000
,
0000
0000
0000
0000
,
0000
0000
1000
0000
0001
0100
0002
0000
,
0013
0000
0001
1000
0010
1000
0200
0000
,
0310
0000
0001
0100
0010
1000
0200
0000
,
1300
0000
1000
0100
1000
0000
0001
0100
,
0002
0103
0100
0010
,
0010
1000
0010
1000
0010
0100
0002
0000
,
0013
0100
0100
0010
,
0010
0000
0001
1000
0010
1000
0002
0000
,
0203
0000
0301
0000
1000
0000
0001
1000
,
0010
0000
0100
0000
0100
0000
0010
0100
,
0001
0000
0001
0000
0010
0000
0001
1000
,
0010
0000
1000
0000
1000
0000
0001
0100
,
0010
0000
0100
0000
0100
0000
0001
0010
,
0100
0000
1000
0000
0001
0000
1000
0010
,
0100
0000
0001
0000
0001
0000
0010
0001
,
1000
0020
0000
0000
,
0000
0000
1030
0000
0001
0000
0100
0001
,
0100
0000
0020
0000
1030
0000
0100
0010
,
0001
0000
2000
0000
3001
0000
0100
0001
,
0100
0001
0020
0000
0031
0000
1000
0010
,
1000
0000
0200
0000
1300
0000
0010
1000
,
0001
0000
0200
0000
0310
0000
0100
0001
,
1000
0000
0020
0000
1030
0000
0100
0010
,
0001
0000
0200
0000
0000
0301
1000
0010
,
1000
0001
0100
0100
,
0100
0000
0100
0000
0100
0000
0100
0001
,
2000
0000
3010
0000
0100
0000
0001
0010
,
0100
0000
1000
0000
0001
0000
1000
0010
,
1000
0002
0013
0010
,
0010
0000
0010
0000
0010
0000
0001
1000
,
0200
0000
1300
0000
0010
0000
0100
0001
,
0100
0020
0000
1030
,
0000
2000
0000
0000
,
0000
3002
0000
0000
,
0000
0203
0000
0000
,
0000
0302
0000
0000
,
0000
1003
1000
1000
,
1000
0001
0001
0001
,
0001
0000
0100
0000
0001
0000
0100
0001
,
0100
0020
0000
1030
,
0000
0000
0001
0100
0010
0000
1000
0100
,
1000
0001
0200
0000
0310
0000
0100
0000
,
0001
0000
0020
0000
0030
0001
1000
0100
,
1000
0000
0002
0000
0103
0000
0010
1000
,
0100
0000
0020
0000
0031
0000
0100
0001
,
1000
0000
0020
0000
1030
0000
0100
0010
,
0001
0000
0200
0000
0310
0000
0100
0001
,
1000
0001
0020
0000
0031
0000
1000
0100
,
1000
0010
0200
0000
0301
0000
0001
0000
,
0001
0000
0001
0000
0001
0000
1000
0100
,
2000
0000
3010
0000
1000
0000
0001
0010
,
0100
0000
1000
0000
0010
0000
1000
0010
,
0100
0002
0013
0010
,
0010
0000
0010
0000
0010
0000
0001
0010
,
0200
0000
1300
0000
0001
0000
0100
0001
,
0100
0020
0000
1030
,
0000
0002
1003
0002
,
1003
0002
2003
0001
,
3001
0000
0100
0001
0100
0000
0010
0100
,
0010
0000
1000
0100
1000
0100
0020
0000
,
0000
0032
0000
0000
,
0000
2003
0000
0000
,
0000
3010
0000
0000
,
0000
0200
0000
0000
,
0000
0301
0000
0000
;

//---------------dance-single - ----------------
#NOTEDATA:;
#CHARTNAME:;
#STEPSTYPE:dance-single;
#DESCRIPTION:;
#CHARTSTYLE:;
#DIFFICULTY:Easy;
#METER:3;
#RADARVALUES:0.168325,0.238078,0.000000,0.186044,0.000000,152.000000,152.000000,0.000000,24.000000,0.000000,0.000000,0.000000,0.000000,0.000000,0.168325,0.238078,0.000000,0.186044,0.000000,152.000000,152.000000,0.000000,24.000000,0.000000,0.000000,0.000000,0.000000,0.000000;
#CREDIT:Musey;
#NOTES:
0000
0000
0000
0000
,
0000
0000
0000
0000
,
0000
0000
0000
0000
,
0000
0000
0000
0000
,
0000
1000
0001
0200
,
0000
0301
0001
0020
,
0000
0031
1000
0200
,
0000
1300
1000
0001
,
0001
0100
0100
0010
,
0010
1000
0001
0200
,
0000
0301
0001
0010
,
0010
0001
1000
0200
,
0000
1300
0000
1000
,
0000
0001
0000
0001
,
0000
0100
0000
0100
,
0000
0001
0000
0001
,
0000
1000
0000
1000
,
0000
0001
0000
0001
,
0000
0100
0000
0100
,
0000
0020
0000
0000
,
0000
1030
0000
1000
,
0000
0001
0000
0001
,
0000
0100
0001
0100
,
0010
0000
1000
2000
0000
0000
3100
0000
,
0000
1000
0000
1000
,
0000
0001
0000
0001
,
0000
0100
0001
0100
,
0001
2000
0000
3010
,
0100
0001
1000
1000
,
1000
1000
1000
1000
,
1000
0002
0000
0103
,
0000
0020
0000
1030
,
0000
0001
0001
0001
,
0001
0001
0001
0001
,
0001
0200
0000
0301
,
0000
2000
0000
3001
,
0000
0002
0000
0000
,
0000
0000
0000
0000
,
0000
0203
0000
0000
,
0000
0000
0000
0000
,
0000
0301
0000
0001
,
0000
1000
0000
1000
,
0000
0001
0000
0001
,
0000
0200
0000
0000
,
0000
0301
0000
0001
,
0010
0002
0000
1003
,
0000
0100
1000
0010
,
0100
0002
0000
0103
,
0000
0010
0000
0010
,
0000
1000
0000
1000
,
0000
0001
0010
0001
,
0100
0020
0000
1030
,
0000
0001
0001
0001
,
0001
0001
0001
0001
,
0001
2000
0000
3100
,
0000
2000
0000
3100
,
0000
1000
1000
1000
,
1000
1000
1000
1000
,
1000
0002
0000
0103
,
0000
0020
0000
0000
,
0000
1030
0000
1000
,
0000
0002
0000
0103
,
0000
0001
0100
0001
,
0000
2000
0000
0000
,
0000
3010
0000
0000
,
0000
0000
0000
0000
,
0000
1000
0000
0000
,
0000
0000
0000
0000
,
0000
0001
0000
0000
;

//---------------dance-single - ----------------
#NOTEDATA:;
#CHARTNAME:;
#STEPSTYPE:dance-single;
#DESCRIPTION:;
#CHARTSTYLE:;
#DIFFICULTY:Beginner;
#METER:1;
#RADARVALUES:0.067552,0.079359,0.000000,0.000000,0.000000,61.000000,61.000000,0.000000,0.000000,0.000000,0.000000,0.000000,0.000000,0.000000,0.067552,0.079359,0.000000,0.000000,0.000000,61.000000,61.000000,0.000000,0.000000,0.000000,0.000000,0.000000,0.000000,0.000000;
#CREDIT:Musey;
#NOTES:
0000
0000
0000
0000
,
0000
0000
0000
0000
,
0000
0000
0000
0000
,
0000
0000
0000
0000
,
0000
1000
0000
0000
,
0000
0001
0000
0000
,
0000
1000
0000
0000
,
0000
0001
0000
0000
,
0000
0010
0000
0000
,
0000
0001
0000
0000
,
0000
1000
0000
0000
,
0000
0001
0000
0000
,
0000
1000
0000
0000
,
0000
0001
0000
0000
,
0000
1000
0000
0000
,
0000
0001
0000
0000
,
0000
0010
0000
0000
,
0000
1000
0000
0000
,
0000
0001
0000
0000
,
0000
1000
0000
0000
,
0000
0001
0000
0000
,
0000
0001
0000
0000
,
0000
1000
0000
0000
,
0000
1000
0000
0000
,
0000
0001
0000
0000
,
0000
0001
0000
0000
,
0000
0010
0000
0000
,
0000
0010
0000
0000
,
0000
1000
0000
0000
,
0000
1000
0000
0000
,
0000
0001
0000
0000
,
0000
0001
0000
0000
,
0000
0100
0000
0000
,
0000
0100
0000
0000
,
0000
0010
0000
0000
,
0000
1000
0000
0000
,
0000
0001
0000
0000
,
0000
0000
0000
0000
,
0000
1000
0000
0000
,
0000
0000
0000
0000
,
0000
0001
0000
0000
,
0000
1000
0000
0000
,
0000
0001
0000
0000
,
0000
0100
0000
0000
,
0000
0001
0000
0000
,
0000
1000
0000
0000
,
0000
0001
0000
0000
,
0000
0010
0000
0000
,
0000
0001
0000
0000
,
0000
1000
0000
0000
,
0000
0001
0000
0000
,
0000
1000
0000
0000
,
0000
0010
0000
0000
,
0000
0100
0000
0000
,
0000
0001
0000
0000
,
0000
1000
0000
0000
,
0000
0001
0000
0000
,
0000
1000
0000
0000
,
0000
0001
0000
0000
,
0000
0010
0000
0000
,
0000
0001
0000
0000
,
0000
1000
0000
0000
,
0000
0001
0000
0000
,
0000
0100
0000
0000
,
0000
0001
0000
0000
,
0000
0000
0000
0000
,
0000
1000
0000
0000
,
0000
0000
0000
0000
,
0000
1000
0000
0000
;
