#VERSION:0.83;
#TITLE:Bling-Bang-Bang-Born;
#SUBTITLE:;
#ARTIST:Creepy Nuts;
#TITLETRANSLIT:;
#SUBTITLETRANSLIT:;
#ARTISTTRANSLIT:;
#GENRE:;
#ORIGIN:;
#CREDIT:;
#BANNER:AV.avi;
#BACKGROUND:bg.png;
#PREVIEWVID:;
#JACKET:jacket.png;
#CDIMAGE:;
#DISCIMAGE:;
#LYRICSPATH:;
#CDTITLE:;
#MUSIC:audio.ogg;
#OFFSET:-0.020000;
#SAMPLESTART:62.380257;
#SAMPLELENGTH:14.999997;
#SELECTABLE:YES;
#BPMS:0.000=157.033;
#STOPS:;
#DELAYS:;
#WARPS:;
#TIMESIGNATURES:0.000=4=4;
#TICKCOUNTS:0.000=4;
#COMBOS:0.000=1;
#SPEEDS:0.000=1.000=0.000=0;
#SCROLLS:0.000=1.000,
161.000=0.500,
163.000=1.000;
#FAKES:;
#LABELS:0.000=Song Start;
#BGCHANGES:0.000=MV.avi=1.000=1=0=1===CrossFade==,
233.500=MV.avi=0.100=0=0=1=====,
99999=-nosongbg-=1.000=0=0=0 // don't automatically add -songbackground-
;
#KEYSOUNDS:;
#ATTACKS:
;

//---------------dance-single - ----------------
#NOTEDATA:;
#CHARTNAME:;
#STEPSTYPE:dance-single;
#DESCRIPTION:;
#CHARTSTYLE:;
#DIFFICULTY:Challenge;
#METER:17;
#RADARVALUES:0.877889,0.866336,0.219865,0.439730,0.714561,559.000000,539.000000,20.000000,40.000000,4.000000,0.000000,1.000000,0.000000,0.000000,0.877889,0.866336,0.219865,0.439730,0.714561,559.000000,539.000000,20.000000,40.000000,4.000000,0.000000,1.000000,0.000000,0.000000;
#CREDIT:Musey;
#NOTES:
// measure 0
0000
0000
0000
0000
,  // measure 1
0000
0000
0000
0000
1000
0000
0010
0000
1000
0000
0001
0000
0100
0010
0001
0010
,  // measure 2
1000
0000
0010
0000
0100
0000
0001
0000
0100
0000
0010
0001
0010
1000
0010
0100
,  // measure 3
0001
0000
0100
0000
0010
0000
1000
0100
0010
0000
0001
0000
0100
0010
1000
0010
,  // measure 4
0100
0000
0001
0010
0100
0000
0100
0000
0010
0100
1000
0000
0001
1000
0100
0010
,  // measure 5
0001
0000
0010
0000
1001
0000
0000
0000
0010
0100
1000
0100
0001
0100
0010
1000
,  // measure 6
0001
0000
0010
0000
0110
0000
0000
0000
0001
1000
0010
1000
0100
0001
0100
1000
,  // measure 7
0010
0000
1000
0000
0010
0100
0010
0000
0010
0100
0010
0000
1000
0100
0010
0001
,  // measure 8
0010
0000
0010
0000
0001
0000
1001
0000
0001
0010
0100
0010
0001
0100
0010
1000
,  // measure 9
0100
0010
0001
0000
1000
0000
0000
1001
0000
0000
0010
0000
0100
0000
0001
0000
,  // measure 10
0001
0000
1000
0000
0010
0000
0000
1010
0000
0000
0001
0000
0010
0000
1000
0000
,  // measure 11
1000
0000
0010
0000
0001
0000
0001
0000
0100
0010
1000
0000
0001
0000
1000
0000
,  // measure 12
0010
1000
0001
0000
2000
0000
3001
0000
0002
0000
1003
0000
2000
0000
3010
0100
,  // measure 13
0001
0000
0100
0000
0110
0000
0001
0010
0100
0000
0010
0000
0110
0000
0001
0100
,  // measure 14
0010
0000
0100
0000
0110
0000
0000
1100
0000
0000
0110
0000
0011
0000
0001
0100
,  // measure 15
0010
0000
0100
0000
1010
0000
0010
0100
0001
0000
0010
0000
0110
0000
0001
1000
,  // measure 16
0100
0000
1000
0000
0110
0000
0000
0011
0000
0000
0110
0000
1001
0000
0001
0100
,  // measure 17
0010
0000
0100
0000
0010
0000
1000
0000
0001
0010
0100
0000
0010
0000
0001
0010
,  // measure 18
0100
1000
0001
1000
0010
0000
0100
0010
1000
0001
0100
0000
0001
0000
1000
0000
,  // measure 19
0010
0100
0001
0010
0001
0000
0100
0010
1000
0010
0100
0000
0010
0000
0100
0000
,  // measure 20
0001
1000
0001
1000
0010
0000
0100
0000
0010
0100
0001
0000
1000
0000
0010
0100
,  // measure 21
0010
1000
0100
0010
0001
0000
0100
0000
0001
0010
0100
0000
0010
0000
0000
0001
,  // measure 22
0000
1000
0010
0000
1000
0000
0001
0000
,  // measure 23
0100
0010
1000
0010
0100
0000
0001
0010
0000
10MM
0100
0000
M0M1
0100
0000
0100
,  // measure 24
0010
1000
0001
0010
0001
0000
1000
0100
0010
0000
0001
0000
1000
0000
0020
0000
,  // measure 25
2030
0000
3001
0010
0100
0000
0100
1000
0100
0001
0100
0000
1000
0000
0001
0100
,  // measure 26
0010
0000
0001
0010
0100
0000
0010
1000
0010
0001
0010
0000
1000
0000
0001
0000
,  // measure 27
0100
0001
0100
0010
1000
0000
0001
0100
0010
0100
1000
0000
0100
0000
0010
0100
,  // measure 28
0001
0010
0001
1000
0010
0000
0100
0001
0010
0100
0010
0000
0100
0000
0020
0000
,  // measure 29
0230
0000
1300
0000
0100
0000
0001
0100
0010
0100
1000
0000
0010
0000
0100
0010
,  // measure 30
0001
0000
0010
1000
0010
0000
0100
0001
0100
0010
1000
0000
0001
0000
0000
1000
,  // measure 31
0000
0000
0001
0000
0010
0000
0010
0100
1000
0000
0001
0000
0010
0000
0010
0100
,  // measure 32
1000
0000
0010
0000
0100
0000
0001
0010
1000
0010
0001
0000
1000
0000
0000
0000
,  // measure 33
0040
0000
0130
1000
0100
0001
0100
1000
,  // measure 34
0100
0000
0001
0000
1000
0000
0000
0001
0000
0000
1000
0000
0010
0000
0100
0000
,  // measure 35
0200
0000
0302
0000
2003
0000
3000
0001
0000
0000
0100
0000
0001
0000
1000
0000
,  // measure 36
1000
0010
0200
0000
0010
0000
0001
0000
,  // measure 37
0310
0000
1000
0100
0001
0100
1000
1000
,  // measure 38
0010
0100
0001
0010
0100
0000
0110
0000
,  // measure 39
2000
0000
3200
0000
0302
0000
0003
0000
0002
0000
0203
0000
2300
0000
3000
0010
,  // measure 40
0000
0100
0002
0000
0003
0000
0000
1000
,  // measure 41
0010
0000
0100
0000
0001
0000
1000
0010
0001
0000
0010
0000
1000
0000
0001
0010
,  // measure 42
1000
0000
0010
0000
0001
0000
1000
0010
0001
0000
0010
0000
1000
0000
0002
0000
,  // measure 43
0203
0000
0302
0000
1003
0000
0001
0100
1000
0000
0100
0000
0001
0000
1000
0100
,  // measure 44
0001
0000
0100
0000
1000
0000
0001
0100
1000
0000
0100
0000
0010
0000
2000
0000
,  // measure 45
3002
0000
0023
0000
1030
0000
1000
0010
0001
0000
0100
0000
1000
0000
1000
0100
,  // measure 46
0001
0000
0010
0000
1000
0000
1000
0010
0001
0000
0100
0000
0010
0000
0100
0000
,  // measure 47
0002
0000
2003
0000
3020
0000
0030
0000
2000
0000
3002
0000
0203
0000
0310
0100
,  // measure 48
0001
0001
2000
0000
3010
1000
0001
0100
,  // measure 49
0100
0000
0001
0000
2000
0000
3010
0000
0200
0000
0301
0000
0100
0010
0000
1000
,  // measure 50
0000
0001
0010
0100
0010
0000
0100
0000
1000
0000
0010
0000
1000
0000
0001
0000
,  // measure 51
1001
0000
0100
0001
0200
0000
0310
0000
2000
0000
3001
0000
0010
0100
0000
0010
,  // measure 52
0000
0001
0100
0010
0100
0000
0010
0000
1000
0000
0001
0000
0100
0000
0010
1000
,  // measure 53
0100
0000
0010
0000
0002
0000
0013
0000
2000
0000
3010
0000
0001
0100
0000
0010
,  // measure 54
0000
1000
0001
0010
0100
0000
0010
0000
0001
0000
1000
0000
0010
0000
0100
0000
,  // measure 55
1010
0000
0001
0100
0020
0000
1030
0000
0200
0000
1300
0000
0001
0010
0000
0100
,  // measure 56
0000
1000
0001
1000
0010
0000
0100
0000
0001
0000
1000
0000
0010
0100
0001
0100
,  // measure 57
1000
0100
0010
0100
0010
0100
0010
0100
,  // measure 58
0010
0100
0002
0003
0000
0000
0000
0000
;

//---------------dance-single - ----------------
#NOTEDATA:;
#CHARTNAME:;
#STEPSTYPE:dance-single;
#DESCRIPTION:;
#CHARTSTYLE:;
#DIFFICULTY:Hard;
#METER:13;
#RADARVALUES:0.680010,0.705903,0.054966,0.483703,0.351784,433.000000,428.000000,5.000000,44.000000,9.000000,0.000000,0.000000,0.000000,0.000000,0.680010,0.705903,0.054966,0.483703,0.351784,433.000000,428.000000,5.000000,44.000000,9.000000,0.000000,0.000000,0.000000,0.000000;
#CREDIT:Musey;
#NOTES:
0000
0000
0000
0000
,
0000
0000
0000
0000
0001
0000
0100
0000
0010
0000
0100
0000
0001
0010
0001
0000
,
0100
0000
0010
0000
1000
0000
0001
0000
1000
0000
0100
0000
1000
0001
1000
0000
,
0010
0000
0100
0000
0001
0000
0010
0000
0100
0000
0010
0000
0001
1000
0001
0000
,
1000
0000
0010
0000
0100
0000
0001
0000
0010
0000
0100
0000
1000
0001
1000
0000
,
0010
0000
0100
0000
0001
0000
0000
0000
1000
0000
0010
0000
1000
0001
1000
0010
,
1000
0000
0001
0000
0100
0000
0000
0000
0010
0000
1000
0000
0001
0010
0100
0010
,
0001
0000
1000
0000
0010
1000
0010
0000
1000
0010
1000
0000
0001
0000
0100
0000
,
0010
0000
0100
0000
0001
1000
0001
0000
0010
0000
1000
0000
0010
0000
0100
0000
,
0010
0000
0001
0000
0100
0000
0000
0001
0000
0000
0100
0000
0010
0000
1000
0000
,
1000
0000
0001
0000
0100
0000
0000
0100
0000
0000
0001
0000
1000
0000
0010
0000
,
0010
0000
1000
0000
0001
0000
0000
0001
0000
0000
1000
0000
0010
0000
1000
0000
,
0001
1000
0001
0000
0200
0000
0000
0000
0302
0000
0000
0000
0023
0000
0000
0000
,
0032
0000
0103
0000
0010
0100
0001
0000
,
1000
0000
0010
0000
1000
0000
0000
1000
0000
0000
0010
0000
0100
0000
0001
0000
,
0001
1000
0010
0000
1000
0001
0100
0000
,
0010
0000
1000
0000
0001
0000
0000
0001
0000
0000
0100
0000
0010
0000
0100
0000
,
0001
0000
1000
0000
0100
0000
1000
0000
0001
0010
0100
0000
0010
0000
0001
0000
,
1000
0000
0010
0000
1000
0000
0001
0000
1000
0010
0100
0000
0001
0000
0100
0000
,
0010
0000
0100
0000
0001
0000
0010
0000
1000
0010
0001
0000
1000
0000
0010
0000
,
0100
0000
0001
0000
0100
0000
0010
0000
1000
0100
1000
0000
0001
0000
0010
0000
,
0100
0000
0010
0000
0001
0000
1000
0000
0001
0100
0001
0000
0100
0000
0000
0000
,
0020
0030
0000
0000
0020
0030
0000
0000
,
0220
0000
0330
0000
1001
0000
0000
0000
0001
0100
0010
0000
1000
0000
0001
0000
,
0010
0000
0100
0010
0001
0000
1000
0000
0001
1000
0001
0000
0010
0000
0010
0000
,
0001
0000
0001
0000
0100
0001
0100
0000
0010
0000
1000
0000
0100
0000
0010
0100
,
1000
0000
0001
0100
0001
0000
1000
0000
0100
0010
0100
0000
1000
0000
0001
0000
,
0100
0000
0001
1000
0010
0000
1000
0000
0001
0010
0001
0000
1000
0000
0010
0000
,
0100
0010
1000
0000
0001
0000
0010
0000
0001
0010
0001
0000
1000
0000
0010
0000
,
1000
0000
0100
0000
1000
0000
0001
0000
0010
0100
0010
0000
0001
0000
0100
0000
,
0010
0000
0100
0000
0001
0000
0010
0100
0010
0001
1000
0000
0010
0000
0100
0000
,
0001
0000
1000
0010
0100
0000
0001
0000
1000
0010
0100
0000
0001
0000
1000
0010
,
0100
0001
1000
0100
0010
0100
2000
0000
,
0001
3000
0000
0000
0100
0000
0001
0000
1000
0000
0001
0000
0100
0000
0001
0000
,
1000
0010
2000
0000
3002
0000
0203
0300
,
0020
0230
0302
0003
0200
0320
2030
3001
,
0001
0100
0020
0000
1000
0000
0130
0001
,
0001
0000
0001
0100
0010
0100
0001
1000
,
0100
1000
0001
0010
0200
0000
1300
0000
,
0002
2003
3020
0030
0002
2003
3200
0300
,
2000
3000
0202
0303
0000
0000
0000
1000
,
0010
0000
1000
0000
0010
0000
0000
0001
0000
0000
0010
0000
1000
0000
0000
0001
,
0000
0000
0010
0000
1000
0000
0000
0010
0000
0000
0001
0000
1000
0000
MM1M
0000
,
0100
0000
0001
0000
0100
0000
0000
0001
0000
0000
0100
0000
1000
0000
0000
0100
,
0000
0000
0001
0000
0010
0000
0000
1000
0000
0000
0010
0000
0001
0000
1MMM
0000
,
0010
0000
0100
0000
0001
0000
0000
0010
0000
0000
1000
0000
0010
0000
0000
0001
,
0000
0000
1000
0000
0010
0000
0000
0100
0000
0000
0001
0000
1000
0000
MM1M
0000
,
0100
0001
0200
0000
0301
0100
0020
0000
,
2030
0000
3002
0000
0000
0003
0100
0010
,
0010
0000
0100
0000
0002
0000
0000
0000
2003
0000
0000
0000
3100
1000
0000
0001
,
0000
0100
0010
0100
0001
0000
1000
0000
0100
0000
1000
0000
0001
0000
0100
0000
,
1001
0000
0000
0000
0020
0000
0000
0000
2030
0000
0000
0000
3001
1000
0000
0001
,
0000
0100
0010
0100
0001
0000
1000
0000
0100
0000
0010
0000
0002
0000
0000
0000
,
1003
0000
0000
0000
0020
0000
0000
0000
0230
0000
0000
0000
0301
1000
0000
0010
,
0000
1000
0010
1000
0001
0000
0100
0000
0001
0000
1000
0000
0100
0000
0010
0000
,
0110
0000
0000
0000
2000
0000
0000
0000
3002
0000
0000
0000
0103
0001
0000
1000
,
0000
0010
1000
0001
0100
0000
0001
0000
1000
0000
0100
0000
0020
0000
0000
0000
,
0130
0000
1000
0001
1000
0001
1000
0001
,
1000
0001
0020
0030
0000
0000
0000
0000
;

//---------------dance-single - ----------------
#NOTEDATA:;
#CHARTNAME:;
#STEPSTYPE:dance-single;
#DESCRIPTION:;
#CHARTSTYLE:;
#DIFFICULTY:Medium;
#METER:9;
#RADARVALUES:0.574789,0.545471,0.120926,0.340790,0.060463,366.000000,355.000000,11.000000,31.000000,0.000000,0.000000,0.000000,0.000000,0.000000,0.574789,0.545471,0.120926,0.340790,0.060463,366.000000,355.000000,11.000000,31.000000,0.000000,0.000000,0.000000,0.000000,0.000000;
#CREDIT:Musey;
#NOTES:
0000
0000
0000
0000
,
0000
0000
1000
0000
0001
0000
0100
0010
,
0100
0001
0010
0000
0010
0000
0001
1000
,
0010
1000
0001
0000
0001
0000
0100
0010
,
1000
0010
0100
0000
0100
0000
0001
1000
,
0100
0010
0100
0000
0100
0000
1000
0001
,
0100
0001
1000
0000
1000
0000
0010
0100
,
0010
1000
0001
0000
0001
0000
1000
0100
,
1000
0100
0010
0100
1000
0001
0100
0001
,
1000
0010
0100
0001
1000
0001
0100
0010
,
0020
0000
1030
0010
0100
0001
1000
0100
,
0200
0000
1300
0010
0100
0010
1000
0001
,
0010
0001
2000
0000
3200
0000
2300
0000
,
3020
0000
1030
0000
0010
0100
0020
0000
,
1030
0000
0000
0000
0100
0000
0000
1000
0000
0000
0010
0000
0200
0000
0000
0000
,
0301
0000
1000
0000
0100
0010
0020
0000
,
0130
0000
0000
0000
1000
0000
0000
0001
0000
0000
0001
0000
1000
0000
0010
0000
,
0100
0001
0100
0100
0010
1000
0001
0010
,
0100
0010
0001
1000
0010
0010
1000
0001
,
0100
0010
0100
0001
1000
1000
0100
0010
,
0001
0010
0100
1000
0001
0001
1000
0010
,
0100
0001
0010
1000
0010
0001
2000
0000
,
3010
0000
0010
0000
,
0010
0000
1000
0001
0100
0010
1000
1000
,
0001
0010
0100
0100
0010
0001
1000
0000
,
1001
0000
0001
0100
0010
0100
0001
0001
,
1000
1000
0001
0010
0100
0010
0001
0001
,
0100
0010
0100
0001
1000
0010
1000
1000
,
0010
0010
0100
0001
0100
0010
1000
1000
,
0001
0010
0100
0010
0001
1000
0010
0010
,
1000
0100
0010
0100
1000
0001
0200
0000
,
0301
0100
0010
0100
0001
1000
0100
1000
,
0001
0010
0100
0010
0001
1000
0010
0000
,
1010
0000
0001
1000
0100
1000
0001
0010
,
0100
0010
0002
0000
2003
0000
3010
0000
,
0100
0001
0200
0000
0301
0100
0002
0000
,
0203
0320
1000
1030
,
1010
0000
0001
0010
1000
0010
0001
0100
,
0010
0100
0001
1000
0200
0000
1300
0000
,
0001
1000
0020
0000
1030
0001
2000
0000
,
3020
0000
2030
0000
3000
0000
0000
0010
,
0100
0000
0010
0000
0100
0000
0000
0001
0000
0000
0100
0000
0010
0000
0000
1000
,
0000
0000
0001
0000
0100
0000
0000
0010
0000
0000
1000
0000
0002
0000
0000
0000
,
1003
0000
0000
0000
0001
0000
0000
0100
0000
0000
0010
0000
1000
0000
0000
0001
,
0000
0000
0100
0000
0010
0000
0000
1000
0000
0000
0001
0000
0200
0000
0000
0000
,
0310
0000
0000
0000
1000
0000
0000
0100
0000
0000
0010
0000
0100
0000
0000
1000
,
0000
0000
0001
0000
0100
0000
0000
0010
0000
0000
1000
0000
0001
0000
0000
0000
,
0100
0001
0200
0000
0301
0100
0002
0000
,
0203
0320
0000
1030
,
1000
0000
1010
0000
1001
0000
0010
0100
,
0001
0100
0010
1000
0001
0010
0100
0100
,
0010
0000
0011
0000
0101
0000
0001
1000
,
0010
1000
0001
0100
0010
1000
0002
0000
,
0013
0000
1001
0000
1010
0000
0001
0100
,
0010
0100
0001
0001
0010
0010
0100
0010
,
0100
0000
1001
0000
0110
0000
0001
1000
,
0100
1000
0010
1000
0001
0010
0200
0000
,
0310
0001
0001
0001
,
0001
0000
2000
3000
0000
0000
0000
0000
;

//---------------dance-single - ----------------
#NOTEDATA:;
#CHARTNAME:;
#STEPSTYPE:dance-single;
#DESCRIPTION:;
#CHARTSTYLE:;
#DIFFICULTY:Easy;
#METER:5;
#RADARVALUES:0.402038,0.385038,0.010993,0.186885,0.000000,256.000000,255.000000,1.000000,17.000000,0.000000,0.000000,0.000000,0.000000,0.000000,0.402038,0.385038,0.010993,0.186885,0.000000,256.000000,255.000000,1.000000,17.000000,0.000000,0.000000,0.000000,0.000000,0.000000;
#CREDIT:Musey;
#NOTES:
0000
0000
0000
0000
,
0000
1000
0001
0100
,
0100
0001
1000
0010
,
0010
0100
0001
0010
,
0010
0001
1000
0010
,
0010
1000
0001
1000
,
1000
0001
1000
0000
0001
0000
0001
0000
,
0100
0001
0100
0000
0010
0000
1000
0000
,
0001
1000
0010
1000
,
1000
0000
0001
0000
0001
0000
1000
0001
,
1000
0000
0010
0000
0010
0000
1000
0010
,
1000
0000
0001
0000
0001
0000
0100
0001
,
0100
0020
2030
3002
,
0103
0000
0001
0000
0001
0100
0001
0000
,
0100
0000
0010
0000
0010
1000
0010
0000
,
1000
0000
0100
0000
0100
1000
0100
0000
,
1000
0000
0001
0000
0001
0100
0001
0000
,
1000
0010
0010
1000
,
0001
0000
1000
0000
0001
0100
0001
0000
,
1000
0000
0010
0000
1000
0001
1000
0000
,
0010
0000
1000
0000
0100
0010
0001
0000
,
1000
0010
1000
0001
,
0001
1000
1000
0010
,
0010
0000
1000
0000
0001
0000
0100
0001
,
0100
0010
1000
0001
,
1001
0000
0001
0100
0010
0000
1000
0000
,
1000
0000
0001
1000
0100
0000
0010
0000
,
0010
0000
0001
1000
0010
0000
1000
0000
,
1000
0000
0001
0100
0010
0000
1000
0000
,
1000
0000
0001
0010
0100
0000
1000
0000
,
1000
0000
0001
0100
0010
0000
1000
0000
,
1000
0001
0001
1000
,
1000
0010
1000
0002
,
0000
1003
1000
0010
,
0010
1000
1000
0001
,
0100
0001
0100
0000
0001
0100
0001
0000
,
0100
0020
0000
1030
,
0000
0001
0001
1000
,
1000
0000
0001
1000
0010
0000
1000
0000
,
0001
0100
0001
0000
0100
0001
0100
0000
,
0002
0023
0030
0000
,
0000
0001
0100
0001
,
0100
0000
0001
0100
0001
0000
2000
0000
,
3010
1000
0010
1000
,
0010
0000
1000
0010
1000
0000
0020
0000
,
0130
0001
1000
0001
,
0100
0000
0001
1000
0001
0000
0100
0000
,
0001
1000
0002
0000
1003
0001
2000
0000
,
3001
0200
0000
0001
,
0301
1000
1000
0001
,
0100
0000
0001
1000
0001
0000
0200
0000
,
0310
1000
1000
0001
,
0001
0000
0100
0001
1000
0000
0020
0000
,
1030
0010
0010
0100
,
0100
0000
0001
1000
0001
0000
0200
0000
,
0301
1000
1000
0010
,
0010
0000
1000
0001
0100
0000
0002
0000
,
1003
0010
0010
0010
,
0010
0000
0200
0300
0000
0000
0000
0000
;

//---------------dance-single - ----------------
#NOTEDATA:;
#CHARTNAME:;
#STEPSTYPE:dance-single;
#DESCRIPTION:;
#CHARTSTYLE:;
#DIFFICULTY:Beginner;
#METER:3;
#RADARVALUES:0.241851,0.256142,0.000000,0.142912,0.000000,154.000000,154.000000,0.000000,13.000000,0.000000,0.000000,0.000000,0.000000,0.000000,0.241851,0.256142,0.000000,0.142912,0.000000,154.000000,154.000000,0.000000,13.000000,0.000000,0.000000,0.000000,0.000000,0.000000;
#CREDIT:Musey;
#NOTES:
0000
0000
0000
0000
,
0000
1000
0000
0010
,
0000
1000
0001
1000
,
0000
0010
0000
0100
,
0000
0001
0100
0001
,
0000
0010
0000
0010
,
0001
0100
0000
0100
,
0010
1000
0000
1000
,
0001
0100
0000
0100
,
0001
1000
1000
0020
,
0000
1030
0001
2000
,
0000
3010
0100
0002
,
0000
0023
0000
0032
,
0000
0103
0100
0020
,
0000
1030
0001
0200
,
0000
0310
1000
0002
,
0000
0013
0001
0200
,
0000
0310
1000
0010
,
0000
1000
0001
0100
,
0000
0010
1000
0001
,
0000
0100
0001
1000
,
0000
0010
1000
0001
,
1000
0000
1000
0000
,
1000
0010
0100
0001
,
0000
1000
0001
1000
,
0000
0010
1000
0001
,
0000
0100
0001
0100
,
0000
0010
1000
0001
,
0000
1000
0001
0010
,
0000
0001
1000
0010
,
0000
1000
0001
0100
,
0000
0001
1000
0010
,
1000
0002
0000
0103
,
0000
0010
0100
0001
,
0000
1000
0000
1000
,
0000
0010
0000
0010
,
0000
2000
0000
3001
,
0000
0100
0001
0010
,
0000
0010
0000
1000
,
0000
0001
0000
0100
,
0000
0002
0000
0003
,
0000
1000
0010
1000
,
0000
0001
1000
0001
,
0000
0100
0001
0100
,
0000
0010
1000
0010
,
0000
0100
0001
0100
,
0000
1000
0010
1000
,
0000
0001
0000
0001
,
0000
2000
0000
3010
,
0000
1000
0001
0100
,
0000
0010
0000
0010
,
0000
1000
0001
1000
,
0000
0001
0000
0010
,
0000
1000
0001
1000
,
0000
0010
0000
0010
,
0000
0100
0001
0100
,
0000
0010
0000
1000
,
0000
0001
0000
0000
,
0000
1000
0000
0000
;
