#VERSION:0.83;
#TITLE:Been Like This;
#SUBTITLE:;
#ARTIST:Meghan Trainor, T-Pain;
#TITLETRANSLIT:;
#SUBTITLETRANSLIT:;
#ARTISTTRANSLIT:;
#GENRE:;
#ORIGIN:;
#CREDIT:;
#BANNER:AV.avi;
#BACKGROUND:bg.png;
#PREVIEWVID:;
#JACKET:jacket.png;
#CDIMAGE:;
#DISCIMAGE:bn.png;
#LYRICSPATH:;
#CDTITLE:;
#MUSIC:audio.mp3;
#OFFSET:-0.267000;
#SAMPLESTART:40.002792;
#SAMPLELENGTH:14.999984;
#SELECTABLE:YES;
#BPMS:0.000=120.010;
#STOPS:;
#DELAYS:;
#WARPS:;
#TIMESIGNATURES:0.000=4=4;
#TICKCOUNTS:0.000=4;
#COMBOS:0.000=1;
#SPEEDS:0.000=1.000=0.000=0;
#SCROLLS:0.000=1.000,
92.000=1.750,
92.250=0.250,
92.500=1.750,
92.750=0.250,
93.000=1.750,
93.250=0.250,
93.500=1.750,
93.750=0.250,
94.000=1.750,
94.250=0.250,
94.500=1.750,
94.750=0.250,
95.000=1.000,
112.000=1.750,
113.000=0.500,
114.000=1.750,
115.000=0.500,
116.000=1.750,
117.000=1.000,
188.000=1.750,
188.250=0.250,
188.500=1.750,
188.750=0.250,
189.000=1.750,
189.250=0.250,
189.500=1.750,
189.750=0.250,
190.000=1.750,
190.250=0.250,
190.500=1.000,
204.000=1.750,
204.250=0.250,
204.500=1.750,
204.750=0.250,
205.000=1.750,
205.250=0.250,
205.500=1.750,
205.750=0.250,
206.000=1.750,
206.250=0.250,
206.500=1.750,
206.750=0.250,
207.000=1.000,
252.000=1.750,
252.500=0.250,
253.000=1.750,
253.500=0.250,
254.000=1.750,
254.500=0.250,
255.000=1.000;
#FAKES:;
#LABELS:0.000=Song Start;
#BGCHANGES:0.000=MV.avi=1.400=1=0=0=StretchNoLoop==CrossFade==,
3.500=MV.avi=1.000=0=0=1=====,
99999=-nosongbg-=1.000=0=0=0 // don't automatically add -songbackground-
;
#KEYSOUNDS:;
#ATTACKS:
;

//---------------dance-single - ----------------
#NOTEDATA:;
#CHARTNAME:;
#STEPSTYPE:dance-single;
#DESCRIPTION:;
#CHARTSTYLE:Rajeious's Chart;
#DIFFICULTY:Challenge;
#METER:15;
#RADARVALUES:0.612271,0.770176,0.322300,1.104048,0.476592,625.000000,578.000000,47.000000,161.000000,0.000000,0.000000,0.000000,0.000000,0.000000,0.612271,0.770176,0.322300,1.104048,0.476592,625.000000,578.000000,47.000000,161.000000,0.000000,0.000000,0.000000,0.000000,0.000000;
#CREDIT:Rajeious's Chart;
#OFFSET:-0.267000;
#BPMS:0.000000=120.010002
;
#STOPS:;
#DELAYS:;
#WARPS:212.000000=12.000000
;
#TIMESIGNATURES:0.000000=4=4
;
#TICKCOUNTS:0.000000=4
;
#COMBOS:0.000000=1
;
#SPEEDS:0.000000=1.000000=0.000000=0
,224.000000=0.500000=1.000000=0
,225.000000=0.300000=1.500000=0
,226.500000=0.200000=1.500000=0
,228.000000=0.500000=8.000000=0
,244.000000=0.250000=8.000000=0
,256.000000=0.500000=4.000000=0
;
#SCROLLS:0.000000=1.000000
,92.000000=1.750000
,92.250000=0.250000
,92.500000=1.750000
,92.750000=0.250000
,93.000000=1.750000
,93.250000=0.250000
,93.500000=1.750000
,93.750000=0.250000
,94.000000=1.750000
,94.250000=0.250000
,94.500000=1.750000
,94.750000=0.250000
,95.000000=1.000000
,112.000000=1.750000
,113.000000=0.500000
,114.000000=1.750000
,115.000000=0.500000
,116.000000=1.750000
,117.000000=1.000000
,188.000000=1.750000
,188.250000=0.250000
,188.500000=1.750000
,188.750000=0.250000
,189.000000=1.750000
,189.250000=0.250000
,189.500000=1.750000
,189.750000=0.250000
,190.000000=1.750000
,190.250000=0.250000
,190.500000=1.000000
,204.000000=1.750000
,204.250000=0.250000
,204.500000=1.750000
,204.750000=0.250000
,205.000000=1.750000
,205.250000=0.250000
,205.500000=1.750000
,205.750000=0.250000
,206.000000=1.750000
,206.250000=0.250000
,206.500000=1.750000
,206.750000=0.250000
,207.000000=1.000000
,224.000000=2.000000
,264.000000=3.750000
,264.250000=1.250000
,264.500000=3.750000
,264.750000=1.250000
,265.000000=3.750000
,265.250000=1.250000
,265.500000=3.750000
,265.750000=1.250000
,266.000000=3.750000
,266.250000=1.250000
,266.500000=3.750000
,266.750000=1.250000
,267.000000=2.000000
,280.000000=3.750000
,280.250000=1.250000
,280.500000=3.750000
,280.750000=1.250000
,281.000000=3.750000
,281.250000=1.250000
,281.500000=3.750000
,281.750000=1.250000
,282.000000=3.750000
,282.250000=1.250000
,282.500000=3.750000
,282.750000=1.250000
,283.000000=2.000000
,296.000000=3.750000
,296.250000=1.250000
,296.500000=3.750000
,296.750000=1.250000
,297.000000=3.750000
,297.250000=1.250000
,297.500000=3.750000
,297.750000=1.250000
,298.000000=3.750000
,298.250000=1.250000
,298.500000=3.750000
,298.750000=1.250000
,299.000000=2.000000
;
#FAKES:;
#LABELS:0.000000=Song Start
;
#NOTES:
// measure 0
0000
0000
0000
0000
,  // measure 1
0000
0000
0000
0000
,  // measure 2
0000
0000
0000
0000
,  // measure 3
0000
0000
0000
0000
,  // measure 4
2000
0000
0000
3100
0000
0000
0000
0000
1000
0000
0100
0000
0010
0000
0001
0000
,  // measure 5
2000
0000
0000
3100
0000
0000
0000
0000
0010
0000
0001
0000
1000
0000
0100
0000
,  // measure 6
0011
0000
0000
0010
0000
0000
0001
0000
1010
0000
0000
1000
0000
0000
0010
0000
,  // measure 7
0110
0000
0000
1000
0000
0000
0010
0000
1001
0000
0000
0001
0100
0000
0001
0000
,  // measure 8
1000
0000
0010
0200
0000
0000
0310
0000
0100
0000
0010
0000
1000
0000
0001
0000
,  // measure 9
0010
0000
0100
0020
0000
0000
0031
0000
0100
0000
0010
0000
1000
0000
0100
0000
,  // measure 10
0010
0000
0010
0002
0000
0000
1003
0000
0100
0000
0010
0200
0000
0000
1300
0000
,  // measure 11
0100
0000
0010
0001
0010
0000
0100
0000
1000
0000
0010
0000
1000
0000
0001
0000
,  // measure 12
0020
0000
0000
0032
0000
0000
1003
0000
0020
0000
0000
0230
0000
0000
0300
0000
,  // measure 13
0002
0000
0000
0203
0000
0000
0310
0000
2000
0000
0000
3200
0000
0000
0301
0000
,  // measure 14
0200
0000
0000
2300
0000
0000
3001
0000
0200
0000
0000
0320
0000
0000
0031
0000
,  // measure 15
0020
0000
0000
0230
0000
0000
0310
0000
1000
0000
0001
0000
0100
0000
0001
0000
,  // measure 16
0020
0000
0000
0032
0000
0000
1003
0000
0002
0000
0000
0023
0000
0000
1030
0000
,  // measure 17
0020
0000
0000
0230
0000
0000
0310
0000
0200
0000
0000
0320
0000
0000
0031
0000
,  // measure 18
1000
0001
0010
0001
0100
0010
1000
0100
,  // measure 19
1000
0010
1000
1000
0002
0000
0103
0000
,  // measure 20
1001
0000
0010
0100
0020
0000
1030
0000
1000
0000
0100
0010
0200
0000
0310
0000
,  // measure 21
0020
0000
0032
0000
0023
0000
0031
0010
0200
0000
0320
0000
0032
0000
1003
0000
,  // measure 22
0001
0000
0100
0010
0002
0000
1003
0000
1000
0000
0001
0010
0200
0000
0301
0000
,  // measure 23
1002
0103
1002
0103
1002
0103
1002
0013
,  // measure 24
2001
0000
3001
0010
0100
0010
0001
0000
2001
0000
3010
0100
0010
1000
0001
0000
,  // measure 25
0012
0000
1003
0100
0001
0100
0010
0001
0020
0000
0031
0010
0200
0000
1300
0000
,  // measure 26
0001
0000
1000
0010
0002
0000
0013
0000
0010
0000
0001
0010
2000
0000
3010
0100
,  // measure 27
1000
0100
0001
0100
1000
0100
0001
0100
1000
0000
0000
0000
0000
0000
0000
0000
,  // measure 28
2002
3003
2020
3030
,  // measure 29
0220
0000
0330
0000
0000
0000
0000
0001
,  // measure 30
1001
0000
0000
0100
0000
0000
1000
0000
1010
0000
0000
0001
0000
0000
0100
0000
,  // measure 31
0101
0000
0000
0001
0000
0000
1000
0000
1010
0000
0000
0001
0100
0010
1000
0000
,  // measure 32
0002
0000
0000
0000
0000
0000
0000
0000
0000
1003
0000
0000
0000
0000
0000
0000
1000
0000
0100
0000
0000
0000
0100
0000
0010
0000
0000
0000
0010
0000
0001
0000
0000
0000
0001
0000
1000
0000
0000
0000
1000
0000
0001
0000
0000
0000
0000
0000
,  // measure 33
0002
0000
0000
1003
0000
0000
1000
0000
0001
0100
0001
0010
0100
0010
0100
0000
,  // measure 34
1001
0000
0100
0001
0000
0001
0100
0000
1010
0000
1000
0010
0000
0010
0100
0000
,  // measure 35
1001
0000
0001
0100
0000
1000
0100
0000
1100
0000
2000
0000
3200
0000
0320
0000
,  // measure 36
0032
0000
1003
0200
0000
0000
1300
0000
0002
0000
0103
0020
0000
0000
2030
0000
,  // measure 37
3002
0000
1003
0100
0001
0100
1000
0000
0020
0000
0000
0230
0000
0000
0301
0000
,  // measure 38
2000
0000
0000
3100
0000
1000
0002
0000
0203
0000
0301
1000
0000
1000
0002
0000
,  // measure 39
0023
0230
2300
3002
,  // measure 40
1003
0000
0010
0100
0000
1000
0001
0000
0200
0000
0000
0302
0000
0000
2003
0000
,  // measure 41
3000
0000
0002
0000
0023
0000
0230
0000
2300
0000
0000
3001
0000
0000
0100
0000
,  // measure 42
0010
0000
1000
0001
0000
0001
1000
0000
0100
0000
0010
0001
0000
0001
0010
0000
,  // measure 43
0001
0000
0000
0010
0000
0000
0100
0000
0000
1000
0000
0000
1000
0000
0001
0010
0000
0001
1000
0000
0000
0000
0000
0000
,  // measure 44
0001
0000
1000
0100
0002
0000
1003
0000
1000
0000
0001
0100
2000
0000
3100
0000
,  // measure 45
0200
0000
0320
0000
0032
0000
1003
0100
0020
0000
0230
0000
2300
0000
3001
0010
,  // measure 46
1000
0010
0001
1000
0100
1000
0100
0010
0001
0000
0001
1000
0020
0000
1030
0000
,  // measure 47
1002
0000
0103
0000
1002
0000
0103
0000
1002
0000
0103
0010
1000
0010
0100
0000
,  // measure 48
1002
0000
1003
0100
0010
0100
1000
0000
2010
0000
3001
0010
1000
0010
0001
0000
,  // measure 49
2001
0000
3001
0010
1000
0010
0100
1000
0200
0000
2300
0000
3100
0010
0001
1000
,  // measure 50
0001
0000
1000
0010
0002
0000
0013
0000
0010
0000
0001
0010
2000
0000
3001
0000
,  // measure 51
0120
1030
0120
1030
0120
1030
0002
0000
,  // measure 52
0003
0000
1000
0100
0010
0000
0002
0000
0003
0000
0010
0100
1000
0000
2000
0000
,  // measure 53
3000
0000
0000
0000
,  // measure 54
0000
0000
0000
0000
,  // measure 55
0000
0000
0000
0000
,  // measure 56
0000
0000
0000
0000
,  // measure 57
1000
0000
1000
0010
0100
0000
0001
0000
2000
0000
3100
0000
0001
0100
1000
0000
,  // measure 58
0010
0000
0100
0001
1000
0100
0010
0100
0010
0000
0010
0000
0001
1000
0002
0000
,  // measure 59
1003
0000
1000
0100
1000
0000
0010
0000
0100
0000
0002
0000
2003
0000
3002
0000
,  // measure 60
0103
0000
0001
0100
1000
0000
0100
0000
0001
0000
1000
0000
0010
0000
1000
0000
,  // measure 61
0002
0023
2030
3020
0032
2003
3020
0230
,  // measure 62
0320
1030
0020
1030
0020
1030
0002
0000
,  // measure 63
1003
0000
1000
0100
0002
0000
1003
0000
1000
0000
0001
0100
2000
0000
3001
0000
,  // measure 64
1002
0000
2003
0000
3020
0000
1030
0010
0200
0000
0302
0000
2003
0000
3001
1000
,  // measure 65
0100
0000
0100
0010
0002
0000
1003
0000
1000
0000
0001
0010
0200
0000
1300
0000
,  // measure 66
0012
1003
2010
3001
0012
1003
2010
3001
,  // measure 67
2100
0000
3001
0100
0010
0100
0010
0000
2010
0000
3001
0010
1000
0010
0001
0000
,  // measure 68
2100
0000
3001
0010
0001
0010
0100
1000
0200
0000
2300
0000
3001
0100
0001
1000
,  // measure 69
0001
0000
1000
0100
0020
0000
0130
0000
0100
0000
0010
0100
2000
0000
3001
0000
,  // measure 70
0120
1030
0210
0301
0120
1030
0002
0000
,  // measure 71
1003
0000
0010
0100
0020
0000
0031
0000
0010
0000
0100
0010
0200
0000
1300
0000
,  // measure 72
0100
0000
0010
1000
0100
1000
0010
0000
2000
0000
3200
0000
1300
0001
1000
0001
,  // measure 73
0010
0000
0001
0010
0200
0000
0310
0000
0010
0000
0100
0010
0002
0000
1003
0000
,  // measure 74
2100
3001
0102
1003
2100
3001
0102
0003
;

//---------------dance-single - ----------------
#NOTEDATA:;
#CHARTNAME:;
#STEPSTYPE:dance-single;
#DESCRIPTION:;
#CHARTSTYLE:Rajeious's Chart;
#DIFFICULTY:Hard;
#METER:11;
#RADARVALUES:0.503532,0.566810,0.089147,0.363444,0.301727,514.000000,501.000000,13.000000,53.000000,0.000000,0.000000,0.000000,0.000000,0.000000,0.503532,0.566810,0.089147,0.363444,0.301727,514.000000,501.000000,13.000000,53.000000,0.000000,0.000000,0.000000,0.000000,0.000000;
#CREDIT:Rajeious's Chart;
#OFFSET:-0.267000;
#BPMS:0.000000=120.010002
;
#STOPS:;
#DELAYS:;
#WARPS:;
#TIMESIGNATURES:0.000000=4=4
;
#TICKCOUNTS:0.000000=4
;
#COMBOS:0.000000=1
;
#SPEEDS:0.000000=1.000000=0.000000=0
;
#SCROLLS:0.000000=1.000000
,92.000000=1.750000
,92.250000=0.250000
,92.500000=1.750000
,92.750000=0.250000
,93.000000=1.750000
,93.250000=0.250000
,93.500000=1.750000
,93.750000=0.250000
,94.000000=1.750000
,94.250000=0.250000
,94.500000=1.750000
,94.750000=0.250000
,95.000000=1.000000
,112.000000=1.750000
,113.000000=0.500000
,114.000000=1.750000
,115.000000=0.500000
,116.000000=1.750000
,117.000000=1.000000
,188.000000=1.750000
,188.250000=0.250000
,188.500000=1.750000
,188.750000=0.250000
,189.000000=1.750000
,189.250000=0.250000
,189.500000=1.750000
,189.750000=0.250000
,190.000000=1.750000
,190.250000=0.250000
,190.500000=1.000000
,204.000000=1.750000
,204.250000=0.250000
,204.500000=1.750000
,204.750000=0.250000
,205.000000=1.750000
,205.250000=0.250000
,205.500000=1.750000
,205.750000=0.250000
,206.000000=1.750000
,206.250000=0.250000
,206.500000=1.750000
,206.750000=0.250000
,207.000000=1.000000
,252.000000=1.750000
,252.250000=0.250000
,252.500000=1.750000
,252.750000=0.250000
,253.000000=1.750000
,253.250000=0.250000
,253.500000=1.750000
,253.750000=0.250000
,254.000000=1.750000
,254.250000=0.250000
,254.500000=1.750000
,254.750000=0.250000
,255.000000=1.000000
,268.000000=1.750000
,268.250000=0.250000
,268.500000=1.750000
,268.750000=0.250000
,269.000000=1.750000
,269.250000=0.250000
,269.500000=1.750000
,269.750000=0.250000
,270.000000=1.750000
,270.250000=0.250000
,270.500000=1.750000
,270.750000=0.250000
,271.000000=1.000000
,284.000000=1.750000
,284.250000=0.250000
,284.500000=1.750000
,284.750000=0.250000
,285.000000=1.750000
,285.250000=0.250000
,285.500000=1.750000
,285.750000=0.250000
,286.000000=1.750000
,286.250000=0.250000
,286.500000=1.750000
,286.750000=0.250000
,287.000000=1.000000
;
#FAKES:;
#LABELS:0.000000=Song Start
;
#NOTES:
0000
0000
0000
0000
,
0000
0000
0000
0000
,
0000
0000
0000
0000
,
0000
0000
0000
0000
,
1000
0000
0000
0100
0000
0000
0000
0000
1000
0000
0010
0000
0100
0000
0001
0000
,
0010
0000
0000
0001
0000
0000
0000
0000
1000
0000
0010
0000
0100
0000
0001
0000
,
1001
0000
0000
0001
0000
0000
1000
0000
1100
0000
0000
0100
0000
0000
1000
0000
,
1010
0000
0000
0010
0000
0000
1000
0000
0001
0000
0010
0000
1000
0000
0010
0000
,
0001
0000
0000
0010
0000
0000
0001
0000
1000
0000
0010
0000
0100
0000
0001
0000
,
0010
0000
0000
0010
0000
0000
0001
0000
1000
0000
0100
0000
1000
0000
0010
0000
,
0100
0000
0000
0100
0000
0000
0001
0000
0010
0000
0000
0010
0000
0000
0001
0000
,
1000
0000
0000
1000
0000
1000
0100
0000
1000
0000
0010
0000
0100
0000
0001
0000
,
0010
0000
0000
0010
0000
0000
0001
0000
1000
0000
0000
1000
0000
0000
0100
0000
,
0010
0000
0000
0010
0000
0000
0001
0000
1000
0000
0000
1000
0000
0000
0100
0000
,
0100
0000
0000
0000
1000
0000
0010
0000
0100
0000
0000
0100
0000
0000
0001
0000
,
0010
0000
0000
0100
0000
0000
1000
0000
0010
0000
0100
0000
0001
0000
0010
0000
,
0001
0000
0000
0001
0000
0000
1000
0000
0100
0000
0000
0100
0000
0000
1000
0000
,
0010
0000
0000
0100
0000
0000
0001
0000
0010
0000
0000
0001
0000
0000
1000
0000
,
0100
1000
0100
0010
0001
0010
0001
0010
,
0001
0001
1000
1000
0010
0100
0001
0000
,
1000
1000
0200
0000
1300
1000
0020
0000
,
1030
0000
0001
0000
0010
0000
0100
1000
0100
0000
1000
0000
0010
0000
0100
0000
,
0001
0000
0010
0000
0002
0000
0000
0000
1003
0000
0100
0000
1000
0000
0001
0010
,
0200
0310
0200
0310
0200
0310
0200
0300
,
0001
0000
0010
0000
0001
0000
1000
0100
1000
0000
0100
0000
0010
0000
0100
1000
,
0001
0000
0100
0000
0010
0000
1000
0001
2000
0000
0000
3000
0010
0000
1000
0000
,
0001
0000
0010
0000
0200
0000
0010
0000
0310
0000
0001
0000
1000
0000
0001
0010
,
0200
1300
0200
1300
0200
0300
0000
0000
,
2002
3003
0202
0303
,
2002
0000
3003
0000
0000
0000
0000
1000
,
1001
0000
0000
0010
0000
0000
0100
0000
1100
0000
0000
1000
0000
0000
0001
0000
,
0101
0000
0000
0100
0000
0000
0010
0000
1000
0000
0000
0001
0100
0000
0001
0000
,
0010
0000
0000
0001
0000
0000
1000
0000
0100
0000
0001
0000
0100
0000
1000
0000
,
0010
0000
0000
1000
0000
0000
0001
0000
0010
0000
0100
0000
0010
0000
1000
0000
,
0001
0000
0001
0100
0000
0000
1000
0000
0010
0000
0100
0010
0000
0000
0100
0000
,
0001
0000
0010
0001
0000
0000
1000
0000
0001
0000
0010
0000
0100
0000
0001
0000
,
1000
0000
0000
0020
0000
0000
0130
0000
1000
0000
0000
0002
0000
0000
0103
0000
,
0010
0000
0000
2000
0000
0000
3010
0000
0100
0000
0000
0002
0000
0000
1003
0000
,
0010
0000
0000
0020
0000
0000
0031
0000
0010
0000
0000
0020
0000
0000
0130
0000
,
0020
2030
3002
0023
,
0031
0000
0000
0001
0000
0000
0100
0000
0010
0000
0000
1000
0000
0000
0100
0000
,
0000
0000
1000
0000
0100
0000
0010
0000
0001
0000
0000
0100
0000
0000
0010
0000
,
1000
0000
0100
1000
0000
1000
0001
0000
0010
0000
0001
0010
0000
0010
0001
0000
,
0100
0010
0100
0010
1000
0001
0010
0000
,
0001
0000
0010
0000
0001
0000
0100
0010
0100
0000
0001
0000
1000
0000
0100
1000
,
0100
0000
0010
0000
0001
0000
0010
0001
0010
0000
0001
0000
1000
0000
0100
0010
,
0001
0000
0001
0000
0010
0000
0100
1000
0001
0000
0001
0000
1000
0000
1000
0010
,
0200
0310
0200
0310
0200
0310
0200
0300
,
0001
0000
1000
0010
0100
0000
0010
0000
0100
0000
0010
0100
0001
0000
0100
0000
,
0001
0000
1000
0000
0100
0000
0010
0001
1000
0000
0100
0000
1000
0000
0001
0010
,
0100
0000
1000
0000
1000
0000
0100
0010
0001
0000
1000
0010
1000
0000
0001
0100
,
0020
0130
0020
0031
0020
0130
0002
0000
,
0013
0000
0000
0010
0000
0000
0010
0000
0100
0000
0000
0100
0000
0000
0100
0000
,
1002
0000
0000
0000
,
1003
0000
1001
0000
0100
0010
0001
1000
,
0010
0000
1010
0000
0100
0001
0010
0100
,
1000
0000
0001
0100
0001
0000
1000
0000
0100
0000
0001
0000
0100
0000
1000
0000
,
0001
0000
0100
0001
0100
0000
0010
0000
1000
0000
0010
0000
0001
0000
1000
0000
,
0100
0010
0100
0010
1000
1000
0001
1000
,
0020
0130
0020
0031
0020
0130
0020
0000
,
1030
0000
0000
1000
0000
0000
1000
0000
0001
0000
0000
0001
0000
0000
0001
0000
,
0110
0000
0100
0000
0001
0000
1000
0010
1000
0000
0010
0000
0100
0000
0001
0010
,
0100
0000
1000
0000
1000
0000
0100
0010
0001
0000
1000
0010
1000
0000
0001
0010
,
0002
1003
0002
0103
0002
1003
0010
0000
,
0001
0000
0010
0000
0100
0000
1000
0001
1000
0000
0010
0000
0100
0000
0001
0010
,
0001
0000
1000
0000
0100
0000
0010
0001
1000
0000
0100
0000
1000
0000
0001
0010
,
1000
0000
0010
0000
0010
0000
1000
0010
0001
0000
0100
0010
0100
0000
0001
0100
,
0002
0103
2000
3100
0002
0103
2000
0000
,
3100
0000
0000
0010
0100
0000
0001
0000
0020
0000
0000
0130
1000
0000
0001
0000
,
0100
0000
0001
0010
0100
0000
0010
0000
0001
0000
1000
0000
0001
1000
0010
1000
,
0001
0000
0100
0000
0001
0000
0100
0010
1000
0010
1000
0000
0001
0000
0100
0010
,
2000
3100
0002
0013
2000
3100
0002
0003
;

//---------------dance-single - ----------------
#NOTEDATA:;
#CHARTNAME:;
#STEPSTYPE:dance-single;
#DESCRIPTION:;
#CHARTSTYLE:Rajeious's Chart;
#DIFFICULTY:Medium;
#METER:8;
#RADARVALUES:0.356587,0.418218,0.288013,0.116576,0.000000,364.000000,322.000000,42.000000,17.000000,0.000000,0.000000,0.000000,0.000000,0.000000,0.356587,0.418218,0.288013,0.116576,0.000000,364.000000,322.000000,42.000000,17.000000,0.000000,0.000000,0.000000,0.000000,0.000000;
#CREDIT:Rajeious's Chart;
#OFFSET:-0.267000;
#BPMS:0.000000=120.010002
;
#STOPS:;
#DELAYS:;
#WARPS:;
#TIMESIGNATURES:0.000000=4=4
;
#TICKCOUNTS:0.000000=4
;
#COMBOS:0.000000=1
;
#SPEEDS:0.000000=1.000000=0.000000=0
;
#SCROLLS:0.000000=1.000000
,92.000000=1.750000
,92.500000=0.250000
,93.000000=1.750000
,93.500000=0.250000
,94.000000=1.750000
,94.500000=0.250000
,95.000000=1.000000
,113.000000=0.500000
,114.000000=1.750000
,115.000000=0.500000
,116.000000=1.750000
,117.000000=1.000000
,188.000000=1.750000
,188.500000=0.250000
,189.000000=1.750000
,189.500000=0.250000
,190.000000=1.750000
,190.500000=0.250000
,191.000000=1.000000
,204.000000=1.750000
,204.500000=0.250000
,205.000000=1.750000
,205.500000=0.250000
,206.000000=1.750000
,206.500000=0.250000
,207.000000=1.000000
,252.000000=1.750000
,252.500000=0.250000
,253.000000=1.750000
,253.500000=0.250000
,254.000000=1.750000
,254.500000=0.250000
,255.000000=1.000000
,268.000000=1.750000
,268.500000=0.250000
,269.000000=1.750000
,269.500000=0.250000
,270.000000=1.750000
,270.500000=0.250000
,271.000000=1.000000
,284.000000=1.750000
,284.500000=0.250000
,285.000000=1.750000
,285.500000=0.250000
,286.000000=1.750000
,286.500000=0.250000
,287.000000=1.000000
,288.250000=7.000000
;
#FAKES:;
#LABELS:0.000000=Song Start
;
#NOTES:
0000
0000
0000
0000
,
0000
0000
0000
0000
,
0000
0000
0000
0000
,
0000
0000
0000
0000
,
1001
0000
1010
0000
,
0101
0000
1001
0000
,
0010
1000
0010
0000
1000
0100
1000
0000
,
0001
0100
0001
0000
1000
0000
0100
0000
,
1001
0100
1010
0010
,
0101
1000
0011
1000
,
1000
0100
1000
0000
0001
0100
0001
0000
,
1000
0010
1000
0001
0010
0000
0001
0000
,
0200
0000
2300
0000
,
3002
0000
0203
0000
,
0320
0000
2030
0000
,
3002
0000
0023
0000
,
0031
0001
1000
1000
,
0010
0010
0100
0100
,
0001
0010
0001
0010
0100
1000
0100
1000
,
0002
0000
0000
1003
,
0001
0100
0001
0000
0100
0010
0100
0000
,
0001
1000
0001
1000
0100
0010
0001
0000
,
1000
0010
1000
0000
0001
0010
0001
0000
,
1100
1100
1100
1100
,
0001
1000
0001
0000
0100
0010
0100
0000
,
0001
1000
0001
0000
0100
0010
0100
0000
,
0001
1000
0001
0000
1000
0100
1000
0000
,
0101
0101
0001
0000
,
1001
0000
1010
0000
,
1001
0000
0000
0000
,
1000
1000
0010
0010
,
0100
0100
0001
1000
,
0001
0010
1000
0010
,
0001
0001
0010
0001
,
1000
1100
0001
0011
,
1000
1001
0100
1000
,
0010
0010
1000
1000
,
0001
0001
0010
0010
,
0100
1000
0100
0010
,
0002
2003
3200
2300
,
3001
0000
0010
0000
0001
1000
0100
0000
,
1000
0000
0100
0000
0001
1000
0010
0000
,
0100
0100
0001
0001
,
0010
0100
0010
0100
0010
0100
0010
0000
,
0001
1000
0001
0000
1000
0001
1000
0000
,
0010
0001
1000
0100
1000
0100
0010
0001
,
1000
0100
0001
0100
1000
0001
0010
0000
,
0110
0110
0110
1100
,
0001
1000
0001
0000
0010
0100
1000
0000
,
0001
1000
0001
0010
0100
0010
0001
0000
,
0001
0010
0001
0000
1000
0010
1000
0000
,
1001
1001
1001
0001
,
0010
0000
0010
0000
,
1001
0000
0001
0100
0001
0000
1000
0000
,
0010
1010
0001
1001
,
0100
0000
0100
0010
1000
0010
0100
0000
,
0001
0000
0001
0000
0100
0010
0100
0001
,
1000
1000
0100
0010
,
0001
1000
0001
1000
0010
0100
0010
0100
,
0002
2003
3002
2003
,
3001
0100
0001
0000
1000
0010
1000
0000
,
1001
0000
0010
0000
1000
0001
1000
0100
,
1000
0100
1000
0000
0001
0010
0001
0000
,
1001
1001
1001
1001
,
1000
0100
1000
0000
0001
0010
0001
0000
,
0100
0010
0100
0001
1000
0100
1000
0000
,
0001
0010
0100
0000
1000
0001
0100
0000
,
0101
0101
0101
0101
,
1000
0000
0100
0010
0001
0000
0001
1000
,
0100
0000
1000
0000
0001
1000
0001
1000
,
0010
0000
0100
0000
0001
0010
0001
0000
,
1100
1100
1100
1000
;

//---------------dance-single - ----------------
#NOTEDATA:;
#CHARTNAME:;
#STEPSTYPE:dance-single;
#DESCRIPTION:;
#CHARTSTYLE:Rajeious's Chart;
#DIFFICULTY:Easy;
#METER:4;
#RADARVALUES:0.229234,0.246011,0.082289,0.185151,0.000000,234.000000,222.000000,12.000000,27.000000,0.000000,0.000000,0.000000,0.000000,0.000000,0.229234,0.246011,0.082289,0.185151,0.000000,234.000000,222.000000,12.000000,27.000000,0.000000,0.000000,0.000000,0.000000,0.000000;
#CREDIT:Rajeious's Chart;
#OFFSET:-0.267000;
#BPMS:0.000000=120.010002
;
#STOPS:;
#DELAYS:;
#WARPS:;
#TIMESIGNATURES:0.000000=4=4
;
#TICKCOUNTS:0.000000=4
;
#COMBOS:0.000000=1
;
#SPEEDS:0.000000=1.000000=0.000000=0
;
#SCROLLS:0.000000=1.000000
;
#FAKES:;
#LABELS:0.000000=Song Start
;
#NOTES:
0000
0000
0000
0000
,
0000
0000
0000
0000
,
0000
0000
0000
0000
,
0000
0000
0000
0000
,
1000
0000
0001
0000
,
1000
0000
0010
0000
,
1000
1000
0001
0001
,
0100
0100
0010
0010
,
1000
0000
0001
0000
,
1000
0000
0100
0000
,
1000
1000
0100
0100
,
0010
0010
0001
0001
,
2000
0000
3100
0000
,
0002
0000
0013
0000
,
2000
0000
3002
0000
,
0203
0000
0302
0000
,
1003
0100
1000
0100
,
0010
0001
0010
0001
,
1000
0100
0010
0001
,
0010
0100
1000
0000
,
1001
0000
1001
0000
,
0010
0100
0010
1000
,
0101
0000
0101
0000
,
1000
1000
1000
1000
,
0020
1030
0002
0013
,
0001
1000
0100
1000
,
0020
0130
0002
0013
,
0001
0001
0000
0000
,
1100
0000
1010
0000
,
0101
0000
0000
0000
,
1000
0000
0100
0000
,
1000
0000
0001
0000
,
1000
0100
1000
0010
,
0100
0001
0010
0001
,
1000
0000
0001
0000
,
1000
0000
0001
0100
,
0001
0001
1000
0100
,
0010
0010
0100
1000
,
0010
0010
0100
0001
,
0010
0010
0001
1000
,
0100
0100
1000
0010
,
0100
0100
0001
0010
,
0001
0000
1001
0000
,
1001
0000
0110
0000
,
2000
3100
0002
0013
,
1000
0100
0010
0001
,
2000
3100
0002
0013
,
1000
0001
1000
0001
,
0200
0310
0200
0310
,
1000
0001
0010
0100
,
2000
3001
0020
0031
,
1000
0100
1000
0100
,
1000
0000
0001
0000
,
1001
0000
0000
0000
,
0001
0001
1000
1000
,
0100
0010
0001
0010
,
0100
1000
0010
0100
,
0001
1000
0001
0010
,
0100
0100
1000
1000
,
0001
0100
0001
0100
,
0001
0000
1000
0000
,
0110
0000
0000
0000
,
2000
3100
0002
0013
,
0001
1000
0001
1000
,
2000
3100
0002
0013
,
0100
1000
0010
0100
,
0020
0130
0002
1003
,
0100
1000
0100
1000
,
0010
0100
0001
0010
,
0002
0000
0103
0100
,
0020
1030
0200
0310
,
0001
1000
0001
1000
;

//---------------dance-single - ----------------
#NOTEDATA:;
#CHARTNAME:;
#STEPSTYPE:dance-single;
#DESCRIPTION:;
#CHARTSTYLE:Rajeious's Chart;
#DIFFICULTY:Beginner;
#METER:2;
#RADARVALUES:0.140088,0.172207,0.000000,0.006857,0.000000,143.000000,143.000000,0.000000,1.000000,0.000000,0.000000,0.000000,0.000000,0.000000,0.140088,0.172207,0.000000,0.006857,0.000000,143.000000,143.000000,0.000000,1.000000,0.000000,0.000000,0.000000,0.000000,0.000000;
#CREDIT:Rajeious's Chart;
#OFFSET:-0.267000;
#BPMS:0.000000=120.010002
;
#STOPS:;
#DELAYS:;
#WARPS:;
#TIMESIGNATURES:0.000000=4=4
;
#TICKCOUNTS:0.000000=4
;
#COMBOS:0.000000=1
;
#SPEEDS:0.000000=1.000000=0.000000=0
;
#SCROLLS:0.000000=1.000000
;
#FAKES:;
#LABELS:0.000000=Song Start
;
#NOTES:
0000
0000
0000
0000
,
0000
0000
0000
0000
,
0000
0000
0000
0000
,
0000
0000
0000
0000
,
1000
0000
0000
0000
,
1000
0000
0000
0000
,
0001
0000
0001
0000
,
0100
0000
0100
0000
,
0010
0000
0000
0000
,
0010
0000
0000
0000
,
1000
0000
1000
0000
,
1000
0000
0001
0000
,
0100
0000
0100
0000
,
0001
0000
0001
0000
,
1000
0000
1000
0000
,
0010
0000
0010
0000
,
0100
0000
0001
0000
,
1000
0000
0100
0000
,
0010
0000
0001
0000
,
2000
0000
0000
0000
,
3001
0000
0001
0000
,
1000
0000
0010
0100
,
0010
0000
1000
0000
,
0001
0000
0001
0000
,
1000
0000
0001
0000
,
1000
0001
1000
0000
,
0010
0000
0100
0000
,
0001
0000
0001
0000
,
1000
0000
0000
0000
,
1000
0000
0000
0000
,
0010
0000
0000
0000
,
0010
0000
0000
0000
,
1000
0000
1000
0000
,
0001
0000
0001
0000
,
1000
0000
1000
0000
,
0010
0000
0010
0000
,
0100
0000
0100
0000
,
0001
0000
0001
0000
,
1000
0000
1000
0000
,
0001
0001
0001
0000
,
0100
0000
0010
0000
,
1000
0000
0001
0000
,
1000
0000
1000
0000
,
0010
0010
0010
0000
,
1000
0000
0001
0000
,
1000
1000
1000
0000
,
0010
0000
0100
0000
,
0001
0001
0001
0001
,
1000
0000
1000
0000
,
0010
0010
0010
0000
,
0100
0000
0001
0000
,
1000
1000
1000
1000
,
0001
0000
0000
0000
,
1000
0000
0000
0000
,
0001
0000
0001
0000
,
1000
0000
0010
0000
,
1000
0000
0001
0000
,
1000
0000
0010
0000
,
0100
0000
0001
0000
,
1000
1000
1000
0000
,
0001
0000
0100
0000
,
0010
0000
0000
0000
,
1000
0000
0001
0000
,
0100
0100
0100
0100
,
0001
0000
1000
0000
,
0010
0010
0010
0000
,
1000
0000
0001
0000
,
0100
0100
0100
0100
,
0010
0000
1000
0000
,
0001
0100
0001
0000
,
1000
0000
0010
0000
,
0100
0100
0100
0100
;
