#TITLE:Bam Bam;
#SUBTITLE:;
#ARTIST:Camila Cabello, Ed Sheeran;
#TITLETRANSLIT:;
#SUBTITLETRANSLIT:;
#ARTISTTRANSLIT:;
#GENRE:;
#CREDIT:;
#BANNER:AV.avi;
#BACKGROUND:bg.png;
#LYRICSPATH:;
#CDTITLE:;
#MUSIC:audio.ogg;
#OFFSET:0.080000;
#SAMPLESTART:101.320160;
#SAMPLELENGTH:15.000002;
#SELECTABLE:YES;
#BPMS:0.000000=95.000000
;
#STOPS:
;
#BGCHANGES:0.000=MV.avi=1.000=1=0=1===CrossFade==,
99999=-nosongbg-=1.000=0=0=0 // don't automatically add -songbackground-
;
#KEYSOUNDS:;
#ATTACKS:;

//---------------dance-single - ----------------
#NOTES:
     dance-single:
     :
     Challenge:
     12:
     0.548873,0.558725,0.213069,0.123717,0.677009,559.000000,528.000000,31.000000,18.000000,0.000000,0.000000,0.548873,0.558725,0.213069,0.123717,0.677009,559.000000,528.000000,31.000000,18.000000,0.000000,0.000000:
0000
0000
0000
0000
0000
0000
0000
0000
0000
0000
0000
0000
1000
0000
0001
0100
,
0000
0010
0000
0100
0001
0000
0001
0000
1000
0000
0000
0000
0001
0000
0010
0001
,
0000
1000
0000
0010
0100
0000
0100
0000
0001
0000
0000
0000
1000
0000
0001
0100
,
0000
0001
0000
0010
0001
0000
0001
0000
0010
0000
0000
0000
0001
0000
0010
0100
,
0000
1000
0000
0001
1000
0000
1000
0000
0010
0000
0000
0000
0001
0100
0001
0010
,
0000
0001
1000
0100
1000
0000
1000
0000
0001
0000
0000
0000
0001
1000
0001
0100
,
0000
0010
1000
0001
0010
0000
0010
0000
0001
0000
0000
0000
0100
0001
0100
0010
,
0000
0100
0001
1000
0010
0000
0010
0000
1000
0000
0000
0000
0001
1000
0001
0100
,
0000
0010
1000
0001
0020
0000
0030
0000
0200
0000
0300
0000
2010
0000
0000
3001
,
0000
1000
0010
1000
0001
0000
0100
0000
0001
0000
0010
0000
0210
0000
0000
0310
,
0000
0001
0010
0001
1000
0000
0010
0000
0100
0000
0001
0000
2001
0000
0000
3001
,
0000
0100
0001
0100
0010
0000
1000
0000
0100
0000
0010
0000
0002
0000
0000
0000
,
0003
0000
0000
0000
0000
0000
0000
0000
0000
0000
0000
0000
0000
0001
0000
1000
,
0000
0010
1000
0000
0010
0000
0100
0000
0001
0000
0010
0000
0000
0010
0000
0001
,
0000
0001
1000
0000
0001
0000
0010
0000
0100
0000
0100
1000
0000
0001
0000
0100
,
0001
0000
1000
0010
0000
0100
0000
0010
1000
0000
1000
0001
0100
0000
0001
0000
,
1000
0000
0010
0000
0001
0000
0010
0000
1000
0000
0001
0000
0000
0100
0000
0001
,
0000
1000
0001
0000
1000
0000
0010
0000
0100
0000
0010
0000
0000
1000
0000
0001
,
0000
0010
0001
0000
1000
0000
0001
1000
0010
0000
0100
0001
0000
0010
0000
0010
,
0100
0000
1000
0001
0000
0001
0000
0100
0010
0000
1000
0001
0100
0000
0001
1000
,
0001
0000
1000
0010
0100
0000
0100
0000
0010
0000
2000
0000
0000
0001
0000
3001
,
0100
0001
0100
0001
0010
0000
0010
0000
0001
0000
2000
0000
0000
0100
0000
3100
,
1000
0010
1000
0001
0010
0000
0010
0000
0100
0000
0200
0000
0000
1000
0000
1300
,
0100
1000
0100
0001
0100
0000
0100
0000
1000
0000
0010
0000
1000
0001
0000
0001
,
1000
0000
0001
0100
0010
0000
0010
0000
0100
0000
0002
0000
0000
0100
0000
0103
,
0001
1000
0001
0100
1000
0000
1000
0000
0100
0000
0020
0000
0000
1000
0000
1030
,
0010
0100
1000
0100
0001
0000
0010
0000
0100
0000
2000
0000
0000
0001
0000
3001
,
0100
0010
1000
0100
0010
0000
0010
0000
0001
0000
1000
0000
1000
0010
0000
0010
,
1000
0100
1000
0010
1000
0100
0010
0000
0001
0000
1010
0000
0000
0001
0100
0001
,
0100
0000
1000
0000
0100
0000
0001
0000
0010
0000
0000
0000
1001
0000
0000
0001
,
0010
0001
0010
0000
1000
0000
0010
0000
0001
0000
0000
0000
0110
0000
0000
0001
,
1000
0001
1000
0000
0001
0000
0001
0000
1000
0010
1000
0100
0010
0001
0010
1000
,
0010
0100
1000
0010
0001
0010
1000
0010
0100
0001
1000
0100
0010
0000
0000
0001
,
1000
0001
1000
0010
0100
0000
0100
0000
0010
0000
0000
0000
1000
0000
1000
0010
,
0001
0010
1000
0001
0100
0000
0100
0000
0010
0000
0000
0000
1000
0000
0001
0010
,
0100
0010
0001
1000
0010
0000
0010
0000
1000
0000
0000
0000
0010
0000
0010
1000
,
0001
0100
0010
1000
0200
0000
0300
0000
2010
0000
3000
0000
0021
0000
0030
0001
,
0000
1000
0010
0000
1000
0000
0100
0000
0010
0000
0001
0000
1000
0001
0000
0001
,
0000
1000
0010
1000
0001
0000
0010
0000
0100
0000
1000
0000
0001
1000
0000
0010
,
0000
0100
0010
1000
0001
0000
0100
0000
0010
0000
0100
0000
1001
0000
0000
0101
,
0000
0000
0011
0000
1001
0000
0110
0000
1001
0000
0110
0000
1000
0001
1000
0100
,
0000
0100
1000
0000
0001
0000
0100
0000
1000
0000
0100
0000
0001
1000
0100
0010
,
0000
0010
0001
0000
0010
0001
0000
1000
0001
0000
0100
0010
0000
1000
0000
1000
,
0010
0000
1000
0100
0000
1000
0000
0100
0010
0000
0001
1000
0001
0000
0100
0010
,
0100
0000
0010
0000
1001
0000
1001
0000
0110
0000
0110
0000
1000
0010
0000
0100
,
0000
0010
1000
0001
0010
0000
0001
0000
1000
0000
0100
0000
0010
0100
1000
0001
,
0000
0001
0100
0000
0001
1000
0000
0010
1000
0000
1000
0100
0000
1000
0000
0100
,
0010
0000
0001
0100
0000
0001
0000
0001
0100
0000
0010
1000
0100
0000
1000
0100
,
0010
0000
0100
1000
0001
0000
0101
0000
1100
0000
1001
0000
1000
0010
0000
0010
,
1000
0010
1000
0100
0010
0000
0011
0000
1100
0000
1001
0000
0000
1000
0000
0100
,
0010
0100
1000
0001
0100
0000
0101
0000
0110
0000
0011
0000
0000
0010
0000
0001
,
1000
0010
0001
0010
1000
0000
1001
0000
0110
0000
2001
0000
0000
0000
3002
0000
,
0000
0000
0103
0010
0100
0010
0100
0000
0100
0000
0010
0100
0001
1000
0010
0001
,
0010
0000
1000
0001
1000
0000
1000
0000
0010
0000
1000
0010
0100
0010
1000
0001
,
0010
0000
0001
1000
0100
0000
0100
0000
1000
0000
0001
0000
0010
0100
0001
0100
,
1000
0010
0100
0001
1000
0000
1000
0000
0100
0000
0020
0000
0000
0000
0000
0000
,
0000
0030
0000
0000
0000
0000
0000
0000
0000
0000
0000
0000
0000
0000
0000
0000
;

//---------------dance-single - ----------------
#NOTES:
     dance-single:
     :
     Hard:
     10:
     0.456576,0.462393,0.068732,0.192449,0.343659,465.000000,455.000000,10.000000,28.000000,0.000000,0.000000,0.456576,0.462393,0.068732,0.192449,0.343659,465.000000,455.000000,10.000000,28.000000,0.000000,0.000000:
// measure 0
0000
0000
0000
0000
0000
0000
1000
0001
,  // measure 1
0100
0001
0010
0010
0001
0000
1000
0010
,  // measure 2
1000
0001
0100
0100
0010
0000
1000
0001
,  // measure 3
0010
0001
1000
1000
0010
0000
0001
0100
,  // measure 4
0010
0000
0100
0000
0001
0000
0001
0000
0010
0000
0000
0000
0001
0000
1000
0001
,  // measure 5
1000
0000
0010
0000
0100
0000
0100
0000
0010
0000
0000
0000
1000
0000
0001
0010
,  // measure 6
0100
0000
0010
0000
0001
0000
0001
0000
1000
0000
0000
0000
0010
0000
1000
0001
,  // measure 7
0100
0000
0010
0000
1000
0000
1000
0000
0001
0000
0000
0000
1000
0000
0001
0010
,  // measure 8
0001
0100
0020
0000
0130
0000
1002
0000
,  // measure 9
0103
0000
0001
0100
0010
0000
0100
0000
0001
0000
0010
0000
0200
0000
0000
0000
,  // measure 10
1300
0000
0001
1000
0010
0000
1000
0000
0001
0000
0100
0000
0020
0000
0000
0000
,  // measure 11
1030
0000
1000
0100
0010
0000
0100
0000
1000
0000
0001
0000
0200
0000
0000
0000
,  // measure 12
0000
0000
0300
0000
0000
0000
0000
0000
0000
0000
0000
0000
1000
0000
0010
1000
,  // measure 13
0001
0000
0100
0000
0010
0000
0010
0000
0100
0000
0100
0000
0001
0000
1000
0100
,  // measure 14
1000
0000
0001
0100
0001
0000
0010
0000
0100
0000
0100
0010
0000
0010
0000
0000
,  // measure 15
0100
0000
0010
0001
0000
0001
0000
0000
1000
0000
0010
1000
0010
0000
0100
0001
,  // measure 16
0100
0000
0001
0000
1000
0000
1000
0000
0100
0000
0010
0000
0001
0000
1000
0010
,  // measure 17
1000
0000
0001
0000
0100
0000
0010
0000
1000
0000
0010
0000
0100
0000
0001
0010
,  // measure 18
0100
0000
1000
0000
0001
0000
0010
0100
0010
0000
0001
0000
1000
0000
1000
0010
,  // measure 19
1000
0000
0001
0000
0100
0000
0010
0100
0001
0000
1000
0000
0020
0000
0000
0000
,  // measure 20
1030
0000
0001
0100
0010
0000
0010
0000
0100
0000
0020
0000
0000
0000
0130
0000
,  // measure 21
0000
0000
0001
1000
0100
0000
0100
0000
1000
0000
0002
0000
0000
0000
0013
0000
,  // measure 22
0000
0000
0001
0010
0100
0000
0100
0000
0010
0000
0002
0000
0000
0000
1003
0000
,  // measure 23
0000
0000
0010
1000
0100
0000
0100
0000
1000
0000
0020
0000
0000
0000
1030
0000
,  // measure 24
0000
0000
1000
0010
0001
0000
0001
0000
0010
0000
0200
0000
0000
0000
0301
0000
,  // measure 25
0000
0000
0001
0100
1000
0000
1000
0000
0100
0000
0020
0000
0000
0000
0130
0000
,  // measure 26
0000
0000
1000
0100
0010
0000
0010
0000
1000
0000
0020
0000
0000
0000
0031
0000
,  // measure 27
0000
0000
0001
1000
0010
0000
0010
0000
1000
0000
0200
0000
0000
0000
0310
0000
,  // measure 28
0000
1001
0000
0110
0000
1001
0000
1001
,  // measure 29
0000
0000
0001
0000
0100
0000
0100
0000
0010
0000
1000
0000
0001
0000
1000
0001
,  // measure 30
1000
0000
0010
0000
0100
0000
0100
0000
0010
0000
1000
0000
0100
0000
1000
0100
,  // measure 31
1000
0000
0001
0000
0010
0000
0010
0000
0001
0000
1000
0000
0010
1000
0001
0100
,  // measure 32
0001
0000
0100
0000
0010
1000
0100
1000
0001
0010
0100
0010
0001
0000
1000
0010
,  // measure 33
1000
0000
0100
0000
0010
0000
0010
0000
0001
0000
0000
0000
1000
0000
1000
0010
,  // measure 34
0100
0000
0010
0000
1000
0000
1000
0000
0001
0000
0100
0000
0001
0000
1000
0010
,  // measure 35
1000
0000
0001
0000
0010
0000
0010
0000
0001
0000
0000
0000
0001
0000
0010
0100
,  // measure 36
0010
0000
0001
1000
0020
0000
0000
0000
1030
0000
0000
0000
1002
0000
0000
0000
,  // measure 37
1003
0000
0010
0100
0010
0000
0100
0000
0100
0000
0010
0000
2000
0000
0000
0000
,  // measure 38
3100
0000
0100
0000
1000
0000
0001
1000
0010
0000
0100
0000
0002
0000
0000
0000
,  // measure 39
0013
0000
0001
0100
0010
0000
0010
1000
0001
0000
0100
0000
1001
0000
0000
1001
,  // measure 40
0000
0000
0100
0000
0010
0000
1000
0000
0010
0000
0100
0000
0001
0100
0001
0000
,  // measure 41
0010
0000
0001
0000
1000
0000
0010
0000
1000
0000
0100
0000
0010
0100
0010
0000
,  // measure 42
0001
0000
1000
0000
0010
0000
0001
0000
0010
0000
1000
0010
0000
0010
0000
1000
,  // measure 43
0001
0000
0100
0010
0000
0010
0000
1000
0001
0000
0010
0001
0010
0000
0001
1000
,  // measure 44
0010
0000
1000
0000
0100
0000
0100
0000
0010
0000
0002
0000
0000
1003
0000
0010
,  // measure 45
0000
1000
0010
0000
1000
0000
0100
0000
0010
0000
0001
0000
2000
0000
0000
3001
,  // measure 46
0000
1000
0100
0000
1000
0001
0000
0010
0001
0000
0001
1000
0000
0010
0000
1000
,  // measure 47
0001
0000
0001
0010
0000
0001
0000
1000
0010
0000
0010
0100
0001
0000
1000
0100
,  // measure 48
0010
0000
0001
1000
0001
0000
1001
0000
1001
0000
0200
0000
0000
0301
0000
0001
,  // measure 49
0000
0100
0001
1000
0010
0000
0010
0000
0100
0000
0002
0000
0000
0103
0000
0100
,  // measure 50
0001
1000
0010
0100
0001
0000
0001
0000
0100
0000
0002
0000
0000
1003
0000
0010
,  // measure 51
1000
0100
0010
0100
1000
0000
1000
0000
0100
0000
2000
0000
0000
0000
3010
0000
,  // measure 52
0000
0000
0100
0010
0100
0010
0100
0000
0001
0000
2000
0000
0000
0001
0000
3001
,  // measure 53
0000
0000
0100
0001
1000
0001
0010
0100
1000
0000
0002
0000
0000
1000
0000
1003
,  // measure 54
0000
0000
0010
0100
0010
0100
0010
0000
1000
0000
0002
0000
0000
0100
0000
0103
,  // measure 55
0000
0000
0001
1000
0100
0010
0001
0000
0100
0000
0200
0000
0000
0000
0000
0000
,  // measure 56
0000
0300
0000
0000
0000
0000
0000
0000
0000
0000
0000
0000
0000
0000
0000
0000
;

//---------------dance-single - ----------------
#NOTES:
     dance-single:
     :
     Medium:
     6:
     0.318130,0.308262,0.000000,0.439884,0.003437,324.000000,324.000000,0.000000,64.000000,0.000000,0.000000,0.318130,0.308262,0.000000,0.439884,0.003437,324.000000,324.000000,0.000000,64.000000,0.000000,0.000000:
0000
0000
0000
0000
0000
0000
1000
0001
,
0100
0001
2000
0000
3010
0000
0100
0001
,
0100
0001
0020
0000
0031
0000
1000
0010
,
1000
0001
0200
0000
0310
0000
0001
1000
,
0100
1000
0002
0000
0103
0000
0010
1000
,
0010
1000
0020
0000
0130
0000
0001
0100
,
0001
0100
0002
0000
0013
0000
0100
1000
,
0100
1000
0200
0000
1300
0000
0010
1000
,
0001
1000
0020
0000
0230
0000
0302
0000
,
0013
0000
0001
0010
0100
1000
0020
0000
,
1030
0000
1000
0100
0010
0001
0200
0000
,
0301
0000
0001
0010
0100
0010
0002
0000
,
0000
0000
0000
1003
,
0010
0000
1000
0010
0100
0010
1000
0000
,
0001
0000
0100
0001
0010
0100
2000
0000
,
3002
0000
0103
0001
0100
0010
1000
0000
,
1000
0000
0010
1000
0001
0100
0002
0000
,
0013
0000
0100
0010
0100
0010
0002
0000
,
1003
0000
1000
0000
0010
1000
0002
0000
,
0103
0010
0200
0000
0310
1000
0020
0000
,
2030
0000
3001
1000
0001
0200
0000
0310
,
0000
1000
0010
0010
1000
0020
0000
0130
,
0000
0001
0001
0100
0100
0002
0000
0013
,
0000
0100
0100
0010
0010
0200
0000
1300
,
0000
0001
0001
1000
1000
0020
0000
1030
,
0000
1000
1000
0001
0001
0200
0000
0310
,
0000
1000
1000
0001
0001
0020
0000
0031
,
0000
0100
0100
0010
0010
2000
0000
3010
,
0000
0100
0001
0010
0001
0200
0000
0310
,
0000
0000
1000
1000
0001
0000
0200
0000
,
0301
0000
0010
0010
0001
0000
2000
0000
,
3010
0000
0100
0100
0010
0000
1000
0001
,
0100
0000
0001
0000
0010
0001
0010
0000
0001
0000
1000
0000
0200
0000
0000
0000
,
1300
0000
0010
0010
1000
0000
0002
0000
,
0103
0000
0010
0010
1000
0000
0002
0000
,
0013
0000
0100
0100
0010
0000
2000
0000
,
3002
0023
0032
0203
,
0310
0000
1000
0010
0100
0001
2000
0000
,
3010
0000
1000
0001
0010
0100
2000
0000
,
3002
0000
0103
0010
0100
0001
2000
0000
,
3200
0000
1300
0010
1000
0001
0100
0100
,
0020
0000
1030
0001
0010
0001
1000
1000
,
0020
0000
0130
0001
0100
0100
0010
0010
,
1000
1000
0001
0001
0100
0001
0020
0000
,
0032
0000
1003
0010
1000
0001
0200
0000
,
0320
0000
1030
0001
0010
0100
2000
0000
,
3002
0000
0103
0010
1000
0100
0010
0001
,
0010
0100
1000
0010
0100
0001
0020
0000
,
0032
0000
0103
0001
0100
0020
0000
2030
,
0000
3001
1000
0100
1000
0002
0000
0103
,
0000
0010
0100
0001
0010
0200
0000
0310
,
0000
0010
0100
1000
0100
0020
0000
0130
,
0000
1000
0001
0001
1000
0020
0000
0100
,
0000
0130
0001
0010
0100
2000
0000
0001
,
0000
3001
0100
0010
0100
0002
0000
0010
,
0000
0013
0001
0010
0100
2000
0000
0000
,
0000
3000
0000
0000
0000
0000
0000
0000
0000
0000
0000
0000
0000
0000
0000
0000
;

//---------------dance-single - ----------------
#NOTES:
     dance-single:
     :
     Easy:
     3:
     0.225833,0.230939,0.096225,0.274927,0.000000,230.000000,216.000000,14.000000,40.000000,0.000000,0.000000,0.225833,0.230939,0.096225,0.274927,0.000000,230.000000,216.000000,14.000000,40.000000,0.000000,0.000000:
0000
0000
0000
1000
,
1000
0002
0103
0010
,
0010
2000
3010
0100
,
0100
0002
0013
0100
,
0100
0020
1030
1000
,
0001
1000
0002
0000
0103
0000
0010
0000
,
0100
0010
0200
0000
0310
0000
1000
0000
,
1000
0001
2000
0000
3001
0000
0100
0000
,
0100
0002
0000
0023
,
0000
0031
0001
0200
,
0000
0310
0010
2000
,
0000
3001
0001
0200
,
0000
0310
0000
1000
,
0001
1000
1000
0010
,
0100
0001
0001
0010
,
0001
1000
1000
0010
,
0010
1000
1000
0002
,
0103
0100
0010
2000
,
3001
0100
0001
0010
,
0010
0100
0100
2000
,
3001
0000
1001
0000
0000
0002
0000
1003
,
0000
0100
0000
0100
0000
0020
0000
0031
,
0000
1000
0000
1000
0000
0020
0000
0130
,
0000
1000
0000
1000
0000
0002
0000
0013
,
0000
0100
0000
0100
0000
0020
0000
1030
,
0000
1000
0000
0001
0000
0200
0000
0301
,
0000
0010
0000
0010
0000
0002
0000
1003
,
0000
1000
0000
0010
0000
0200
0000
0301
,
0000
1000
0000
1000
0000
1001
0000
0000
,
0000
0100
0100
0110
,
0000
1000
1000
1001
,
0000
0001
0001
0100
,
0001
0000
1000
0010
1000
0010
0200
0000
,
0301
0010
0010
0001
,
1000
0010
0010
1000
,
0001
0100
0100
1001
,
1001
0000
0220
0000
0000
0330
0001
0000
,
1000
0010
1000
0001
,
0100
0010
1000
0100
,
1000
0001
0010
0002
,
0000
0103
0000
1000
,
1000
0000
0010
1000
0010
0000
0100
0000
,
0100
0000
0001
0100
0001
0000
0020
0000
,
0031
2000
3010
0200
,
0301
0000
1000
0001
1000
0000
0020
0000
,
1030
0000
0100
0001
0100
0000
0002
0000
,
0013
0000
0100
0000
1000
0000
0001
1000
,
0010
1000
1000
0002
,
0103
0100
0110
0000
,
0000
1000
0000
1000
0000
0102
0000
0103
,
0000
0001
0000
0001
0000
1002
0000
1003
,
0000
0010
0000
0010
0000
1020
0000
1030
,
0000
0100
0000
0001
0000
0102
0000
0103
,
0000
0010
0000
1000
0000
1200
0000
1300
,
0000
1000
0000
0010
0000
0210
0000
0310
,
0000
1000
0000
1000
0000
0002
0000
0000
,
0003
0000
0000
0000
;

//---------------dance-single - ----------------
#NOTES:
     dance-single:
     :
     Beginner:
     1:
     0.105062,0.133812,0.000000,0.089351,0.000000,107.000000,107.000000,0.000000,13.000000,0.000000,0.000000,0.105062,0.133812,0.000000,0.089351,0.000000,107.000000,107.000000,0.000000,13.000000,0.000000,0.000000:
0000
0000
0000
1000
,
0000
1000
0000
0001
,
0000
0001
0000
0010
,
0000
0010
0000
1000
,
0000
1000
0000
0001
,
0000
0001
0000
0010
,
0000
0010
0000
1000
,
0000
1000
0000
0100
,
0000
0100
0000
2000
,
0000
3000
0000
0002
,
0000
0003
0000
0020
,
0000
0030
0000
0200
,
0000
0300
0000
1000
,
0000
1000
0000
0001
,
0000
1000
0000
0010
,
0000
1000
0000
0001
,
0000
1000
0000
0010
,
0000
1000
0000
0100
,
0000
1000
0000
0001
,
0000
0010
0000
2000
,
0000
0000
3000
0000
0000
0001
0000
0000
,
0000
1000
0000
0000
0000
0001
0000
0000
,
0000
0010
0000
0000
0000
1000
0000
0000
,
0000
0010
0000
0000
0000
1000
0000
0000
,
0000
0001
0000
0000
0000
0020
0000
0030
,
0000
1000
0000
0000
0000
1000
0000
0000
,
0000
0001
0000
0000
0000
0100
0000
0000
,
0000
0100
0000
0000
0000
0002
0000
0000
,
0003
0000
0000
0000
0000
1000
0000
0000
,
0000
1000
0000
0001
,
0000
0001
0000
0010
,
0000
0010
0000
1000
,
1000
0001
0001
0010
,
0000
0010
0000
1000
,
0000
1000
0000
0100
,
0000
0100
0000
1000
,
0000
2000
0000
3001
,
0000
0001
0000
0010
,
0000
0010
0000
1000
,
0000
1000
0000
0002
,
0000
0103
0000
0100
,
0000
0100
0000
0010
,
0000
0010
0000
1000
,
0000
1000
0000
0002
,
0000
0103
0000
0010
,
0000
1000
0000
0001
,
0000
0100
0000
0010
,
0000
1000
0000
0001
,
0000
0000
0001
0000
0000
1000
0000
0000
,
0000
1000
0000
0000
0000
0001
0000
0000
,
0000
0001
0000
0000
0000
0010
0000
0000
,
0000
0010
0000
0000
0000
0100
0000
0000
,
0000
0100
0000
0000
0000
2000
0000
0000
,
0000
3001
0000
0000
0000
0002
0000
0000
,
0000
1003
0000
0000
0000
0020
0000
0000
,
0000
1030
0000
0000
0000
1000
0000
0000
;
