#VERSION:0.83;
#TITLE:BBUU!;
#SUBTITLE:;
#ARTIST:PLAVE;
#TITLETRANSLIT:;
#SUBTITLETRANSLIT:;
#ARTISTTRANSLIT:;
#GENRE:;
#ORIGIN:;
#CREDIT:;
#BANNER:AV.avi;
#BACKGROUND:bg.png;
#PREVIEWVID:;
#JACKET:jacket.png;
#CDIMAGE:;
#DISCIMAGE:;
#LYRICSPATH:;
#CDTITLE:;
#MUSIC:audio.ogg;
#OFFSET:-0.016000;
#SAMPLESTART:52.824070;
#SAMPLELENGTH:15.000002;
#SELECTABLE:YES;
#BPMS:0.000=110.000;
#STOPS:;
#DELAYS:;
#WARPS:;
#TIMESIGNATURES:0.000=4=4;
#TICKCOUNTS:0.000=4;
#COMBOS:0.000=1;
#SPEEDS:0.000=1.000=0.000=0,
162.000=2.000=1.000=0;
#SCROLLS:0.000=1.000,
160.000=0.250,
165.000=0.500;
#FAKES:;
#LABELS:0.000=Song Start;
#BGCHANGES:0.000=MV.avi=1.200=1=0=1===CrossFade==,
4.000=MV.avi=1.000=0=0=1=====,
99999=-nosongbg-=1.000=0=0=0 // don't automatically add -songbackground-
;
#KEYSOUNDS:;
#ATTACKS:
;

//---------------dance-single - ----------------
#NOTEDATA:;
#CHARTNAME:;
#STEPSTYPE:dance-single;
#DESCRIPTION:;
#CHARTSTYLE:;
#DIFFICULTY:Challenge;
#METER:13;
#RADARVALUES:0.481813,0.599374,0.202517,0.669865,0.397246,433.000000,407.000000,26.000000,86.000000,0.000000,0.000000,0.000000,0.000000,0.000000,0.481813,0.599374,0.202517,0.669865,0.397246,433.000000,407.000000,26.000000,86.000000,0.000000,0.000000,0.000000,0.000000,0.000000;
#CREDIT:Musey;
#NOTES:
// measure 0
0000
0000
0000
0000
,  // measure 1
0000
0000
0000
0000
,  // measure 2
0000
0000
0000
0000
,  // measure 3
0000
0000
0000
0000
,  // measure 4
0000
0000
0000
0000
0100
0000
0000
0001
0000
0000
1000
0000
0000
0001
0000
0000
,  // measure 5
0010
0000
0000
0000
0001
0000
0000
0010
0000
0000
0001
0000
0000
1000
0000
0000
,  // measure 6
0100
0000
0000
0000
1000
0000
0000
0010
0000
0000
1000
0000
0000
0100
0000
0000
,  // measure 7
1000
0000
0000
0000
0000
0000
0001
0000
0000
0001
0000
0000
0001
0000
0000
0000
,  // measure 8
0000
0000
0000
0000
2100
0000
0000
0000
3100
0000
1000
0001
0100
0000
0010
0000
,  // measure 9
1000
0000
0001
0000
0020
0000
0000
0000
0031
0000
0100
0001
1000
0000
0100
0000
,  // measure 10
0010
0000
0001
0000
0200
0000
0000
0000
0301
0000
1000
0010
2000
0000
0000
0000
,  // measure 11
3001
0000
0100
0001
0010
0000
0000
0000
0011
0000
0000
0000
0001
1000
0000
0000
,  // measure 12
0020
0000
0030
0000
1200
0000
0000
0000
1300
0000
0001
0100
1000
0000
0100
0000
,  // measure 13
0001
0000
1000
0000
0200
0000
0000
0000
1300
0000
1000
0100
0001
0000
0100
0000
,  // measure 14
1000
0000
0001
0000
0200
0000
0000
0000
0301
0000
1000
0100
2000
0000
0000
0000
,  // measure 15
3001
0000
1000
0001
0100
0000
0000
0000
1001
0000
0000
0000
0100
0001
0000
0000
,  // measure 16
1001
0000
0000
0000
2000
3000
0200
0300
2000
3000
0002
0003
0200
0300
0002
0003
,  // measure 17
0020
0030
0200
0300
2000
3000
0001
0100
0001
0000
0200
0000
0310
0000
0000
0000
,  // measure 18
0010
0000
0200
0300
2000
3000
0200
0300
0020
0030
2000
3000
0002
0003
2000
3000
,  // measure 19
0200
0300
0002
0003
0200
0300
1000
0001
1000
0000
0002
0000
0103
0000
0000
0000
,  // measure 20
0001
0010
0002
0000
1003
0000
1100
1100
,  // measure 21
0001
0200
0000
0000
0301
0000
0010
0001
0010
0000
0000
0000
1001
0000
0010
0001
,  // measure 22
1000
0001
0100
0000
0002
0000
0000
0000
1003
0000
1000
0000
0100
0000
0010
0001
,  // measure 23
0100
0010
0000
0000
1000
0100
0001
0000
0001
0100
1000
0000
0001
0100
0010
0000
,  // measure 24
0101
0000
0000
0000
0021
0000
0000
0000
0031
0000
0001
0010
0100
1000
0001
1000
,  // measure 25
0010
0000
0100
0000
0002
0000
0000
0000
1003
0000
1000
0010
0100
1000
0100
0001
,  // measure 26
0010
0000
0100
0000
0020
0000
0000
0000
0031
0000
0001
1000
0200
0000
0000
0000
,  // measure 27
0310
0000
0100
0010
0001
0000
0000
0000
1100
0000
0000
0000
0001
1000
0000
0000
,  // measure 28
0002
0003
0000
0000
1002
0000
0000
0000
1003
0000
0010
0001
0010
1000
0001
0010
,  // measure 29
0100
0000
0010
0000
0002
0000
0000
0000
1003
0000
1000
0100
0010
0001
1000
0010
,  // measure 30
0100
0000
0001
0000
2000
0000
0000
0000
3001
0000
0100
0001
0020
0000
0000
0000
,  // measure 31
0031
0000
0001
1000
0100
0000
1000
0000
1100
0000
0010
0000
0001
1000
0001
0000
,  // measure 32
0200
0300
0000
0002
0003
2000
3000
0020
,  // measure 33
0030
2000
3000
0002
0003
0200
0000
0300
,  // measure 34
0001
0010
0002
0000
1003
0100
1000
0000
,  // measure 35
1000
0001
1000
0010
0000
0200
0000
0000
0301
0100
0001
0010
0000
0002
0000
0000
,  // measure 36
0000
0003
0000
0200
0300
0002
0003
0020
,  // measure 37
0030
0002
0003
0200
0300
0020
0000
0000
,  // measure 38
1030
0001
0200
0000
0301
1000
0200
0000
,  // measure 39
1300
0000
0001
0000
0100
0000
0001
0000
0000
0100
0000
0000
0100
0000
0000
0000
,  // measure 40
0000
0000
0000
0000
,  // measure 41
0000
0000
0000
0000
1002
0000
0000
0000
1003
0000
0100
1000
0100
1000
0001
0100
,  // measure 42
1000
0100
0010
0100
0002
0000
0003
0000
0101
0000
0001
0010
0100
1000
0010
1000
,  // measure 43
0001
0100
0010
1000
0200
0000
0300
0000
1100
0000
0001
0010
0002
0000
0003
0000
,  // measure 44
1010
0000
0001
0100
0002
0000
0003
0000
0021
0000
0030
0000
0001
0100
0000
0000
,  // measure 45
0002
0000
0003
0000
0210
0000
0000
0000
0310
0000
1000
0100
0001
0100
0010
0001
,  // measure 46
0100
1000
0100
0001
2000
0000
3000
0000
1010
0000
0001
0010
1000
0010
0001
1000
,  // measure 47
0100
0010
0100
1000
0020
0000
0030
0000
0101
0000
0001
0100
0020
0000
0030
0000
,  // measure 48
1100
0000
0001
0010
0200
0000
0300
0000
0102
0000
0003
0000
0001
0100
0000
0000
,  // measure 49
2100
0000
3000
0000
1000
0100
0010
0100
2000
0000
3001
0010
0100
0000
0010
0000
,  // measure 50
0002
0000
1003
0000
0001
0000
0100
0001
0010
0001
0100
0010
2000
0000
3000
0000
,  // measure 51
1001
0000
0001
0000
1000
0100
1000
0100
0020
0000
0031
0100
0001
0000
0010
0000
,  // measure 52
0200
0000
1300
0000
0001
0000
1000
0000
0100
0000
0010
0001
0100
0000
0001
0000
,  // measure 53
0001
0000
0000
0000
1000
0000
0000
0000
1000
0000
0000
0000
0001
0000
0000
0010
0000
0000
0100
0000
0000
1000
0000
0000
0002
0000
0000
0000
0000
0000
1003
0000
0000
0100
0000
0000
1000
0000
0000
0000
0000
0000
0010
0000
0000
0000
0000
0000
,  // measure 54
0200
0000
0310
0000
1000
0000
0001
0010
0001
1000
0010
1000
0200
0000
0300
0000
,  // measure 55
1020
0000
1030
0000
0001
0010
0001
0010
0200
0000
1300
0100
0010
0000
0010
0000
,  // measure 56
0200
0000
0310
0000
0001
0000
1000
0000
0010
1000
0100
0010
0002
0000
0000
0000
,  // measure 57
1003
0000
0000
0000
;

//---------------dance-single - ----------------
#NOTEDATA:;
#CHARTNAME:;
#STEPSTYPE:dance-single;
#DESCRIPTION:;
#CHARTSTYLE:;
#DIFFICULTY:Hard;
#METER:9;
#RADARVALUES:0.388344,0.488379,0.280409,0.342722,0.116837,349.000000,313.000000,36.000000,44.000000,0.000000,0.000000,0.000000,0.000000,0.000000,0.388344,0.488379,0.280409,0.342722,0.116837,349.000000,313.000000,36.000000,44.000000,0.000000,0.000000,0.000000,0.000000,0.000000;
#CREDIT:Musey;
#NOTES:
0000
0000
0000
0000
,
0000
0000
0000
0000
,
0000
0000
0000
0000
,
0000
0000
0000
0000
,
0000
0000
0000
0000
1000
0000
0000
0001
0000
0000
1000
0000
0000
0001
0000
0000
,
0010
0000
0000
0000
0001
0000
0000
0100
0000
0000
0001
0000
0000
0100
0000
0000
,
0010
0000
0000
0000
1000
0000
0000
0100
0000
0000
1000
0000
0000
0001
0000
0000
,
0100
0001
0000
0000
,
0000
0000
0000
0000
2000
0000
0000
0000
3001
0000
0100
0001
0100
0000
0001
0000
,
1000
0000
0001
0000
0200
0000
0000
0000
0310
0000
1000
0100
1000
0000
0001
0000
,
1000
0010
0200
0000
0301
0010
0002
0000
,
1003
0010
1000
0000
1010
0000
0011
0000
,
2001
0000
0000
0000
3002
0000
0000
0000
0103
0000
0001
0010
0001
0000
0010
0000
,
0001
0000
0100
0000
0020
0000
0000
0000
1030
0000
0100
1000
0001
0000
0100
0000
,
0010
1000
0200
0000
1300
0001
0200
0000
,
0310
0101
1100
1001
,
2000
0000
3001
0100
0001
0010
0001
0100
,
0010
1000
0100
1000
0001
0200
0000
0300
,
0010
0100
0001
0010
0001
1000
0010
1000
,
0100
0010
0001
1000
0010
0200
0000
0300
,
0001
0100
0002
0000
0013
0000
0001
0001
,
0200
0000
0302
0000
1003
0000
0100
1000
,
0010
1000
0200
0000
0310
0001
0010
0001
,
2000
3010
1010
1010
,
0102
0000
0000
0000
0203
0000
0000
0000
0301
0000
1000
0001
1000
0000
0001
0100
,
0001
0000
0010
0000
0200
0000
0000
0000
0310
0000
0001
0010
0001
0000
1000
0100
,
1000
0010
0200
0000
0301
0010
0002
0000
,
1003
0001
0101
0000
1100
0000
1001
0000
,
0011
0000
0000
0000
2010
0000
0000
0000
3010
0000
0100
0001
0100
0000
0001
0010
,
0001
0000
1000
0000
0020
0000
0000
0000
1030
0000
0100
1000
0100
0000
1000
0001
,
1000
0001
0200
0000
0301
0100
0020
0000
,
1030
0001
0101
0000
1100
0000
0101
0000
,
1001
0000
0000
1000
0000
0001
0000
0100
,
0000
0001
0000
0010
0000
0100
0000
0000
,
1000
0100
2000
0000
3001
0000
0002
0000
,
1003
0001
0100
0000
0010
0100
0002
0000
,
0013
0000
0100
0010
0000
0001
0000
0010
,
0000
0001
0000
1000
0000
0200
0000
0000
,
1300
0200
0000
0000
1300
0002
0000
0000
,
1003
0200
0000
0000
0000
0000
1300
0000
,
0000
0000
0000
0000
,
0000
0000
0000
0000
1000
0000
0000
0000
0100
0000
1000
0100
1000
0100
0010
0100
,
1000
0000
0001
0000
0200
0000
0000
0000
0301
0000
0100
0001
0100
0001
0010
0001
,
0100
0010
2000
0000
3100
1000
0002
0000
,
0103
0011
1100
1001
,
0110
0000
0000
0000
0012
0000
0000
0000
0013
0000
0001
0010
0001
0010
0100
1000
,
0001
0000
1000
0000
0020
0000
0000
0000
1000
0030
1000
0100
1000
0100
0010
0001
,
1000
0001
0200
0000
0301
0100
0020
0000
,
1030
1100
0011
1001
,
0002
0000
0103
0001
0011
0000
0001
1000
,
1100
0000
1000
0100
0010
0001
0100
0001
,
0101
0000
0001
0100
0101
0000
1000
0010
,
1010
0000
1000
0010
0100
0001
0010
0001
,
0101
0000
0001
0010
1100
0000
1000
0100
,
0011
0000
0001
1000
0010
0100
0002
0010
,
0203
0000
0310
0100
0110
0000
0001
1000
,
1001
0000
1000
1000
0100
0010
0002
0000
,
1003
0000
0000
0000
;

//---------------dance-single - ----------------
#NOTEDATA:;
#CHARTNAME:;
#STEPSTYPE:dance-single;
#DESCRIPTION:;
#CHARTSTYLE:;
#DIFFICULTY:Medium;
#METER:7;
#RADARVALUES:0.299325,0.332985,0.132415,0.249252,0.000000,269.000000,252.000000,17.000000,32.000000,0.000000,0.000000,0.000000,0.000000,0.000000,0.299325,0.332985,0.132415,0.249252,0.000000,269.000000,252.000000,17.000000,32.000000,0.000000,0.000000,0.000000,0.000000,0.000000;
#CREDIT:Musey;
#NOTES:
0000
0000
0000
0000
,
0000
0000
0000
0000
,
0000
0000
0000
0000
,
0000
0000
0000
0000
,
0000
1000
0100
1000
,
1000
0001
0100
0001
,
0001
0010
0001
0100
,
0100
0001
0001
0001
,
0000
0000
2000
0000
3100
1000
0001
0100
,
0001
0000
0020
0000
0031
0100
0001
1000
,
0100
0000
2000
0000
3010
0100
0002
0000
,
0103
0001
0001
1100
,
1100
0000
0002
0000
0103
0001
0010
0001
,
1000
0000
0020
0000
1030
0100
1000
0010
,
0100
0000
0002
0000
0103
0001
2000
0000
,
3100
1000
0001
0000
0001
0000
1000
0000
,
1000
0000
0001
0100
0001
0000
1000
0100
,
1000
0000
0001
0100
0010
0000
0100
0000
,
0100
0000
0001
0010
0100
0000
1000
0100
,
0010
0000
0001
1000
0010
0000
1000
0000
,
1000
0001
0200
0000
0301
0000
0100
0001
,
0100
0000
0002
0000
0013
0000
0001
0010
,
0100
1000
0002
0000
1003
0000
0010
1000
,
0100
1100
1100
0101
,
0002
0000
0203
0000
0310
0100
0001
0010
,
0100
0000
2000
0000
3100
1000
0001
0100
,
0010
0000
0200
0000
0310
0100
0002
0000
,
0013
0011
0011
1100
,
0000
0000
2000
0000
3100
1000
0001
0100
,
0010
0000
0200
0000
0310
0100
0001
0010
,
0100
0000
2000
0000
3100
1000
0020
0000
,
1030
1001
1001
0101
,
0000
0000
1000
0000
,
1000
0000
0001
0000
,
0001
0000
0100
0000
,
0100
0000
0001
0000
,
0001
1000
0100
1000
,
1000
0001
0100
0001
,
0001
0010
0010
0001
,
0001
0100
0000
0000
,
0000
0000
0000
0000
,
0000
0000
2000
0000
3001
0100
0001
0100
,
0001
0000
2000
0000
3100
1000
0100
1000
,
0001
0000
0200
0000
0301
0100
0020
0000
,
0130
1010
1010
0101
,
0000
0000
0200
0000
0301
0100
0001
0010
,
0100
1000
0002
0000
1003
0100
0010
0001
,
0100
0010
2000
0000
3100
1000
0002
0000
,
0103
0011
0011
1001
,
0000
0000
1000
0100
1000
0000
0001
0100
,
0001
0000
0010
0100
1000
0100
0020
0000
,
0130
0000
0010
0001
0100
0000
0100
0001
,
1000
0000
0010
1000
0100
1000
0020
0000
,
0130
0000
0001
0010
0100
0000
0100
0010
,
0001
0000
0001
1000
0010
1000
0200
0000
,
0310
0000
0100
0010
0001
0000
0100
0100
,
0001
0000
1000
0100
1000
0001
0200
0000
,
0301
0000
0000
0000
;

//---------------dance-single - ----------------
#NOTEDATA:;
#CHARTNAME:;
#STEPSTYPE:dance-single;
#DESCRIPTION:;
#CHARTSTYLE:;
#DIFFICULTY:Easy;
#METER:3;
#RADARVALUES:0.155783,0.176813,0.000000,0.132415,0.000000,140.000000,140.000000,0.000000,17.000000,0.000000,0.000000,0.000000,0.000000,0.000000,0.155783,0.176813,0.000000,0.132415,0.000000,140.000000,140.000000,0.000000,17.000000,0.000000,0.000000,0.000000,0.000000,0.000000;
#CREDIT:Musey;
#NOTES:
0000
0000
0000
0000
,
0000
0000
0000
0000
,
0000
0000
0000
0000
,
0000
0000
0000
0000
,
0000
1000
0000
1000
,
0000
0001
0000
0001
,
0000
0100
0000
0100
,
0000
0001
0000
0000
,
0000
1000
0001
1000
,
0000
0001
0100
0010
,
0000
0100
0001
1000
,
0000
0001
0001
0001
,
0000
1000
0100
0010
,
0000
0001
0010
0001
,
0000
1000
0100
1000
,
0000
0001
0001
0001
,
0000
1000
1000
0010
,
0010
0100
0000
0100
,
0000
0001
0001
1000
,
1000
0100
0000
0100
,
0000
2000
0000
3001
,
0000
0001
0000
0001
,
0100
0010
0000
0010
,
0000
0100
0100
0100
,
0000
0002
0000
0103
,
0100
0020
0000
1030
,
1000
2000
0000
3200
,
0000
1300
1000
1000
,
0000
0002
0000
0103
,
0100
0020
0000
1030
,
1000
0200
0000
0320
,
0000
0031
0001
0100
,
0000
0001
0000
0000
,
0001
0000
1000
0000
,
1000
0000
0001
0000
,
0001
0000
0100
0000
,
0100
0000
0001
0000
,
0001
0000
1000
0000
,
1000
0000
0001
0000
,
0001
0000
0001
0000
,
0000
0000
0000
0000
,
0000
2000
0000
3001
,
0001
0200
0000
0301
,
0001
0020
0000
0032
,
0000
1003
1000
1000
,
0000
2000
0000
3001
,
0001
0200
0000
0310
,
0010
2000
0000
3200
,
0000
1300
1000
1000
,
0000
0001
0100
0001
,
0001
0100
0001
1000
,
0000
1000
0100
1000
,
1000
0100
1000
0001
,
0000
0100
0001
0100
,
0100
0010
0100
0001
,
0000
1000
0100
1000
,
1000
0001
0001
1000
;

//---------------dance-single - ----------------
#NOTEDATA:;
#CHARTNAME:;
#STEPSTYPE:dance-single;
#DESCRIPTION:;
#CHARTSTYLE:;
#DIFFICULTY:Beginner;
#METER:1;
#RADARVALUES:0.109048,0.154712,0.000000,0.000000,0.000000,98.000000,98.000000,0.000000,0.000000,0.000000,0.000000,0.000000,0.000000,0.000000,0.109048,0.154712,0.000000,0.000000,0.000000,98.000000,98.000000,0.000000,0.000000,0.000000,0.000000,0.000000,0.000000,0.000000;
#CREDIT:Musey;
#NOTES:
0000
0000
0000
0000
,
0000
0000
0000
0000
,
0000
0000
0000
0000
,
0000
0000
0000
0000
,
0000
1000
0000
0000
,
0000
0001
0000
0000
,
0000
1000
0000
0000
,
0000
0001
0000
0000
,
0000
1000
0000
1000
,
0000
0001
0000
0001
,
0000
0010
0000
0010
,
0000
0100
0000
0000
,
0000
0001
0000
0001
,
0000
1000
0000
1000
,
0000
0010
0000
0010
,
0000
0100
0000
0000
,
0000
0001
0000
0001
,
0000
0001
0000
0000
,
0000
1000
0000
1000
,
0000
1000
0000
0000
,
0000
0100
0000
0001
,
0000
0100
0000
0000
,
0000
0001
0000
1000
,
0000
0001
0000
0000
,
0000
0100
0000
0100
,
0000
0001
0000
0001
,
0000
1000
0000
1000
,
0000
0001
0000
0000
,
0000
0100
0000
0001
,
0000
0100
0000
0010
,
0000
1000
0000
0100
,
0000
1000
0000
0000
,
0000
0000
0000
0000
,
1000
0000
1000
0000
,
0001
0000
0001
0000
,
0001
0000
0100
0000
,
0100
0000
0001
0000
,
0001
0000
1000
0000
,
1000
0000
0001
0000
,
0001
0000
0100
0000
,
0000
0000
0000
0000
,
0000
1000
0000
1000
,
0000
0001
0000
0001
,
0000
0100
0000
0100
,
0000
0001
0000
0001
,
0000
1000
0000
0010
,
0000
1000
0000
0100
,
0000
1000
0000
0001
,
0000
0100
0000
0100
,
0000
0001
0100
0001
,
0000
1000
0100
1000
,
0000
0010
0100
0010
,
0000
0100
0001
0100
,
0000
0001
1000
0100
,
0000
0100
1000
0001
,
0000
0001
0100
0010
,
0000
0100
0100
0100
;
