#VERSION:0.83;
#TITLE:-Amulet;
#SUBTITLE:;
#ARTIST:OverNote;
#TITLETRANSLIT:;
#SUBTITLETRANSLIT:;
#ARTISTTRANSLIT:;
#GENRE:;
#ORIGIN:;
#CREDIT:;
#BANNER:bn.png;
#BACKGROUND:bg.png;
#PREVIEWVID:;
#JACKET:jacket.png;
#CDIMAGE:;
#DISCIMAGE:;
#LYRICSPATH:;
#CDTITLE:;
#MUSIC:audio.mp3;
#OFFSET:-0.026000;
#SAMPLESTART:42.320137;
#SAMPLELENGTH:14.999991;
#SELECTABLE:YES;
#DISPLAYBPM:*;
#BPMS:0.000=170.000;
#STOPS:;
#DELAYS:;
#WARPS:;
#TIMESIGNATURES:0.000=4=4;
#TICKCOUNTS:0.000=4;
#COMBOS:0.000=1;
#SPEEDS:0.000=1.000=0.000=0;
#SCROLLS:0.000=1.000,
118.000=0.500,
120.000=1.000,
212.000=0.800,
214.000=0.500,
232.000=0.800,
233.000=1.000,
248.000=0.900,
249.000=0.800,
250.000=0.700,
251.000=0.600,
252.000=0.500,
253.000=1.000;
#FAKES:;
#LABELS:0.000=Song Start;
#BGCHANGES:0.000=MV.avi=0.600=1=0=0=StretchNoLoop==CrossFade==,
42.000=MV.avi=1.000=0=0=1=====,
99999=-nosongbg-=1.000=0=0=0 // don't automatically add -songbackground-
;
#KEYSOUNDS:;
#ATTACKS:
;

//---------------dance-single - ----------------
#NOTEDATA:;
#CHARTNAME:;
#STEPSTYPE:dance-single;
#DESCRIPTION:;
#CHARTSTYLE:;
#DIFFICULTY:Challenge;
#METER:18;
#RADARVALUES:0.839921,0.974144,0.345850,0.279974,0.794631,714.000000,672.000000,42.000000,34.000000,0.000000,0.000000,0.000000,0.000000,0.000000,0.839921,0.974144,0.345850,0.279974,0.794631,714.000000,672.000000,42.000000,34.000000,0.000000,0.000000,0.000000,0.000000,0.000000;
#CREDIT:Rausey;
#DISPLAYBPM:*;
#NOTES:
// measure 0
0000
0000
0000
0000
,  // measure 1
0000
0000
0000
0000
,  // measure 2
0001
0000
0000
0000
0010
0001
0100
0001
1000
0000
0000
0010
0000
0000
0100
0000
,  // measure 3
0002
0000
0000
0000
1003
0010
1000
0100
0010
0000
0000
0001
0000
0000
1000
0000
,  // measure 4
0010
0000
0000
0100
0000
0000
0010
0000
1000
0000
0000
0100
0000
0000
0010
0000
,  // measure 5
0001
0000
0010
0000
0100
0000
0010
0000
0001
0000
0000
1000
0010
0000
0100
0000
,  // measure 6
0002
0000
0000
0000
1003
0100
0010
0001
0010
0000
0000
0001
0000
0000
0100
0000
,  // measure 7
0200
0000
0000
0000
0301
0010
0100
1000
0001
0000
0000
1000
0000
0000
0010
0000
,  // measure 8
0100
0010
1000
0010
1000
0100
1000
0100
,  // measure 9
0010
0000
0001
0010
0001
0000
0100
0000
0001
0000
0000
0001
0100
0000
0010
0000
,  // measure 10
1000
0000
0000
0000
0001
0010
0100
0010
0001
0000
0000
1000
0000
0000
0001
0000
,  // measure 11
0100
0010
1000
1000
,  // measure 12
0010
0000
0000
0000
1000
0100
0010
0100
1000
0000
0000
0001
0000
0000
0100
0000
,  // measure 13
0010
0000
0000
0000
0010
0000
0000
0000
1000
0000
0000
0100
0010
0000
0001
0000
,  // measure 14
1000
0000
0001
1000
0001
0100
0001
1000
0010
0000
0100
0010
0000
0100
0010
0000
,  // measure 15
1000
0000
0010
1000
0010
0000
1000
0001
1000
0000
0100
0010
0100
0000
0010
0100
,  // measure 16
0010
0000
0001
0010
0100
1000
0001
0010
0001
0000
0010
0001
0000
0001
1000
0000
,  // measure 17
0010
0000
0100
0010
0100
0000
0010
1000
0010
0000
0000
1010
0000
0000
1010
0000
,  // measure 18
0020
0000
0000
0000
0030
1000
0001
1000
0010
0000
0000
0100
0000
0000
0001
0000
,  // measure 19
0010
0000
0000
0001
0000
0000
1000
0000
0200
0000
0000
0300
1000
0100
1000
0100
,  // measure 20
0020
0000
0000
0000
0032
0000
0000
0000
2003
0000
0000
3000
0001
0010
0100
0000
,  // measure 21
0010
0000
0100
0010
0001
0000
1000
0000
0002
0000
0000
0003
1000
0010
1000
0010
,  // measure 22
0200
0000
0000
0300
0001
1000
0100
1000
0200
0000
0000
1300
0010
0000
1000
0000
,  // measure 23
0001
0000
0000
0010
0001
0000
0100
0000
0020
0000
0000
0030
0100
0010
0100
0010
,  // measure 24
2000
0000
0000
0000
3002
0000
0000
0000
0023
0000
0000
0030
0100
0010
0001
0000
,  // measure 25
0100
0000
0010
1000
0010
0000
1000
0000
0100
0000
1000
0000
0001
0000
1000
0000
,  // measure 26
0020
0000
0230
0000
,  // measure 27
0302
0000
2003
3000
,  // measure 28
1001
0000
0000
0000
1000
0100
0010
0001
0100
0000
0000
0010
0000
0000
0100
0000
,  // measure 29
0001
0000
0000
0000
0000
0000
0000
0000
0100
0001
0000
1000
0000
0000
0001
0000
,  // measure 30
1001
0000
0000
0000
1000
0001
0010
0001
1000
0000
0000
0100
1000
0000
0010
0000
,  // measure 31
0100
0000
0000
0000
0100
0001
1000
0001
0010
0000
0000
0001
1000
0000
1000
0000
,  // measure 32
0010
0000
0000
1000
0001
0000
1000
0000
0010
0000
0000
1000
0001
0000
0100
0000
,  // measure 33
0010
0000
1000
0010
0100
0000
0001
0000
0010
0000
0000
0001
1000
0000
1000
0001
,  // measure 34
0200
0000
0000
0300
0001
1000
0001
1000
0100
0000
0100
0000
1000
0000
0001
0000
,  // measure 35
0011
0000
0000
0011
0000
0000
0110
0000
1001
0000
1000
0010
1000
0000
0010
0000
,  // measure 36
0100
0000
0000
0001
1000
0000
0010
0000
0100
0000
0000
0010
0100
0000
0001
0000
,  // measure 37
1000
0110
1100
0110
,  // measure 38
1001
0000
1000
0000
0001
0000
1000
0100
0010
0000
0010
0100
1000
0000
1000
0000
,  // measure 39
0001
0000
1000
0001
0010
0000
0001
1000
0010
0000
1000
0000
0100
0000
0010
0000
,  // measure 40
0001
0000
0000
1000
0000
0000
0010
0000
0100
0000
0001
1000
0100
1000
0100
0010
,  // measure 41
0100
1000
0000
1000
0001
0000
0100
0000
0010
1000
0000
1000
0100
0000
1000
0000
,  // measure 42
0100
0000
0010
0000
0001
0010
0001
0010
0100
1000
0100
1000
0100
0010
0100
0010
,  // measure 43
0001
0000
0000
1001
0000
0000
0011
0000
0000
1001
0000
0000
0110
0000
1000
0100
,  // measure 44
0010
0000
0001
0000
0100
0000
0001
0000
0001
0000
1000
0010
1000
0000
0010
0000
,  // measure 45
0100
0000
1010
0000
0110
0000
0011
0000
0110
0000
1001
0000
,  // measure 46
0010
0000
1000
0100
1000
0100
0010
0100
0010
0001
0010
0001
0010
0100
0010
0100
,  // measure 47
0001
0000
1000
0001
0000
1000
0001
0000
1000
0001
0000
0001
0100
0010
1000
0100
,  // measure 48
0010
0000
0001
1000
0001
0010
0100
0010
0001
0000
0100
0001
0000
0100
0001
0000
,  // measure 49
0010
0100
0010
0000
0100
0010
0100
0000
0001
0000
1000
0000
0010
0000
0100
0000
,  // measure 50
0001
0000
0100
0000
1000
0000
0100
0001
0100
0000
0010
1000
0010
0000
0100
0000
,  // measure 51
0001
0000
1000
0100
0010
0000
0010
0100
1000
0000
0001
0100
0010
0100
0001
0100
,  // measure 52
0020
0000
0000
0000
,  // measure 53
1030
0000
0001
0000
,  // measure 54
0001
0000
0000
0000
1000
0000
0001
0000
1000
0000
0000
0010
0000
0000
0100
0000
,  // measure 55
0001
0000
0000
0000
0100
0000
0001
0000
1000
0000
0000
0001
0000
0000
1000
0000
,  // measure 56
0010
0000
0000
1000
0000
0000
0100
0000
0010
0000
0000
0100
0000
0000
1000
0000
,  // measure 57
0010
1000
0010
0100
0001
0000
0010
0000
,  // measure 58
0001
0000
0000
0000
0001
1000
0001
0100
0010
0000
1000
0000
0001
0000
0010
0000
,  // measure 59
0100
0000
0000
1000
0000
0000
0001
0000
0100
0000
0010
1000
0010
0000
1000
0000
,  // measure 60
0001
0100
0001
0100
0010
1000
0010
1000
,  // measure 61
0010
0000
0000
0000
0100
0000
0000
0000
0010
0000
0000
1000
0000
0000
0010
0000
,  // measure 62
0100
0002
0203
0320
,  // measure 63
0230
0000
0000
0000
0301
1000
0010
0100
0010
0000
0000
1000
0000
0000
1001
0000
,  // measure 64
0110
0000
0000
0000
0001
0010
0100
0010
0001
0000
1000
0001
1000
0000
0010
0000
,  // measure 65
1000
0000
0001
1000
0001
0000
0010
0000
0100
0000
1000
0001
1000
0000
0010
0000
,  // measure 66
0100
0000
0001
0010
0001
0000
1000
0000
0010
0000
0100
0000
0001
0000
0010
0001
,  // measure 67
0200
0000
0000
0300
0001
1000
0100
0010
0001
0000
0010
0000
0100
0000
1000
0000
,  // measure 68
0001
0000
0000
1001
0000
0000
1010
0000
1010
0000
0001
0010
0100
0000
1000
0000
,  // measure 69
0010
0000
1000
0010
1000
0000
0100
0000
1000
0000
0001
1000
0001
0000
0100
0000
,  // measure 70
0001
0101
1001
0110
,  // measure 71
1002
0000
0000
0000
1003
0100
0010
0001
0100
0000
0000
0010
1000
0000
1100
0000
,  // measure 72
0110
0000
0000
0000
0001
0100
0010
0100
0001
0000
1000
0100
1000
0000
0001
0000
,  // measure 73
0011
0000
1000
0001
1000
0000
0010
0000
0110
0000
0100
0001
1000
0000
1010
0000
,  // measure 74
1010
0000
0100
0001
0100
0000
0001
0000
1000
0000
0000
0010
1000
0000
0100
1000
,  // measure 75
0100
0000
0000
0000
1000
0001
0100
0001
0010
0000
0100
0000
1000
0000
0001
0000
,  // measure 76
0100
0000
0000
0101
0000
0000
1010
0000
0101
0000
1000
0010
1000
0000
0100
0000
,  // measure 77
0010
0000
0001
1000
0001
0000
0100
0000
0001
0000
1000
0010
1000
0000
0001
0000
,  // measure 78
0100
0000
0001
1000
0001
0000
0001
0000
0010
0000
0001
1000
0001
0000
0100
0000
,  // measure 79
0020
0000
0000
0000
1030
0001
1000
0001
0010
0000
0000
0001
0000
0000
1000
0000
,  // measure 80
0200
0000
0000
0000
1300
0001
1000
0001
0100
0000
0000
0001
0000
0000
1000
0000
,  // measure 81
0010
0000
0110
0000
0100
0000
0101
0000
0001
0000
0011
0000
,  // measure 82
0002
0000
0000
0000
0103
0010
0001
0010
0200
0000
0000
0000
0302
0000
0000
0000
,  // measure 83
0023
0000
0000
0000
0000
0000
0000
0000
0000
0000
0000
0000
0000
0000
0031
1000
,  // measure 84
0002
0000
0000
0000
0103
0010
0100
0010
0100
0000
0000
0000
0000
0000
0000
0000
;

//---------------dance-single - ----------------
#NOTEDATA:;
#CHARTNAME:;
#STEPSTYPE:dance-single;
#DESCRIPTION:;
#CHARTSTYLE:;
#DIFFICULTY:Hard;
#METER:16;
#RADARVALUES:0.704640,0.730608,0.164690,0.156456,0.485837,599.000000,579.000000,20.000000,19.000000,0.000000,0.000000,0.000000,0.000000,0.000000,0.704640,0.730608,0.164690,0.156456,0.485837,599.000000,579.000000,20.000000,19.000000,0.000000,0.000000,0.000000,0.000000,0.000000;
#CREDIT:Rausey;
#DISPLAYBPM:*;
#NOTES:
// measure 0
0000
0000
0000
0000
,  // measure 1
0000
0000
0000
0000
,  // measure 2
1000
0000
0000
0000
0001
0100
0001
0000
0100
0000
0000
0001
0000
0000
1000
0000
,  // measure 3
0010
0000
0000
0000
1000
0010
1000
0000
0001
0000
0000
1000
0000
0000
0001
0000
,  // measure 4
0100
0000
0000
0010
0000
0000
0100
0000
0001
0000
0000
1000
0000
0000
0100
0000
,  // measure 5
1000
0001
1000
0010
0100
0000
1001
0000
,  // measure 6
0010
0000
0000
0000
0100
0001
0100
0000
0001
0000
0000
1000
0000
0000
0010
0000
,  // measure 7
0100
0000
0000
0000
0001
0010
0001
0000
0010
0000
0000
0100
0000
0000
0010
0000
,  // measure 8
0001
0001
1000
1000
0010
0010
0100
0100
,  // measure 9
0001
0000
0100
0000
0001
0000
0100
0000
0010
0000
0000
1000
0000
0000
0100
0000
,  // measure 10
0020
0000
0000
0000
0130
0010
0100
0000
1000
0000
0000
0001
0000
0000
0100
0000
,  // measure 11
0010
0010
0100
0100
,  // measure 12
0001
0000
0000
0000
1000
0001
1000
0000
0010
0000
0000
0100
0000
0000
0010
0000
,  // measure 13
1000
0100
0001
0100
,  // measure 14
1001
0000
0000
0000
0001
0000
0100
0001
0100
0000
0000
0010
0000
0000
1000
0000
,  // measure 15
1001
0100
0010
0000
1001
0010
0100
0000
,  // measure 16
1001
0000
0001
0100
0010
1000
0001
0100
,  // measure 17
0010
0000
0010
1000
0010
0000
1000
0000
0001
0000
0001
0100
0001
0000
0010
0000
,  // measure 18
0200
0000
0000
0000
1300
0001
1000
0000
0001
0000
0100
0000
0010
0000
0100
0000
,  // measure 19
0001
0000
0010
0000
1000
0000
0010
0000
0001
0000
0000
0000
1000
0100
1000
0000
,  // measure 20
0001
0000
0100
0000
0010
0000
1000
0000
0100
0000
0000
0000
0001
0010
0001
0000
,  // measure 21
0100
0000
0100
0000
0010
0000
0100
0000
0020
0000
0000
0030
1000
0010
1000
0010
,  // measure 22
2000
0000
0000
0000
3100
1000
0010
0000
0100
0000
0001
0000
0010
0000
0001
0000
,  // measure 23
1000
0000
0100
0000
0010
0000
0001
0000
2000
0000
0000
3000
0001
0100
0001
0000
,  // measure 24
0100
0000
0010
0000
1000
0000
0010
0000
0200
0000
0000
0300
0001
0100
0001
0000
,  // measure 25
0010
0010
0001
0100
0010
0100
0001
0010
,  // measure 26
0200
0000
2300
0000
,  // measure 27
3020
0000
0230
0000
,  // measure 28
0301
0000
0000
0000
0000
0000
0000
0000
0100
0000
0000
0100
0000
0000
0100
0000
,  // measure 29
0001
0000
0010
0000
0001
0000
1000
0000
0010
0000
0000
0010
0000
0000
0010
0000
,  // measure 30
1001
0000
0000
0000
1000
0100
0010
0000
0001
0000
0000
1000
0000
0000
0001
0000
,  // measure 31
0002
0000
0000
0003
1000
0001
1000
0000
0010
0000
0100
0000
0001
0000
0100
0000
,  // measure 32
0001
0100
0010
0001
0010
0100
1000
0100
,  // measure 33
0010
1000
0001
0100
0001
0010
1000
0010
,  // measure 34
0002
0000
0103
0010
0100
0001
1000
0100
,  // measure 35
0010
0000
0000
0010
0000
0000
0001
0000
0100
0000
0001
0100
0001
0000
1000
0000
,  // measure 36
0100
0000
0000
0100
0000
0000
1000
0000
0010
0000
0000
0010
0000
0000
0100
0000
,  // measure 37
0001
1100
1001
1010
,  // measure 38
0101
0000
0000
0000
0001
0000
1000
0001
1000
0000
0100
0000
0010
0000
0001
0000
,  // measure 39
1000
0000
0100
0000
1000
0001
0000
0001
0000
0000
1000
0000
0100
0000
0010
0000
,  // measure 40
0001
0000
0000
1000
0000
0000
0001
0000
1000
0000
0100
1000
0100
1000
0100
0010
,  // measure 41
0001
0000
0000
1000
0000
0000
0001
0000
0010
0001
0000
1000
0000
0000
0010
0000
,  // measure 42
1000
0000
0000
0000
1000
0100
1000
0000
0001
0010
0001
0000
1000
0100
1000
0000
,  // measure 43
0010
0000
0000
0010
0000
0000
0100
0000
0000
0010
0000
0000
0100
0000
0001
1000
,  // measure 44
0001
0000
1000
0000
0100
0000
0010
0000
0010
0000
0100
0010
0100
0000
1000
0000
,  // measure 45
0001
0000
0001
0000
1000
0000
1000
0000
0010
0000
0100
0000
,  // measure 46
0001
0000
0001
0000
1000
0100
1000
0000
0001
0010
0001
0000
0010
0100
0010
0100
,  // measure 47
1000
0000
0000
1000
0000
0000
0001
0000
0000
0001
0000
0000
0100
0000
0001
0000
,  // measure 48
0001
0000
1000
0100
1000
0100
1000
0100
0010
0000
0000
0010
0000
0000
0001
0000
,  // measure 49
0100
0100
0010
0010
1000
1000
0001
0001
,  // measure 50
0200
0000
0000
0300
0001
0100
0001
0100
0001
0000
1000
0010
1000
0000
0001
0000
,  // measure 51
0100
0000
0100
0000
0010
0000
0010
0000
1000
0000
1000
0000
0001
1000
0001
0000
,  // measure 52
0200
0000
0000
0000
,  // measure 53
0310
0000
1000
0000
,  // measure 54
1000
0000
0000
0000
0000
0000
0001
0000
0001
0000
0000
0100
0000
0000
0010
0000
,  // measure 55
0100
0000
0000
0000
0010
0000
1000
0000
0010
0000
0000
1000
0000
0000
1000
0000
,  // measure 56
0001
0000
0000
0010
0000
0000
0010
0000
0100
0000
0000
1000
0000
0000
1000
0000
,  // measure 57
0001
1000
0001
0100
0010
0000
0100
0000
,  // measure 58
0001
1001
0001
0110
,  // measure 59
0001
0000
0000
1001
0000
0000
0010
0000
0010
0000
0100
0010
0100
0000
0001
0000
,  // measure 60
1000
1000
0001
0001
0010
0010
0001
0001
,  // measure 61
0100
0010
1000
0010
,  // measure 62
0100
0001
0100
0001
,  // measure 63
1000
0000
0000
0000
0001
0100
0001
0000
0100
0000
0000
0110
0000
0000
0010
0000
,  // measure 64
0100
0000
0000
0000
0001
1000
0001
0000
1000
0000
0000
0010
1000
0000
0010
0000
,  // measure 65
0100
0000
0000
0001
1000
0000
0010
0000
1000
0000
0000
0001
0100
0000
0100
0000
,  // measure 66
0010
0000
1000
0010
1000
0000
0001
0000
0010
0000
0100
0000
0010
0000
0001
0000
,  // measure 67
0100
0000
0000
0000
0010
1000
0010
1000
0010
0000
0100
0000
0001
0000
0010
0000
,  // measure 68
0100
0000
0000
1100
0000
0000
1000
0000
0100
0000
1000
0001
1000
0000
0001
0000
,  // measure 69
0100
0000
0000
0001
0100
0000
0010
0000
1000
0000
0000
0100
1000
0000
0001
0000
,  // measure 70
1000
1010
0101
0110
,  // measure 71
1001
0000
0000
0000
0001
1000
0001
0000
0001
0000
0000
1000
0000
0000
0001
0000
,  // measure 72
0100
0000
0000
0000
0001
0010
0001
0010
0001
0000
0000
0001
0000
0000
0100
0000
,  // measure 73
0010
0000
0000
1000
0010
0000
0100
0000
0001
0000
0000
1000
0001
0000
1000
0000
,  // measure 74
0010
0000
0100
0010
0100
0000
0010
0000
1000
0000
0001
0010
0001
0000
1000
0000
,  // measure 75
0010
0000
0000
0000
0010
0100
0010
0100
0010
0000
1000
0000
0001
0000
0100
0000
,  // measure 76
0001
0000
0000
1100
0000
0000
0001
0000
0100
0000
0010
1000
0010
0000
1000
0000
,  // measure 77
0010
0000
0000
0100
0010
0000
1000
0000
0100
0000
0000
1000
0001
0000
0010
0000
,  // measure 78
0100
0000
0000
1000
0001
0000
1000
0000
0001
0000
0100
0010
1000
0000
1000
0000
,  // measure 79
0002
0000
0000
0000
1003
0010
1000
0000
0100
0000
0000
0010
0000
0000
0001
0000
,  // measure 80
0010
0000
0000
0000
0001
0100
0001
0000
1000
0000
0000
0010
0000
0000
0100
0000
,  // measure 81
0001
0000
0001
0000
1000
0000
1000
0000
0010
0000
1000
0000
,  // measure 82
0100
0000
0000
0000
1000
0001
1000
0001
2000
0000
0000
0000
3200
0000
0000
0000
,  // measure 83
0320
0000
0000
0000
0000
0000
0000
0000
0000
0000
0000
0000
0000
0000
0031
1000
,  // measure 84
0002
0000
1003
0010
1000
0000
0000
0000
;

//---------------dance-single - ----------------
#NOTEDATA:;
#CHARTNAME:;
#STEPSTYPE:dance-single;
#DESCRIPTION:;
#CHARTSTYLE:;
#DIFFICULTY:Medium;
#METER:13;
#RADARVALUES:0.601120,0.591444,0.107049,0.403491,0.168808,511.000000,498.000000,13.000000,49.000000,0.000000,0.000000,0.000000,0.000000,0.000000,0.601120,0.591444,0.107049,0.403491,0.168808,511.000000,498.000000,13.000000,49.000000,0.000000,0.000000,0.000000,0.000000,0.000000;
#CREDIT:Rausey;
#DISPLAYBPM:*;
#NOTES:
0000
0000
0000
0000
,
0000
0000
0000
0000
,
2000
0000
0000
0000
3001
0000
0100
0000
0001
0000
0000
0100
0000
0000
0001
0000
,
0010
0000
0000
0000
0100
0000
1000
0000
0100
0000
0000
1000
0000
0000
0010
0000
,
0100
0000
0000
0001
0000
0000
0010
0000
0100
0000
0000
1000
0000
0000
0001
0000
,
0100
0001
0100
0001
0010
0000
0001
0000
,
1001
0000
0000
0000
0010
0000
1000
0000
0010
0000
0000
0010
0000
0000
1000
0000
,
0010
0000
0000
0000
0100
0000
0001
0000
0100
0000
0000
0001
0000
0000
0010
0000
,
0100
0000
0000
0100
0000
0000
1000
0000
0010
0000
0000
0010
0000
0000
1000
0000
,
0001
0000
1000
0000
0001
0000
0100
0000
0010
0000
0000
1000
0000
0000
1000
0000
,
0001
0000
0000
0000
0100
0000
0001
0000
0100
0000
0000
0010
0000
0000
1000
0000
,
0002
0003
0002
0003
0020
0030
0020
0030
,
0200
0000
0300
0000
1000
0000
0100
0000
1000
0000
0000
0001
0000
0000
0100
0000
,
0020
0030
2000
3000
0020
0030
2000
3000
,
0200
0000
0310
0000
0100
0000
0010
0000
0100
0000
0000
1000
0000
0000
0001
0000
,
0200
0300
0202
0303
0002
0003
2002
3003
,
0020
0000
1030
0000
0100
0000
0010
0000
0001
0000
0000
0100
0000
0000
0001
0000
,
0100
0010
0100
0010
1000
0001
1000
0001
,
0020
0031
0002
0103
,
0001
0100
0001
1000
0010
0000
1000
0010
,
2000
0000
3200
0000
0320
0000
0031
0100
,
0001
1000
0010
0100
0010
0000
1000
0001
,
2000
0000
3010
0100
0001
0010
0100
1000
,
0010
0100
0001
1000
0200
0000
1300
0010
,
2000
0000
3020
0000
0230
0000
0301
0010
,
0001
0010
0100
1000
0001
1000
0001
0100
,
0020
0100
2030
0001
,
3002
0010
0023
0001
,
0031
0000
0000
0000
0000
0000
0000
0000
0010
0000
0000
0010
0000
0000
0010
0000
,
0100
0010
1000
0010
0100
0000
0000
0000
,
2001
0000
0000
0000
3010
0000
1000
0000
0010
0000
0000
0100
0000
0000
0001
0000
,
0020
0000
0000
0000
0031
0000
1000
0000
0001
0000
0000
0100
0000
0000
0010
0000
,
1000
0000
0000
0100
0000
0000
0010
0000
0001
0000
0000
1000
0000
0000
0010
0000
,
0100
0010
1000
0100
0010
0000
0100
0000
,
2000
0000
3001
1000
0001
0100
0010
1000
,
0100
0000
0000
0100
0000
0000
1000
0000
0010
0000
0100
0000
0010
0000
0100
0000
,
0001
0010
0001
0010
0100
1000
0100
1000
,
0010
0100
0010
0100
0001
0010
0001
0010
,
0200
0000
0000
0000
1300
0000
0010
0000
1000
0000
0000
1000
0000
0000
0001
0000
,
0100
0000
0001
0000
0100
0000
0000
0001
0000
0000
0010
0000
0001
0000
1000
0000
,
0001
0000
0000
0010
0000
0000
0100
0000
0100
0000
0010
0000
0001
0000
0100
0000
,
0010
0000
0000
0010
0000
0000
1000
0000
0001
0000
0000
0001
0000
0000
1000
0000
,
0001
0010
0001
0010
0100
1000
0010
0100
,
0010
0000
0000
1000
0000
0000
0001
0000
0000
0001
0000
0000
1000
0000
0100
0000
,
0010
0000
0001
1000
0001
0010
0100
1000
,
0001
0000
0001
0000
1000
0000
1000
0000
0010
0000
0010
0000
,
1000
0001
1000
0001
0100
0010
0100
0010
,
1000
0001
0010
0100
1000
0010
0100
0001
,
0010
0001
0010
0001
1000
0100
1000
0100
,
0010
0001
0100
0010
1000
0100
0001
0100
,
1000
0010
0100
0010
0001
0010
0100
0001
,
0010
0001
0010
0100
1000
0010
0100
0010
,
2000
0001
3002
1000
,
1003
0000
0010
0000
,
0100
0010
0200
0000
,
0301
1000
0002
0000
,
0103
0001
0010
0001
,
0100
0010
1000
0010
,
1000
0000
0001
1000
0001
0100
0010
1000
,
0100
0000
0000
0100
0000
0000
1000
0000
0100
0000
0100
0000
1000
0000
0010
0000
,
0100
0010
0100
0001
0100
0001
0100
0010
,
1000
2000
3020
0230
,
0301
0200
0320
0230
,
0300
0000
0110
0000
1000
0010
0001
0010
,
1000
0000
1010
0000
1000
0100
0001
0100
,
1000
0010
0100
0001
0010
0001
0010
0100
,
1000
0010
0100
0010
1000
0000
0100
0000
,
1001
0000
0100
0010
0100
0001
0010
0100
,
1000
0000
0000
1000
0000
0000
0001
0000
0100
0000
0010
0000
1000
0000
0010
0000
,
0100
0000
0000
0100
0000
0000
0001
0000
0001
0000
0000
0010
0000
0000
0010
0000
,
0001
1001
0101
1001
,
2000
0000
3010
0000
1000
0001
0010
0001
,
1000
0000
0110
0000
1000
0001
0010
0100
,
1000
0000
0000
0010
0000
0000
0100
0000
0001
0000
0000
1000
0000
0000
0100
0000
,
0010
0100
1000
0001
0100
0010
1000
0001
,
0100
0000
0001
0010
0001
0100
0010
1000
,
0100
0000
0000
0100
0000
0000
1000
0000
0100
0000
0100
0000
1000
0000
0010
0000
,
0100
0001
0010
0100
1000
0100
0010
0001
,
1000
0001
0100
0010
0100
0010
1000
0001
,
0200
0000
0301
0000
0001
0000
0001
1000
,
0010
0000
0010
0000
0010
1000
0100
0010
,
0001
0000
0001
0000
0001
0000
1000
0000
1000
0000
1000
0000
,
0010
0000
0100
0010
0100
0000
0100
0000
,
0200
0000
0000
0000
,
0310
0110
1001
0000
;

//---------------dance-single - ----------------
#NOTEDATA:;
#CHARTNAME:;
#STEPSTYPE:dance-single;
#DESCRIPTION:;
#CHARTSTYLE:;
#DIFFICULTY:Easy;
#METER:8;
#RADARVALUES:0.468191,0.521863,0.082345,0.131752,0.000000,398.000000,388.000000,10.000000,16.000000,0.000000,0.000000,0.000000,0.000000,0.000000,0.468191,0.521863,0.082345,0.131752,0.000000,398.000000,388.000000,10.000000,16.000000,0.000000,0.000000,0.000000,0.000000,0.000000;
#CREDIT:Musey;
#DISPLAYBPM:*;
#NOTES:
0000
0000
0000
0000
,
0000
0000
0000
0000
,
0001
0000
0100
0001
0100
0000
0010
0000
,
0010
0000
1000
0100
1000
0000
0001
0000
,
0100
0100
0010
0010
,
1000
1000
0001
0100
,
0001
0000
0010
0001
0010
0000
0100
0000
,
0100
0000
1000
0100
1000
0000
0010
0000
,
1000
1000
0001
0001
,
0100
0001
0100
0001
0010
0000
0010
0000
,
0200
0000
1300
0001
1000
0000
0001
0000
,
1000
1010
0010
1010
,
0100
0000
0010
0100
0010
0000
1000
0000
,
0001
1001
0010
0110
,
0100
0010
0100
0010
0100
0000
1000
0000
,
0001
0100
0001
0100
0001
1000
0100
1000
,
0100
0000
1000
0001
1000
0000
0010
0000
,
0100
0010
0100
0010
1000
0010
1000
0010
,
0100
0100
0001
0001
,
1000
0001
1000
0000
0010
0000
0100
0000
,
0001
0000
0001
0000
0010
0000
0001
1000
,
0001
0100
0010
1000
0001
0000
0001
0000
,
2000
3001
0001
0100
,
0001
0010
0001
0100
0010
0000
1000
0000
,
1000
0000
0100
0000
0100
0000
0010
0001
,
1000
0100
1000
0001
0100
0001
0100
0000
,
0020
0000
2030
0000
,
3002
0000
0203
0000
,
0302
0000
2003
0000
,
3010
0010
0100
0000
,
0001
0000
1000
0000
0010
1000
0010
1000
,
0100
0000
0010
0000
0001
0010
0001
0010
,
0100
0000
1000
0010
1000
0000
0001
0010
,
0001
0100
0010
0010
,
1001
0000
0001
0000
0100
0001
0100
0000
,
0010
1000
0100
0000
1000
0000
1000
0000
,
0001
1001
0100
0110
,
0100
0001
0100
0000
0010
1000
0010
0000
,
1000
1000
0001
0001
,
0100
0001
0010
0000
0100
0010
0001
0000
,
1000
0010
1000
0000
0001
0100
0010
0000
,
1000
0100
0010
0000
0001
0100
0010
0000
,
1000
0001
1000
0000
0001
0100
0001
0000
,
0010
0010
0100
0100
,
0010
0001
1000
0000
0010
0100
0001
0000
,
1000
1000
0001
0001
,
1000
0100
1000
0100
0010
0000
0010
0000
,
0001
0010
0001
0100
0010
0000
0010
0000
,
0100
0010
0100
0010
1000
0000
1000
0000
,
0001
0010
0100
0010
0001
0000
0001
0000
,
1000
1000
0010
0010
,
1000
0000
1000
0000
0001
0100
0001
0000
,
0020
0000
0001
0000
,
0031
0000
0000
0000
,
2000
0000
0000
0000
,
3002
0000
0000
0000
,
0023
0000
0000
0000
,
0032
0000
0000
0000
,
0103
0100
0010
0010
,
1000
0010
1000
0010
0100
0000
0100
0000
,
0001
0001
0010
0010
,
0100
0100
1000
1000
,
0001
0000
0000
0000
,
1001
0000
0000
0000
0001
0000
0001
0100
,
0001
0000
1000
0000
1000
0000
0010
1000
,
0010
1000
0010
0100
0001
0100
0001
0010
,
0100
0000
0010
0000
0010
0001
1000
0000
,
0010
0000
0100
0000
0001
0100
0010
0000
,
1000
0100
1000
0000
0001
0010
0001
0000
,
0100
0110
0010
1001
,
1000
0001
1000
0001
0100
0000
0100
0000
,
0020
0000
1030
0000
1000
0001
1000
0001
,
0010
0000
0010
0000
0001
0100
0001
0100
,
0010
0100
0010
1000
0100
1000
0100
1000
,
0001
0001
0010
0010
,
0100
0000
1000
0100
1000
0000
0001
0100
,
0001
0000
0010
0000
0001
0010
0100
0000
,
1000
0001
1000
0000
0010
0100
0010
0000
,
1000
0100
0010
0001
0010
0100
1000
0001
,
0100
0100
0010
0010
,
1000
1000
0001
0001
,
0200
0000
0000
0000
,
0310
0000
1000
0001
1000
0000
0010
0000
,
0200
0000
0000
0000
,
0301
0000
1000
0001
1000
0000
0000
0000
;

//---------------dance-single - ----------------
#NOTEDATA:;
#CHARTNAME:;
#STEPSTYPE:dance-single;
#DESCRIPTION:;
#CHARTSTYLE:;
#DIFFICULTY:Beginner;
#METER:5;
#RADARVALUES:0.312912,0.347908,0.123518,0.238801,0.000000,266.000000,251.000000,15.000000,29.000000,0.000000,0.000000,0.000000,0.000000,0.000000,0.312912,0.347908,0.123518,0.238801,0.000000,266.000000,251.000000,15.000000,29.000000,0.000000,0.000000,0.000000,0.000000,0.000000;
#CREDIT:Musey;
#DISPLAYBPM:*;
#NOTES:
0000
0000
0000
0000
,
0000
0000
0000
0000
,
1000
0000
1000
1000
,
0001
0000
0001
0001
,
0100
0100
0010
0010
,
1000
1000
0001
0100
,
0001
0000
0100
0100
,
0001
0000
0010
0010
,
0001
1000
0001
1000
,
0010
0010
0100
0100
,
0002
0000
1003
1000
,
0010
0010
0100
0100
,
0020
0000
1030
0010
,
1000
1000
0100
0100
,
0020
0000
0031
0000
,
0100
0100
0001
0001
,
2000
0000
3010
0000
,
0100
0001
0100
0001
,
2000
0000
3010
1000
,
0010
1000
0010
0000
,
0200
0000
0301
0100
,
0001
1000
0010
0000
,
0020
0000
0130
0010
,
1000
0001
0100
0000
,
0010
0010
1000
0000
,
0001
0100
0001
0100
,
0020
0000
1030
0000
,
2000
0000
3010
0000
,
0120
0000
0130
0000
,
0001
0001
1000
0000
,
1002
0000
0103
0000
,
0210
0000
0310
0000
,
1000
1000
0001
0001
,
0010
0010
0001
0001
,
2000
0000
3010
0000
,
0001
0100
0001
0100
,
0002
0000
0013
0000
,
0010
0010
0001
1000
,
0001
0100
0010
1000
,
0010
0100
1000
0100
,
0010
1000
0001
0010
,
1001
0000
1010
0000
,
1001
0000
0001
0001
,
0010
0010
0100
0100
,
1000
1000
0010
0010
,
0110
0000
1001
0000
,
1001
0001
1000
1000
,
0010
0010
0100
0100
,
0001
1000
0001
1000
,
0010
0100
0010
0100
,
0001
0010
0100
1000
,
0100
1000
0010
0100
,
0002
0000
0000
0000
,
1003
0000
0000
0000
,
0020
0000
0000
0000
,
2030
0000
0000
0000
,
3002
0000
0000
0000
,
0203
0000
0000
0000
,
0310
0000
0010
0000
,
0100
0100
0100
0000
,
0002
0000
1003
0000
,
0010
1000
0010
1000
,
0100
0000
0000
0000
,
2000
0000
3001
0100
,
0201
0000
0310
0100
,
1000
1000
0001
0001
,
0100
0001
1000
0010
,
2010
0000
3010
0010
,
1000
1000
0001
0001
,
0100
0001
0010
0100
,
1000
0010
1000
0001
,
0201
0000
0310
0010
,
0120
0000
0130
0100
,
0100
0001
0001
1000
,
1000
0010
0010
0100
,
0102
0000
1003
0100
,
0010
0100
1000
0001
,
0100
0100
0001
0001
,
1000
1000
0010
0010
,
0200
0000
0301
0001
,
2000
0000
3010
0010
,
0100
0000
0100
0000
,
0100
0000
0000
0000
,
0002
0000
0000
0000
,
1003
0000
1001
0000
;
